osu file format v7

[General]
AudioFilename: Bakkushan - Springwut.mp3
AudioLeadIn: 2000
PreviewTime: 60281
Countdown: 0
SampleSet: Normal
StackLeniency: 0.4
Mode: 0
LetterboxInBreaks: 1

[Editor]
Bookmarks: 374,11994,12744,24556,36369,47244,48744,59994,84369
DistanceSpacing: 0.899999976158142
BeatDivisor: 4
GridSize: 16

[Metadata]
Title:Springwut
Artist:Bakkushan
Creator:Nharox
Version:Relaxing
Source:
Tags:

[Difficulty]
HPDrainRate:3
CircleSize:3
OverallDifficulty:3
SliderMultiplier:1.28
SliderTickRate:1

[Events]
//Background and Video events
0,0,"Bakkushan.jpg"
//Break Periods
2,24569,34929
//Storyboard Layer 0 (Background)
//Storyboard Layer 1 (Fail)
//Storyboard Layer 2 (Pass)
//Storyboard Layer 3 (Foreground)
//Storyboard Sound Samples
//Background Colour Transformations
3,100,163,162,255

[TimingPoints]
369,375,4,1,1,60,1,0
10775,-100,4,2,0,60,0,0
11900,-100,4,1,2,60,0,0
22588,-100,4,1,1,100,0,0
37400,-100,4,2,1,100,0,0
37587,-100,4,1,1,100,0,0
38900,-100,4,2,1,100,0,0
39087,-100,4,1,1,100,0,0
46400,-100,4,2,1,100,0,0
46587,-100,4,1,1,100,0,0
47150,-100,4,2,1,100,0,0
47337,-100,4,1,1,100,0,0
53150,-100,4,2,1,100,0,0
53337,-100,4,1,1,100,0,0
59994,-100,4,1,1,100,0,1
64400,-100,4,2,1,100,0,1
64587,-100,4,1,1,100,0,1
65150,-100,4,2,1,100,0,1
65337,-100,4,1,1,100,0,1
84369,-100,4,1,0,100,0,0

[Colours]
Combo1 : 255,255,255
Combo2 : 0,149,0
Combo3 : 140,0,0
Combo4 : 242,121,0

[HitObjects]
16,224,369,1,0
16,160,744,1,0
16,96,1119,2,0,B|16:-16|176:-16|176:112,1,256,0|0
176,160,2244,1,0
176,224,2619,1,0
176,288,2994,2,0,B|176:400|336:400|336:272,1,256
336,224,4119,1,0
336,160,4494,1,0
336,96,4869,2,0,B|336:-16|496:-16|496:112,2,256
416,128,6744,6,0,B|320:288|160:0|32:160,1,384
128,192,8244,5,0
160,256,8619,1,0
192,320,8994,1,0
256,352,9369,1,0
320,320,9744,1,0
352,256,10119,1,0
384,192,10494,1,0
320,192,10869,6,0,B|160:192,4,128,2|2|2|0|4
384,160,12744,5,0
352,48,13494,1,0
256,112,14244,1,0
160,48,14994,1,0
128,160,15744,1,0
256,128,16494,5,0
224,192,16869,1,0
288,192,17244,1,0
320,256,17619,1,0
256,256,17994,1,0
192,256,18369,1,0
128,256,18744,5,0
256,200,19494,1,0
384,256,20244,1,0
256,312,20994,1,0
256,200,21744,1,0
256,88,22494,1,0
256,192,22869,12,4,24369
216,200,36369,5,0
216,200,36744,1,8
216,200,37119,2,0,B|104:200|104:40|232:40,1,256,0|0
293,40,38244,1,8
293,40,38619,2,0,B|407:39|407:199|295:199,1,256
320,256,39744,5,8
256,288,40119,1,0
192,256,40494,1,8
192,256,40869,1,0
256,64,41806,5,4
256,64,42181,1,4
144,128,42744,5,8
64,192,43119,1,0
144,240,43494,1,8
368,128,44244,5,8
448,192,44619,1,0
368,240,44994,1,8
256,96,45744,5,8
256,96,46119,2,0,B|256:384,2,256
256,56,47806,1,4
256,56,48181,1,4
192,192,48744,6,0,B|139:139|107:267|43:171,2,128,8|0|8
256,192,49869,1,0
320,192,50244,6,0,B|373:139|405:267|469:171,2,128,8|0|8
256,192,51369,1,0
224,128,51744,5,8
288,128,52119,1,0
352,96,52494,1,8
352,96,52869,2,0,B|352:0|160:0|160:128,1,256
164,97,53994,1,12
64,224,54744,5,8
128,256,55119,1,0
192,288,55494,1,8
256,320,55869,1,0
256,320,56244,5,8
320,288,56619,1,0
384,256,56994,1,8
448,224,57369,1,0
256,192,57744,12,4,59994
256,64,60369,5,6
256,128,60744,1,6
256,192,61119,1,6
320,224,61494,6,0,B|404:152|523:266|408:350,2,256,8|8|8
256,256,63369,1,0
256,192,63744,1,8
192,224,64119,2,0,B|108:152|-11:266|104:350,2,256,0|6|6
320,320,66369,5,6
256,320,66744,1,14
192,320,67119,1,6
192,256,67494,6,0,B|192:160|192:160|128:160|128:160|128:32|128:32,1,256,8|8
192,32,68619,1,0
256,64,68994,1,8
320,32,69369,1,0
384,62,69744,2,0,B|384:32|384:160|384:160|320:160|320:160|320:256,1,256,8|8
320,320,70869,1,6
256,288,71244,1,14
192,320,71619,1,6
128,192,72369,5,6
192,224,72744,1,14
256,192,73119,1,6
320,224,73494,1,8
384,192,73869,2,0,B|384:32|384:32,1,128,0|8
320,32,74619,1,0
256,64,74994,1,8
192,32,75369,1,0
128,64,75744,2,0,B|128:224|128:224,1,128,8|0
176,256,76494,6,0,B|176:368|336:368|336:240,2,256,8|8|14
256,256,78369,2,0,B|256:64,3,128,6|14|6|8
320,96,79869,5,0
352,160,80244,1,8
320,224,80619,1,0
256,256,80994,1,8
192,224,81369,1,0
160,160,81744,1,8
192,96,82119,1,0
256,192,82494,12,4,84369
