osu file format v5

[General]
AudioFilename: Bad Religion - Ten in 2010.mp3
AudioLeadIn: 0
PreviewTime: -1
Countdown: 3
SampleSet: Normal
StackLeniency: 0.7
Mode: 0
LetterboxInBreaks: 1

[Metadata]
Title:Ten in 2010
Artist:Bad Religion
Creator:laterz
Version:Hard
Source:
Tags:

[Difficulty]
HPDrainRate:3
CircleSize:6
OverallDifficulty:5
SliderMultiplier:1.2
SliderTickRate:0.5

[Events]
//Background and Video events
//Break Periods
//Storyboard Layer 0 (Background)
//Storyboard Layer 1 (Failing)
//Storyboard Layer 2 (Passing)
//Storyboard Layer 3 (Foreground)
//Storyboard Sound Samples
//Background Colour Transformations
3,100,163,162,255

[TimingPoints]
0,297.778810710453,4,1,0,100,1
9713,286.95,4,1,0,100,1
43716,286.95,4,1,0,100,1
71462,286.95,4,1,0,100,1
85156,286.95,4,1,0,100,1
111938,286.95,4,1,0,100,1

[HitObjects]
192,192,9713,1,0
192,192,9999,1,0
192,192,10286,1,0
192,192,10573,1,0
192,192,10860,1,0
192,192,11147,1,0
192,192,11434,1,0
192,192,11721,1,4
256,192,12080,5,0
256,192,12367,1,0
256,192,12654,1,0
192,224,12941,1,0
128,160,13156,1,0
256,128,13443,1,0
288,128,13730,1,0
256,224,14017,1,4
64,192,16312,5,6
224,192,16599,1,0
256,160,16886,1,0
256,224,17173,1,0
288,160,17460,1,0
288,96,18034,1,0
320,192,18321,1,0
352,128,18608,1,0
288,128,21119,5,0
256,160,21406,1,0
256,192,21693,1,0
256,256,21980,1,0
288,256,22267,1,0
320,224,22554,1,0
320,192,22840,1,0
352,160,23127,1,0
192,128,25710,5,0
160,160,25997,1,0
160,192,26284,1,0
128,224,26571,1,0
160,256,26858,1,0
192,224,27145,1,0
192,192,27432,1,0
224,192,27719,1,0
256,192,30301,12,0,32310
256,192,34892,12,4,36829
128,160,39484,5,0
160,128,39771,1,0
160,192,40057,1,0
96,192,40631,1,0
96,128,40918,1,0
64,192,41205,1,0
32,192,44003,2,0,B|128:192|128:160,2,90
480,192,45151,6,0,B|384:192|384:160,2,90
128,160,48594,1,6
128,224,48881,1,0
192,160,49168,1,0
256,160,49742,1,0
256,224,50029,1,0
288,160,50316,1,0
192,192,53114,5,0
192,192,53401,1,0
192,192,53688,1,0
352,96,54190,1,0
352,96,54477,1,0
352,96,54764,1,0
160,96,55338,1,0
160,192,55625,1,0
256,160,55911,5,0
256,224,56198,1,0
320,160,56485,1,0
320,224,56772,1,0
192,224,57059,1,0
224,160,57346,1,0
160,288,57920,5,0
192,224,58207,1,0
128,224,58494,1,4
160,128,59068,1,0
160,128,59211,1,0
160,128,59355,1,0
32,192,62224,2,0,L|192:192|192:96|256:96|256:224|512:224,1,690
416,192,64448,2,0,L|416:32|64:32,1,510
64,32,66242,1,4
128,160,66816,1,4
128,192,67389,1,4
96,64,67820,5,4
160,32,68107,1,4
224,32,68250,1,4
288,32,68537,1,4
352,32,69111,1,8
416,32,69398,1,0
96,128,69685,1,4
64,128,69972,1,4
192,160,70259,5,4
256,96,70546,1,4
224,160,70833,1,4
256,128,71120,1,4
128,192,71478,2,0,L|384:192,3,240
32,192,73631,2,0,L|160:64|160:64|384:64|384:64|384:160|384:160|160:160|160:224|160:224|384:224,1,990
256,192,76644,12,0,84606
128,32,85467,6,14,L|128:64|96:96|96:96|128:96|128:96|96:128|416:128,1,467.5
256,192,89556,1,0
224,192,89843,1,0
224,160,90130,1,0
192,160,90417,1,0
160,192,90704,1,0
160,224,90991,1,0
160,160,91278,1,0
160,128,91565,1,0
160,128,91780,2,0,L|288:128,2,110
352,128,92928,6,0,L|192:128,2,137.5
256,192,94076,1,0
192,160,94363,1,0
224,128,94650,1,0
256,128,94937,1,0
288,160,95080,1,0
288,128,95367,1,0
320,160,95511,1,0
320,128,95654,1,0
352,160,95798,1,0
352,128,96084,1,0
256,192,96371,12,0,97161
256,192,97447,12,0,98308
224,224,98595,5,0
256,160,98882,1,0
192,160,99169,1,0
256,160,99456,1,0
288,192,99600,1,0
320,128,100030,1,0
352,192,100317,1,0
384,160,100604,1,0
0,192,100891,2,0,L|128:192,2,110
64,128,101967,2,0,L|64:256,2,110
224,192,102828,5,0
224,160,102971,1,0
256,160,103258,1,0
288,160,103402,1,0
320,160,103545,1,0
320,128,103689,1,0
288,128,103976,1,0
256,128,104119,1,0
224,160,104478,1,0
192,192,104621,1,0
192,160,104765,1,0
192,128,105052,5,0
32,192,105339,2,0,L|160:192,2,110
416,128,106415,2,0,L|416:256,2,110
256,192,107562,12,0,109858
160,128,110120,5,0
160,128,110264,1,0
224,128,110694,1,0
224,128,110838,1,0
256,160,111149,1,0
256,192,111293,1,0
288,224,111580,1,0
320,256,111867,1,0
320,256,112082,6,0,L|320:192,4,60
256,192,113229,2,0,L|256:256,4,60
192,256,114377,1,0
224,224,114664,1,0
256,192,114950,1,0
288,160,115237,1,0
288,160,115524,1,0
320,192,115811,1,0
352,160,116098,1,0
320,128,116313,1,0
