osu file format v14

[General]
AudioFilename: Yeah Boy - Shooting Stars.mp3
AudioLeadIn: 0
PreviewTime: 4940
Countdown: 0
SampleSet: Soft
StackLeniency: 0.7
Mode: 3
LetterboxInBreaks: 0
SpecialStyle: 0
WidescreenStoryboard: 0

[Editor]
Bookmarks: 9734,13574,19017,22857
DistanceSpacing: 0.7
BeatDivisor: 4
GridSize: 4
TimelineZoom: 1.5

[Metadata]
Title:Yeah Boy - Shooting Stars
TitleUnicode:Yeah Boy - Shooting Stars
Artist:BaconAkin
ArtistUnicode:BaconAkin
Creator:Sinnoh
Version:Sur's HD
Source:
Tags:Chromoxx Surono _Meep_ Meme boi Youtube Haiku Bag Raiders
BeatmapID:1232029
BeatmapSetID:576426

[Difficulty]
HPDrainRate:9
CircleSize:4
OverallDifficulty:9
ApproachRate:8
SliderMultiplier:1.9
SliderTickRate:1

[Events]
//Background and Video events
0,0,"mania.jpg",0,0
Video,2020,"video.avi"
//Break Periods
//Storyboard Layer 0 (Background)
//Storyboard Layer 1 (Fail)
//Storyboard Layer 2 (Pass)
//Storyboard Layer 3 (Foreground)
//Storyboard Sound Samples

[TimingPoints]
133,480,4,2,1,10,1,0
2533,-100,4,2,1,15,0,0
4453,-100,4,2,1,20,0,0
4693,-100,4,2,1,10,0,0
4933,-66.6666666666667,4,2,1,10,0,0
5533,-100,4,2,1,10,0,0
5900,480,4,2,1,10,1,0
5900,-100,4,2,1,50,0,0
17420,-66.6666666666667,4,2,1,15,0,0
19023,480,4,2,1,60,1,1
26703,-100,4,2,1,40,0,0
27750,480,4,2,1,25,1,0
29223,480,4,2,1,12,1,0

[HitObjects]
448,192,133,5,2,0:0:0:0:
448,192,373,5,0,0:0:0:0:
64,192,613,5,6,0:0:0:0:
192,192,613,1,0,0:0:0:0:
64,192,853,1,0,0:0:0:0:
448,192,1093,1,2,0:0:0:0:
320,192,1093,1,0,0:0:0:0:
448,192,1333,1,0,0:0:0:0:
192,192,1573,1,0,0:0:0:0:
64,192,1573,1,6,0:0:0:0:
64,192,1813,1,0,0:0:0:0:
448,192,2053,1,2,0:0:0:0:
320,192,2053,1,0,0:0:0:0:
320,192,2293,1,0,0:0:0:0:
192,192,2533,1,0,0:0:0:0:
64,192,2533,1,6,0:0:0:0:
192,192,2773,1,0,0:0:0:0:
320,192,3013,1,0,0:0:0:0:
448,192,3013,1,2,0:0:0:0:
320,192,3253,1,0,0:0:0:0:
192,192,3493,1,0,0:0:0:0:
64,192,3493,1,6,0:0:0:0:
192,192,3733,1,0,0:0:0:0:
320,192,3973,1,0,0:0:0:0:
448,192,3973,1,2,0:0:0:0:
192,192,4213,1,0,0:0:0:0:
64,192,4453,1,0,0:0:0:0:
448,192,4453,1,0,0:0:0:0:
320,192,4693,1,0,0:0:0:0:
64,192,4933,128,0,5413:0:0:0:0:
448,192,4933,128,0,5900:0:0:0:0:
320,192,5900,128,2,6380:0:0:0:0:
64,192,5900,1,0,0:0:0:0:
448,192,6380,1,8,0:0:0:0:
192,192,6380,1,0,0:0:0:0:
64,192,6380,1,2,0:0:0:0:
320,192,6620,128,0,6860:0:0:0:0:
448,192,6860,1,2,0:0:0:0:
64,192,6860,1,0,0:0:0:0:
64,192,7340,1,0,0:0:0:0:
192,192,7340,1,0,0:0:0:0:
448,192,7340,1,8,0:0:0:0:
320,192,7580,1,0,0:0:0:0:
64,192,7700,1,2,0:0:0:0:
192,192,7700,128,0,8300:0:0:0:0:
448,192,7820,1,2,0:0:0:0:
320,192,7820,1,0,0:0:0:0:
64,192,8060,1,2,0:0:0:0:
64,192,8300,1,0,0:0:0:0:
448,192,8300,1,0,0:0:0:0:
320,192,8300,1,8,0:0:0:0:
448,192,8540,128,0,8780:0:0:0:0:
320,192,8660,1,2,0:0:0:0:
64,192,8780,1,2,0:0:0:0:
192,192,8780,1,0,0:0:0:0:
192,192,9020,1,2,0:0:0:0:
64,192,9260,1,0,0:0:0:0:
320,192,9260,1,0,0:0:0:0:
448,192,9260,1,10,0:0:0:0:
192,192,9500,1,2,0:0:0:0:
320,192,9620,128,0,10220:0:0:0:0:
448,192,9740,1,0,0:0:0:0:
64,192,9740,1,2,0:0:0:0:
192,192,10220,1,0,0:0:0:0:
64,192,10220,1,2,0:0:0:0:
448,192,10220,1,8,0:0:0:0:
192,192,10460,128,0,10700:0:0:0:0:
448,192,10700,1,2,0:0:0:0:
320,192,10700,1,0,0:0:0:0:
64,192,11180,1,0,0:0:0:0:
192,192,11180,1,0,0:0:0:0:
448,192,11180,1,8,0:0:0:0:
320,192,11420,1,0,0:0:0:0:
64,192,11540,1,2,0:0:0:0:
192,192,11540,128,0,12140:0:0:0:0:
320,192,11660,1,2,0:0:0:0:
448,192,11660,1,0,0:0:0:0:
64,192,11900,1,2,0:0:0:0:
64,192,12140,1,8,0:0:0:0:
320,192,12140,1,0,0:0:0:0:
448,192,12140,1,0,0:0:0:0:
64,192,12380,128,0,12620:0:0:0:0:
192,192,12500,1,2,0:0:0:0:
448,192,12620,1,0,0:0:0:0:
320,192,12620,1,2,0:0:0:0:
192,192,12860,1,2,0:0:0:0:
64,192,13100,1,2,0:0:0:0:
320,192,13100,1,0,0:0:0:0:
448,192,13100,1,8,0:0:0:0:
192,192,13340,1,2,0:0:0:0:
320,192,13460,128,0,14060:0:0:0:0:
448,192,13580,1,0,0:0:0:0:
64,192,13580,1,2,0:0:0:0:
192,192,14060,1,0,0:0:0:0:
64,192,14060,1,2,0:0:0:0:
448,192,14060,1,8,0:0:0:0:
192,192,14300,128,0,14540:0:0:0:0:
448,192,14540,1,2,0:0:0:0:
64,192,14540,1,0,0:0:0:0:
64,192,15020,1,0,0:0:0:0:
192,192,15020,1,0,0:0:0:0:
448,192,15020,1,8,0:0:0:0:
320,192,15260,1,0,0:0:0:0:
64,192,15380,1,2,0:0:0:0:
192,192,15380,128,0,15980:0:0:0:0:
320,192,15500,1,0,0:0:0:0:
448,192,15500,1,2,0:0:0:0:
64,192,15740,1,2,0:0:0:0:
64,192,15980,1,0,0:0:0:0:
448,192,15980,1,8,0:0:0:0:
320,192,15980,1,0,0:0:0:0:
192,192,16220,128,0,16460:0:0:0:0:
320,192,16340,1,2,0:0:0:0:
64,192,16460,1,2,0:0:0:0:
448,192,16460,1,0,0:0:0:0:
192,192,16700,1,2,0:0:0:0:
448,192,16940,1,10,0:0:0:0:
320,192,16940,1,0,0:0:0:0:
64,192,16940,1,0,0:0:0:0:
192,192,17180,1,0,0:0:0:0:
320,192,17300,1,0,0:0:0:0:
64,192,17420,128,0,19023:0:0:0:0:
320,192,19023,1,0,0:0:0:0:
448,192,19023,1,2,0:0:0:0:
192,192,19023,128,0,19503:3:0:0:0:
64,192,19503,1,2,0:0:0:0:
320,192,19503,1,0,0:0:0:0:
448,192,19503,1,8,0:0:0:0:
192,192,19743,128,0,19983:0:0:0:0:
448,192,19983,1,0,0:0:0:0:
64,192,19983,1,2,0:0:0:0:
320,192,20223,1,0,0:0:0:0:
192,192,20463,1,0,0:0:0:0:
64,192,20463,1,0,0:0:0:0:
448,192,20463,1,8,0:0:0:0:
320,192,20703,1,0,0:0:0:0:
192,192,20823,128,2,21423:0:0:0:0:
448,192,20943,1,0,0:0:0:0:
64,192,20943,1,2,0:0:0:0:
320,192,21183,1,2,0:0:0:0:
64,192,21423,1,0,0:0:0:0:
448,192,21423,1,8,0:0:0:0:
320,192,21423,1,0,0:0:0:0:
192,192,21663,128,0,21903:0:0:0:0:
448,192,21903,1,0,0:0:0:0:
64,192,21903,128,2,22143:0:0:0:0:
320,192,22143,128,0,22383:0:0:0:0:
64,192,22383,1,0,0:0:0:0:
192,192,22383,1,0,0:0:0:0:
448,192,22383,128,8,22623:0:0:0:0:
320,192,22623,1,0,0:0:0:0:
64,192,22743,128,2,23343:0:0:0:0:
192,192,22743,1,0,0:0:0:0:
448,192,22863,1,2,0:0:0:0:
320,192,22863,1,0,0:0:0:0:
192,192,23343,1,2,0:0:0:0:
448,192,23343,1,8,0:0:0:0:
320,192,23343,1,0,0:0:0:0:
64,192,23583,128,0,23823:0:0:0:0:
320,192,23823,1,0,0:0:0:0:
192,192,23823,1,2,0:0:0:0:
64,192,24303,1,0,0:0:0:0:
448,192,24303,1,8,0:0:0:0:
320,192,24303,1,0,0:0:0:0:
192,192,24543,1,0,0:0:0:0:
448,192,24663,128,2,25263:0:0:0:0:
320,192,24663,1,0,0:0:0:0:
192,192,24783,1,0,0:0:0:0:
64,192,24783,1,2,0:0:0:0:
64,192,25023,1,2,0:0:0:0:
64,192,25263,1,0,0:0:0:0:
192,192,25263,1,0,0:0:0:0:
320,192,25263,1,8,0:0:0:0:
320,192,25503,128,0,25743:0:0:0:0:
64,192,25623,1,2,0:0:0:0:
192,192,25743,1,2,0:0:0:0:
448,192,25743,1,0,0:0:0:0:
192,192,25983,128,2,26223:0:0:0:0:
320,192,26223,1,0,0:0:0:0:
64,192,26223,1,2,0:0:0:0:
448,192,26223,1,8,0:0:0:0:
192,192,26463,128,0,26583:0:0:0:0:
448,192,26583,128,0,26703:0:0:0:0:
320,192,26943,128,0,27423:0:0:0:0:
64,192,27750,1,2,0:0:0:0:
192,192,27750,1,2,0:0:0:0:
448,192,27870,1,2,0:0:0:0:
320,192,27870,1,2,0:0:0:0:
64,192,27990,1,8,0:0:0:0:
448,192,27990,1,8,0:0:0:0:
192,192,27990,1,4,0:0:0:0:
320,192,29223,128,0,29463:0:0:0:0:
192,192,29463,128,0,30663:0:0:0:0:
