osu file format v14

[General]
AudioFilename: Yeah Boy - Shooting Stars.mp3
AudioLeadIn: 0
PreviewTime: 4940
Countdown: 0
SampleSet: Normal
StackLeniency: 0.7
Mode: 1
LetterboxInBreaks: 0
WidescreenStoryboard: 0

[Editor]
Bookmarks: 9740,13580,19023,22863
DistanceSpacing: 0.7
BeatDivisor: 4
GridSize: 4
TimelineZoom: 1.6

[Metadata]
Title:Yeah Boy - Shooting Stars
TitleUnicode:Yeah Boy - Shooting Stars
Artist:BaconAkin
ArtistUnicode:BaconAkin
Creator:Sinnoh
Version:Chromoxx' Muzukashii
Source:
Tags:Chromoxx Surono _Meep_ Meme boi Youtube Haiku Bag Raiders
BeatmapID:1240481
BeatmapSetID:576426

[Difficulty]
HPDrainRate:7
CircleSize:4
OverallDifficulty:5
ApproachRate:8
SliderMultiplier:1.4
SliderTickRate:1

[Events]
//Background and Video events
0,0,"taiko.jpg",0,0
//Break Periods
//Storyboard Layer 0 (Background)
//Storyboard Layer 1 (Fail)
//Storyboard Layer 2 (Pass)
//Storyboard Layer 3 (Foreground)
//Storyboard Sound Samples

[TimingPoints]
133,480,4,1,0,10,1,0
2533,-100,4,1,0,15,0,0
5900,480,4,1,0,10,1,0
5900,-100,4,1,0,70,0,0
19023,480,4,1,0,70,1,1
26703,-100,4,1,0,20,0,0
27750,480,4,1,0,15,1,0
29223,480,4,1,0,10,1,0

[Colours]
Combo1 : 0,91,183
Combo2 : 79,166,246
Combo3 : 148,236,246

[HitObjects]
348,232,133,5,0,0:0:0:0:
356,208,613,1,8,0:0:0:0:
356,156,1093,1,0,0:0:0:0:
356,156,1333,1,0,0:0:0:0:
356,156,1573,1,8,0:0:0:0:
284,116,2053,1,0,0:0:0:0:
316,140,2533,1,8,0:0:0:0:
316,140,3013,1,0,0:0:0:0:
316,140,3493,1,8,0:0:0:0:
308,148,3733,1,0,0:0:0:0:
316,140,3973,1,0,0:0:0:0:
256,192,4933,12,8,5653,0:0:0:0:
384,192,5900,5,4,0:0:0:0:
376,192,6380,1,8,0:0:0:0:
376,192,6620,1,0,0:0:0:0:
376,192,6860,1,8,0:0:0:0:
376,192,7340,1,0,0:0:0:0:
340,184,7580,1,8,0:0:0:0:
340,184,7700,1,8,0:0:0:0:
312,160,7820,1,8,0:0:0:0:
264,108,8060,1,0,0:0:0:0:
264,108,8300,1,8,0:0:0:0:
264,108,8540,1,8,0:0:0:0:
264,108,8780,1,0,0:0:0:0:
316,152,9260,1,8,0:0:0:0:
316,152,9500,1,0,0:0:0:0:
316,152,9620,1,0,0:0:0:0:
284,160,9740,1,0,0:0:0:0:
284,160,9980,1,0,0:0:0:0:
284,160,10220,1,8,0:0:0:0:
284,160,10460,1,0,0:0:0:0:
308,120,10700,1,8,0:0:0:0:
380,236,11180,1,0,0:0:0:0:
380,236,11420,1,8,0:0:0:0:
380,236,11540,1,8,0:0:0:0:
380,236,11660,1,8,0:0:0:0:
280,132,11900,1,0,0:0:0:0:
280,136,12140,1,8,0:0:0:0:
268,168,12380,1,8,0:0:0:0:
268,168,12620,1,0,0:0:0:0:
312,144,13100,1,8,0:0:0:0:
312,144,13340,1,0,0:0:0:0:
312,144,13460,1,0,0:0:0:0:
312,144,13580,1,0,0:0:0:0:
328,152,13820,1,0,0:0:0:0:
328,152,14060,1,8,0:0:0:0:
328,152,14300,1,0,0:0:0:0:
260,120,14540,1,8,0:0:0:0:
260,120,15020,1,0,0:0:0:0:
260,120,15260,1,8,0:0:0:0:
260,120,15380,1,8,0:0:0:0:
260,120,15500,1,8,0:0:0:0:
260,120,15740,1,0,0:0:0:0:
260,120,15980,1,8,0:0:0:0:
260,120,16220,1,8,0:0:0:0:
260,120,16460,1,0,0:0:0:0:
272,124,16940,1,8,0:0:0:0:
272,156,17180,1,0,0:0:0:0:
256,192,17420,12,0,18860,0:0:0:0:
296,152,19023,5,4,0:0:0:0:
344,180,19503,1,8,0:0:0:0:
344,180,19743,1,0,0:0:0:0:
344,180,19863,1,0,0:0:0:0:
344,180,19983,1,0,0:0:0:0:
276,168,20223,1,0,0:0:0:0:
276,176,20463,1,8,0:0:0:0:
276,176,20703,1,8,0:0:0:0:
276,176,20823,1,8,0:0:0:0:
276,176,20943,1,8,0:0:0:0:
228,152,21423,1,8,0:0:0:0:
228,152,21663,1,8,0:0:0:0:
228,152,21903,1,0,0:0:0:0:
336,160,22143,1,8,0:0:0:0:
284,176,22383,1,0,0:0:0:0:
304,172,22623,1,8,0:0:0:0:
304,172,22743,1,8,0:0:0:0:
304,172,22863,1,8,0:0:0:0:
304,152,23343,1,0,0:0:0:0:
304,152,23583,1,8,0:0:0:0:
280,180,23703,1,8,0:0:0:0:
304,152,23823,1,8,0:0:0:0:
280,180,24063,1,0,0:0:0:0:
280,180,24303,1,8,0:0:0:0:
280,180,24543,1,0,0:0:0:0:
280,180,24663,1,0,0:0:0:0:
280,180,24783,1,0,0:0:0:0:
356,144,25263,1,8,0:0:0:0:
280,128,25503,1,0,0:0:0:0:
292,152,25623,1,0,0:0:0:0:
280,128,25743,1,0,0:0:0:0:
292,152,25983,1,0,0:0:0:0:
288,152,26223,1,8,0:0:0:0:
296,140,26463,1,0,0:0:0:0:
256,192,26703,12,0,30663,0:0:0:0:
