osu file format v14

[General]
AudioFilename: Yeah Boy - Shooting Stars.mp3
AudioLeadIn: 0
PreviewTime: 4940
Countdown: 0
SampleSet: Soft
StackLeniency: 0.7
Mode: 2
LetterboxInBreaks: 0
WidescreenStoryboard: 0

[Editor]
Bookmarks: 9740,13580,19023,22863
DistanceSpacing: 0.7
BeatDivisor: 4
GridSize: 4
TimelineZoom: 1

[Metadata]
Title:Yeah Boy - Shooting Stars
TitleUnicode:Yeah Boy - Shooting Stars
Artist:BaconAkin
ArtistUnicode:BaconAkin
Creator:Sinnoh
Version:Platter
Source:
Tags:Chromoxx Surono _Meep_ Meme boi Youtube Haiku Bag Raiders
BeatmapID:1220324
BeatmapSetID:576426

[Difficulty]
HPDrainRate:5
CircleSize:3.5
OverallDifficulty:7.5
ApproachRate:7.5
SliderMultiplier:1.9
SliderTickRate:1

[Events]
//Background and Video events
0,0,"ctb.jpg",0,0
Video,2020,"video.avi"
//Break Periods
//Storyboard Layer 0 (Background)
//Storyboard Layer 1 (Fail)
//Storyboard Layer 2 (Pass)
//Storyboard Layer 3 (Foreground)
//Storyboard Sound Samples

[TimingPoints]
133,480,4,2,1,10,1,0
2533,-100,4,2,1,15,0,0
5413,-100,4,2,69,15,0,0
5900,480,4,2,1,10,1,0
5900,-100,4,2,1,70,0,0
17420,-50,4,2,69,15,0,0
19023,480,4,2,1,70,1,1
19023,-100,4,2,1,70,0,1
26703,-100,4,2,1,20,0,0
27423,-100,4,2,0,5,0,0
27750,480,4,2,1,50,1,0
29223,480,4,2,1,30,1,0

[Colours]
Combo1 : 0,91,183
Combo2 : 79,166,246
Combo3 : 148,236,246

[HitObjects]
348,280,133,5,2,0:0:0:0:
161,289,613,2,0,P|121:245|210:155,1,190,6|2,0:0|0:0,0:0:0:0:
399,195,1573,2,0,P|405:137|298:52,1,190,6|2,0:0|0:0,0:0:0:0:
104,52,2533,6,0,P|96:129|181:197,1,190,6|2,0:0|0:0,0:0:0:0:
392,184,3493,2,0,B|480:188|476:236|476:236|484:272|424:280,1,190,6|2,0:0|0:0,0:0:0:0:
256,248,4453,1,0,0:0:0:0:
432,136,4933,6,0,P|484:256|354:340,1,285
79,300,5900,6,0,P|54:241|63:195,1,95,2|0,0:0|0:0,0:0:0:0:
192,202,6380,2,0,P|241:163|257:89,1,95,8|0,0:0|0:0,0:0:0:0:
35,95,6860,1,2,0:0:0:0:
276,104,7340,2,0,P|325:149|305:189,1,95,8|0,0:0|0:0,0:0:0:0:
72,190,7820,6,0,P|87:142|148:112,1,95,2|0,0:0|0:0,0:0:0:0:
261,134,8300,2,0,P|239:187|178:222,1,95,8|0,0:0|0:0,0:0:0:0:
6,217,8780,1,2,0:0:0:0:
168,180,9260,2,0,L|88:89,1,95,8|0,0:0|0:0,0:0:0:0:
435,219,9740,6,0,P|439:157|417:114,1,95,2|0,0:0|0:0,0:0:0:0:
291,29,10220,2,0,L|415:8,1,95,8|0,0:0|0:0,0:0:0:0:
172,96,10700,1,2,0:0:0:0:
411,235,11180,2,0,P|442:183|431:128,1,95,8|0,0:0|0:0,0:0:0:0:
220,201,11660,6,0,P|167:157|165:104,1,95,2|0,0:0|0:0,0:0:0:0:
310,107,12140,2,0,P|288:56|255:10,1,95,8|0,0:0|0:0,0:0:0:0:
59,24,12620,1,2,0:0:0:0:
217,47,13100,2,0,L|100:111,1,95,8|0,0:0|0:0,0:0:0:0:
438,147,13580,6,0,P|451:209|439:211,1,95,2|0,0:0|0:0,0:0:0:0:
302,245,14060,2,0,P|256:208|296:168,1,95,8|0,0:0|0:0,0:0:0:0:
485,138,14540,1,2,0:0:0:0:
277,139,15020,2,0,L|385:73,1,95,8|0,0:0|0:0,0:0:0:0:
131,285,15500,6,0,P|121:220|136:183,1,95,2|0,0:0|0:0,0:0:0:0:
253,186,15980,2,0,L|157:125,1,95,8|0,0:0|0:0,0:0:0:0:
402,107,16460,1,2,0:0:0:0:
204,103,16940,2,0,P|169:169|171:201,1,95,8|0,0:0|0:0,0:0:0:0:
302,269,17420,6,0,B|362:236|388:216|388:216|373:117|373:117|275:128|275:128|221:267|221:267|383:305|383:305|467:177|468:176|226:175|217:175|179:282|306:299|325:355|325:355|340:224,1,1140
366,294,19023,6,0,L|247:293,1,95,2|0,3:2|0:0,0:0:0:0:
144,300,19503,2,0,P|160:245|188:213,1,95,8|0,0:0|0:0,0:0:0:0:
396,160,19983,1,2,0:0:0:0:
175,152,20463,2,0,P|146:102|163:53,1,95,8|0,0:0|0:0,0:0:0:0:
388,62,20943,6,0,P|431:132|419:161,1,95,2|0,0:0|0:0,0:0:0:0:
291,150,21423,2,0,P|257:104|254:54,1,95,8|0,0:0|0:0,0:0:0:0:
474,124,21903,2,0,L|353:121,1,95,2|0,0:0|0:0,0:0:0:0:
211,127,22383,2,0,L|89:123,1,95,8|0,0:0|0:0,0:0:0:0:
427,63,22863,6,0,P|476:84|494:133,1,95,2|0,0:0|0:0,0:0:0:0:
367,172,23343,2,0,L|474:200,1,95,8|0,0:0|0:0,0:0:0:0:
240,218,23823,1,2,0:0:0:0:
428,132,24303,2,0,P|450:95|436:42,1,95,8|0,0:0|0:0,0:0:0:0:
108,232,24783,6,0,L|-5:181,2,95,2|0|8,0:0|0:0|0:0,0:0:0:0:
213,264,25503,1,0,0:0:0:0:
424,252,25743,1,2,0:0:0:0:
213,234,26223,2,0,L|193:123,1,95,8|0,0:0|0:0,0:0:0:0:
364,88,26703,5,0,0:0:0:0:
464,80,26943,2,0,P|472:244|348:280,1,285
332,280,27750,6,2,L|396:276,1,47.5
308,224,27990,1,12,0:0:0:0:
256,192,29223,12,0,30663,0:0:0:0:
