osu file format v14

[General]
AudioFilename: Yeah Boy - Shooting Stars.mp3
AudioLeadIn: 0
PreviewTime: 4940
Countdown: 0
SampleSet: Soft
StackLeniency: 0.6
Mode: 0
LetterboxInBreaks: 0
WidescreenStoryboard: 0

[Editor]
Bookmarks: 9740,13580,19023,22863
DistanceSpacing: 1.3
BeatDivisor: 4
GridSize: 8
TimelineZoom: 1

[Metadata]
Title:Yeah Boy - Shooting Stars
TitleUnicode:Yeah Boy - Shooting Stars
Artist:BaconAkin
ArtistUnicode:BaconAkin
Creator:Sinnoh
Version:Hard
Source:
Tags:Chromoxx Surono _Meep_ Meme boi Youtube Haiku Bag Raiders
BeatmapID:1228311
BeatmapSetID:576426

[Difficulty]
HPDrainRate:5
CircleSize:3.5
OverallDifficulty:5
ApproachRate:5
SliderMultiplier:1.6
SliderTickRate:1

[Events]
//Background and Video events
0,0,"std.jpg",0,0
Video,2020,"video.avi"
//Break Periods
//Storyboard Layer 0 (Background)
//Storyboard Layer 1 (Fail)
//Storyboard Layer 2 (Pass)
//Storyboard Layer 3 (Foreground)
//Storyboard Sound Samples

[TimingPoints]
133,480,4,2,1,10,1,0
133,-133.333333333333,4,2,1,10,0,0
1573,-133.333333333333,4,2,1,15,0,0
2533,-133.333333333333,4,2,1,20,0,0
4926,-200,4,2,96,10,0,0
5773,-200,4,2,96,5,0,0
5900,480,4,2,1,10,1,0
5900,-100,4,2,1,70,0,0
17420,-200,4,2,69,25,0,0
19023,480,4,2,1,70,1,1
19023,-83.3333333333333,4,2,1,70,0,1
26703,-200,4,2,69,20,0,0
27663,-200,4,2,69,10,0,0
27750,480,4,2,1,30,1,0
27750,-83.3333333333333,4,2,1,30,0,0
29223,480,4,2,1,10,1,0
30663,-100,4,2,1,5,0,0

[Colours]
Combo1 : 0,91,183
Combo2 : 79,166,246
Combo3 : 148,236,246

[HitObjects]
224,55,613,6,0,P|131:42|91:66,1,120.000004577637,6|2,0:0|0:0,0:0:0:0:
165,158,1573,2,0,P|221:175|278:159,1,120.000004577637,6|2,0:0|0:0,0:0:0:0:
367,77,2533,6,0,P|397:127|396:187,1,120.000004577637,6|2,0:0|0:0,0:0:0:0:
307,270,3493,2,0,P|276:219|277:159,1,120.000004577637,6|2,0:0|0:0,0:0:0:0:
285,168,4453,1,0,0:0:0:0:
285,168,4933,6,0,P|300:136|269:169,1,140
331,211,5900,6,0,L|440:220,1,80,2|0,0:0|0:0,0:0:0:0:
360,318,6380,2,0,L|250:327,1,80,8|0,0:0|0:0,0:0:0:0:
178,255,6860,1,2,0:0:0:0:
178,255,7340,2,0,L|169:354,1,80,8|0,0:0|0:0,0:0:0:0:
82,265,7820,6,0,L|73:166,1,80,2|0,0:0|0:0,0:0:0:0:
168,124,8300,2,0,L|177:25,1,80,8|0,0:0|0:0,0:0:0:0:
44,13,8780,1,2,0:0:0:0:
44,13,9260,2,0,L|53:123,1,80,8|0,0:0|0:0,0:0:0:0:
104,188,9740,6,0,P|137:210|210:204,1,80,2|0,0:0|0:0,0:0:0:0:
271,155,10220,2,0,P|310:160|343:182,1,80,8|0,0:0|0:0,0:0:0:0:
406,310,10700,1,2,0:0:0:0:
406,310,11180,2,0,P|373:332|333:337,1,80,8|0,0:0|0:0,0:0:0:0:
235,284,11660,6,0,P|219:320|222:360,1,80,2|0,0:0|0:0,0:0:0:0:
333,337,12140,2,0,P|346:299|342:259,1,80,8|0,0:0|0:0,0:0:0:0:
234,187,12620,1,2,0:0:0:0:
234,187,13100,2,0,P|231:147|246:110,1,80,8|0,0:0|0:0,0:0:0:0:
339,165,13580,6,0,L|448:156,1,80,2|0,0:0|0:0,0:0:0:0:
453,51,14060,2,0,L|373:45,1,80,8|0,0:0|0:0,0:0:0:0:
249,115,14540,1,2,0:0:0:0:
249,115,15020,2,0,L|139:124,1,80,8|0,0:0|0:0,0:0:0:0:
115,222,15500,6,0,L|106:331,1,80,2|0,0:0|0:0,0:0:0:0:
9,347,15980,2,0,L|3:267,1,80,8|0,0:0|0:0,0:0:0:0:
70,149,16460,1,2,0:0:0:0:
70,149,16940,2,0,L|79:64,1,80,8|0,0:0|0:0,0:0:0:0:
161,27,17420,6,2,B|166:28|172:31|178:34|185:34|191:32|191:32|193:37|197:43|202:46|207:48|213:49|218:50|218:50|222:56|226:62|226:70|226:75|225:80|225:80|229:84|235:87|239:94|239:94|237:101|237:106|235:112|238:117|243:120|250:119|256:119|264:121|269:122|270:126|268:130|267:135|267:135|273:136|280:136|288:136|297:138|306:141|309:150|309:150|312:155|321:159|328:161|330:164,1,240,0|0,0:0|0:0,0:0:0:0:
389,219,19023,6,0,P|401:273|389:322,1,95.9999970703126,2|0,3:2|0:0,0:0:0:0:
284,272,19503,2,0,P|236:264|190:276,1,95.9999970703126,8|0,0:0|0:0,0:0:0:0:
74,361,19983,1,2,0:0:0:0:
74,361,20463,2,0,P|50:318|45:271,1,95.9999970703126,8|0,0:0|0:0,0:0:0:0:
135,201,20943,6,0,P|158:159|164:112,1,95.9999970703126,2|0,0:0|0:0,0:0:0:0:
96,23,21423,2,0,P|139:4|187:3,1,95.9999970703126,8|0,0:0|0:0,0:0:0:0:
303,107,21903,1,2,0:0:0:0:
237,225,22143,1,0,0:0:0:0:
358,296,22383,2,0,P|377:253|378:205,1,95.9999970703126,8|0,0:0|0:0,0:0:0:0:
237,225,22863,6,0,L|228:337,1,95.9999970703126,2|0,0:0|0:0,0:0:0:0:
127,349,23343,2,0,L|119:254,1,95.9999970703126,8|0,0:0|0:0,0:0:0:0:
182,123,23823,1,2,0:0:0:0:
182,123,24303,2,0,L|277:115,1,95.9999970703126,8|0,0:0|0:0,0:0:0:0:
398,51,24783,6,0,P|447:52|510:60,2,95.9999970703126,2|0|8,0:0|0:0|0:0,0:0:0:0:
383,154,25503,1,0,0:0:0:0:
415,271,25743,2,0,P|417:323|413:370,1,95.9999970703126,2|0,0:0|0:0,0:0:0:0:
298,368,26223,2,0,P|296:316|300:269,1,95.9999970703126,8|0,0:0|0:0,0:0:0:0:
263,180,26703,5,0,0:0:0:0:
195,114,26943,6,0,P|144:115|71:140,1,120
82,180,27750,6,0,P|86:211|83:254,1,47.9999985351563,2|2,0:0|0:0,0:0:0:0:
87,289,27990,1,12,0:0:0:0:
256,192,29223,12,0,30663,0:0:0:0:
