osu file format v14

[General]
AudioFilename: Yeah Boy - Shooting Stars.mp3
AudioLeadIn: 0
PreviewTime: 4940
Countdown: 0
SampleSet: Normal
StackLeniency: 0.7
Mode: 1
LetterboxInBreaks: 0
WidescreenStoryboard: 0

[Editor]
Bookmarks: 9740,13580,19023,22863
DistanceSpacing: 0.7
BeatDivisor: 4
GridSize: 4
TimelineZoom: 1

[Metadata]
Title:Yeah Boy - Shooting Stars
TitleUnicode:Yeah Boy - Shooting Stars
Artist:BaconAkin
ArtistUnicode:BaconAkin
Creator:Sinnoh
Version:Futsuu
Source:
Tags:Chromoxx Surono _Meep_ Meme boi Youtube Haiku Bag Raiders
BeatmapID:1228142
BeatmapSetID:576426

[Difficulty]
HPDrainRate:8
CircleSize:4
OverallDifficulty:4
ApproachRate:8
SliderMultiplier:1.4
SliderTickRate:1

[Events]
//Background and Video events
0,0,"taiko.jpg",0,0
//Break Periods
//Storyboard Layer 0 (Background)
//Storyboard Layer 1 (Fail)
//Storyboard Layer 2 (Pass)
//Storyboard Layer 3 (Foreground)
//Storyboard Sound Samples

[TimingPoints]
133,480,4,1,0,10,1,0
2533,-100,4,1,0,15,0,0
5900,480,4,1,0,10,1,0
5900,-100,4,1,0,70,0,0
19023,480,4,1,0,70,1,1
26703,-100,4,1,0,20,0,0
27750,480,4,1,0,15,1,0
29223,480,4,1,0,10,1,0

[Colours]
Combo1 : 0,91,183
Combo2 : 79,166,246
Combo3 : 148,236,246

[HitObjects]
322,126,133,5,0,0:0:0:0:
268,121,613,1,8,0:0:0:0:
446,295,1573,1,8,0:0:0:0:
81,58,2053,1,0,0:0:0:0:
208,108,2533,1,8,0:0:0:0:
163,98,3493,1,8,0:0:0:0:
26,64,3973,1,0,0:0:0:0:
0,107,5900,1,4,0:0:0:0:
16,164,6620,1,0,0:0:0:0:
466,119,6860,1,8,0:0:0:0:
362,129,7340,1,0,0:0:0:0:
112,197,7580,1,0,0:0:0:0:
269,238,7820,1,8,0:0:0:0:
460,247,8540,1,8,0:0:0:0:
165,212,8780,1,8,0:0:0:0:
328,245,9260,1,8,0:0:0:0:
419,124,9500,1,0,0:0:0:0:
60,177,9740,1,0,0:0:0:0:
485,357,10460,1,0,0:0:0:0:
485,357,10700,1,8,0:0:0:0:
485,357,11180,1,8,0:0:0:0:
485,357,11420,1,0,0:0:0:0:
216,229,11660,1,8,0:0:0:0:
431,350,12380,1,0,0:0:0:0:
485,357,12620,1,0,0:0:0:0:
485,357,13100,1,0,0:0:0:0:
485,357,13340,1,8,0:0:0:0:
341,367,13580,1,0,0:0:0:0:
469,310,14300,1,0,0:0:0:0:
315,348,14540,1,8,0:0:0:0:
446,295,15020,1,8,0:0:0:0:
357,339,15260,1,0,0:0:0:0:
362,308,15500,1,8,0:0:0:0:
297,335,16220,1,8,0:0:0:0:
446,295,16460,1,8,0:0:0:0:
293,317,16940,1,0,0:0:0:0:
328,292,17180,1,0,0:0:0:0:
328,292,17420,1,12,0:0:0:0:
216,109,19023,1,12,0:0:0:0:
446,295,19743,1,0,0:0:0:0:
446,295,19983,1,8,0:0:0:0:
446,295,20463,1,8,0:0:0:0:
446,295,20703,1,0,0:0:0:0:
446,295,20943,1,8,0:0:0:0:
446,295,21663,1,0,0:0:0:0:
446,295,21903,1,8,0:0:0:0:
446,295,22143,1,8,0:0:0:0:
446,295,22383,1,0,0:0:0:0:
446,295,22863,1,8,0:0:0:0:
446,295,23583,1,0,0:0:0:0:
446,295,23823,1,0,0:0:0:0:
446,295,24303,1,8,0:0:0:0:
446,295,24543,1,0,0:0:0:0:
446,295,24783,1,8,0:0:0:0:
119,86,25503,1,0,0:0:0:0:
446,295,25743,1,8,0:0:0:0:
446,295,26223,1,8,0:0:0:0:
446,295,26463,1,8,0:0:0:0:
256,192,26943,12,0,30663,0:0:0:0:
