osu file format v14

[General]
AudioFilename: Yeah Boy - Shooting Stars.mp3
AudioLeadIn: 0
PreviewTime: 4940
Countdown: 0
SampleSet: Soft
StackLeniency: 0.7
Mode: 3
LetterboxInBreaks: 0
SpecialStyle: 0
WidescreenStoryboard: 0

[Editor]
Bookmarks: 9740,13580,19023,22863
DistanceSpacing: 0.7
BeatDivisor: 4
GridSize: 4
TimelineZoom: 1.5

[Metadata]
Title:Yeah Boy - Shooting Stars
TitleUnicode:Yeah Boy - Shooting Stars
Artist:BaconAkin
ArtistUnicode:BaconAkin
Creator:Sinnoh
Version:EZ
Source:
Tags:Chromoxx Surono _Meep_ Meme boi Youtube Haiku Bag Raiders
BeatmapID:1228216
BeatmapSetID:576426

[Difficulty]
HPDrainRate:7
CircleSize:4
OverallDifficulty:7
ApproachRate:8
SliderMultiplier:1.9
SliderTickRate:1

[Events]
//Background and Video events
0,0,"mania.jpg",0,0
Video,2020,"video.avi"
//Break Periods
//Storyboard Layer 0 (Background)
//Storyboard Layer 1 (Fail)
//Storyboard Layer 2 (Pass)
//Storyboard Layer 3 (Foreground)
//Storyboard Sound Samples

[TimingPoints]
133,480,4,2,1,10,1,0
2533,-100,4,2,1,15,0,0
4453,-100,4,2,1,20,0,0
4933,-100,4,2,1,10,0,0
5900,480,4,2,1,10,1,0
5900,-100,4,2,1,70,0,0
17420,-100,4,2,1,15,0,0
19023,480,4,2,1,70,1,1
19023,-100,4,2,1,70,0,1
26703,-100,4,2,1,70,0,0
27750,480,4,2,1,40,1,0
29223,480,4,2,1,10,1,0

[Colours]
Combo1 : 0,91,183
Combo2 : 79,166,246
Combo3 : 148,236,246

[HitObjects]
448,192,133,5,2,0:0:0:0:
320,192,613,1,6,0:0:0:0:
64,192,1093,1,2,0:0:0:0:
192,192,1573,1,6,0:0:0:0:
448,192,2053,1,2,0:0:0:0:
320,192,2533,1,6,0:0:0:0:
64,192,3013,1,2,0:0:0:0:
192,192,3493,1,6,0:0:0:0:
448,192,3973,1,2,0:0:0:0:
448,192,4453,1,0,0:0:0:0:
448,192,4933,128,0,5900:0:0:0:0:
64,192,5900,1,0,0:0:0:0:
192,192,5900,1,2,0:0:0:0:
320,192,6380,1,8,0:0:0:0:
192,192,6620,1,0,0:0:0:0:
448,192,6860,1,2,0:0:0:0:
192,192,7340,1,8,0:0:0:0:
64,192,7580,1,0,0:0:0:0:
320,192,7820,128,2,8300:0:0:0:0:
64,192,8300,1,8,0:0:0:0:
192,192,8540,1,0,0:0:0:0:
448,192,8780,1,2,0:0:0:0:
320,192,9260,1,8,0:0:0:0:
192,192,9500,1,0,0:0:0:0:
64,192,9740,128,2,10220:0:0:0:0:
448,192,10220,1,8,0:0:0:0:
320,192,10460,1,0,0:0:0:0:
64,192,10700,1,2,0:0:0:0:
192,192,11180,1,8,0:0:0:0:
320,192,11420,1,0,0:0:0:0:
448,192,11660,128,2,12140:0:0:0:0:
64,192,12140,1,8,0:0:0:0:
192,192,12380,1,0,0:0:0:0:
448,192,12620,1,2,0:0:0:0:
192,192,13100,1,8,0:0:0:0:
64,192,13340,1,0,0:0:0:0:
320,192,13580,128,2,14060:0:0:0:0:
64,192,14060,1,8,0:0:0:0:
192,192,14300,1,0,0:0:0:0:
448,192,14540,1,2,0:0:0:0:
320,192,15020,1,8,0:0:0:0:
192,192,15260,1,0,0:0:0:0:
448,192,15500,128,2,15980:0:0:0:0:
320,192,15980,1,8,0:0:0:0:
192,192,16220,1,0,0:0:0:0:
64,192,16460,1,2,0:0:0:0:
192,192,16940,1,8,0:0:0:0:
320,192,17180,1,0,0:0:0:0:
448,192,17420,128,0,19023:0:0:0:0:
64,192,19023,1,0,3:0:0:0:
192,192,19023,1,2,0:0:0:0:
320,192,19503,1,8,0:0:0:0:
192,192,19743,1,0,0:0:0:0:
448,192,19983,1,2,0:0:0:0:
192,192,20463,1,8,0:0:0:0:
64,192,20703,1,0,0:0:0:0:
320,192,20943,128,2,21423:0:0:0:0:
192,192,21423,1,8,0:0:0:0:
64,192,21663,1,0,0:0:0:0:
320,192,21903,1,2,0:0:0:0:
448,192,22143,1,0,0:0:0:0:
320,192,22383,1,8,0:0:0:0:
192,192,22623,1,0,0:0:0:0:
448,192,22863,128,2,23343:0:0:0:0:
192,192,23343,1,8,0:0:0:0:
320,192,23583,1,0,0:0:0:0:
64,192,23823,1,2,0:0:0:0:
192,192,24303,1,8,0:0:0:0:
320,192,24543,1,0,0:0:0:0:
64,192,24783,128,2,25263:0:0:0:0:
448,192,24783,1,0,0:0:0:0:
320,192,25263,1,8,0:0:0:0:
192,192,25503,1,0,0:0:0:0:
448,192,25743,1,2,0:0:0:0:
320,192,26223,1,8,0:0:0:0:
192,192,26463,1,0,0:0:0:0:
64,192,27750,128,2,27990:0:0:0:0:
448,192,27990,1,8,0:0:0:0:
320,192,29223,128,0,30663:0:0:0:0:
