osu file format v7

[General]
AudioFilename: Backstreet Boys - Quit Playing Games (With My Heart).mp3
AudioLeadIn: 0
PreviewTime: 55907
Countdown: 1
SampleSet: Soft
StackLeniency: 0.4
Mode: 0
LetterboxInBreaks: 1
EpilepsyWarning: 1

[Editor]
Bookmarks: 10462,17661,67906,113651,144848,173645,190444,212041
DistanceSpacing: 0.699999988079071
BeatDivisor: 4
GridSize: 8

[Metadata]
Title:Quit Playing Games (With My Heart)
Artist:Backstreet Boys
Creator:mrtn
Version:Hard
Source:
Tags:lesjuh gladi

[Difficulty]
HPDrainRate:7
CircleSize:4
OverallDifficulty:7
SliderMultiplier:2.6
SliderTickRate:2

[Events]
//Background and Video events
0,0,"bg.jpg"
//Break Periods
2,77855,84554
2,135449,143648
//Storyboard Layer 0 (Background)
//Storyboard Layer 1 (Fail)
//Storyboard Layer 2 (Pass)
//Storyboard Layer 3 (Foreground)
//Storyboard Sound Samples
//Background Colour Transformations
3,100,163,162,255

[TimingPoints]
863,599.9400059994,4,2,1,80,1,0
17511,-100,4,2,2,80,0,0
17811,-100,4,2,1,80,0,0
39109,-100,4,2,2,80,0,0
39409,-100,4,2,1,80,0,0
58458,-100,4,2,2,100,0,1
58607,-100,4,2,1,100,0,1
67982,-100,4,2,2,100,0,0
68057,-100,4,2,2,100,0,1
68206,-100,4,2,1,100,0,1
76005,-100,4,2,1,80,0,1
77655,-100,4,2,2,80,0,0
85154,-100,4,2,1,80,0,0
116051,-100,4,2,2,100,0,1
116201,-100,4,2,1,100,0,1
125575,-100,4,2,2,100,0,0
125650,-100,4,2,2,100,0,1
125800,-100,4,2,1,100,0,1
130300,-100,4,2,2,100,0,1
130600,-100,4,2,1,100,0,1
135249,-100,4,2,2,100,0,0
144248,-100,4,2,1,80,0,0
152197,-200,4,2,1,40,0,0
153697,-200,4,2,1,60,0,0
154447,-100,4,2,2,80,0,0
154597,-100,4,2,1,80,0,0
163896,-100,4,2,2,80,0,0
164196,-100,4,2,1,80,0,0
173645,-200,4,2,1,80,0,0
173945,-200,4,2,1,60,0,0
189694,-100,4,1,1,80,0,0
189994,-100,4,2,1,80,0,0
192843,-100,4,2,2,100,0,1
192993,-100,4,2,1,100,0,1
202367,-100,4,2,2,100,0,0
202442,-100,4,2,2,100,0,1
202592,-100,4,2,1,100,0,1
211891,-100,4,2,2,100,0,1
212041,-100,4,2,2,100,0,0

[HitObjects]
152,160,9862,6,2,B|184:72|328:72|360:160,1,260,2|6
352,344,11061,1,8
256,344,11361,1,4
160,344,11661,1,0
256,56,12261,1,8
256,56,12561,1,0
256,56,12711,1,0
256,56,12861,1,4
368,200,13461,5,8
296,256,13761,1,4
240,184,14061,2,0,B|160:224|200:312,1,130,0|4
272,336,14661,1,8
352,296,14961,1,0
392,320,15111,1,0
392,272,15261,1,4
88,48,15861,6,0,B|224:48,1,130,8|4
424,48,16461,2,0,B|288:48,1,130,0|4
256,128,17061,1,8
256,128,17361,1,0
256,128,17661,1,6
80,256,18261,6,2,B|88:328|168:344,1,130
224,272,18861,1,0
272,344,19161,2,2,B|400:352|448:272|448:176,1,260
360,216,20061,1,4
328,184,20211,1,0
296,152,20361,1,0
208,152,20661,1,8
256,72,20960,1,4
168,72,21260,2,0,B|96:104|128:200,1,130
208,152,21860,6,2,B|232:240|152:304|32:280|32:176,1,260,10|6
48,176,22610,1,0
64,136,22760,1,0
136,72,23060,2,0,B|272:72,1,130,8|4
472,72,23660,2,0,B|336:72,1,130,0|4
472,144,24260,1,8
360,288,24860,6,0,B|304:352|216:296,1,130,6|0
288,240,25460,2,2,B|216:208|168:272,1,130,10|6
128,336,26060,1,2
96,248,26360,1,2
160,184,26660,1,8
96,120,26960,2,2,B|152:72|240:104,1,130,2|4
218,97,27410,1,0
218,97,27560,1,0
256,176,27860,5,8
304,96,28160,2,2,B|368:136|336:216,1,130,6|2
256,176,28760,2,2,B|240:272|312:328|416:296|424:224,1,260,6|2
432,168,29660,1,4
344,168,29960,1,0
384,88,30260,1,8
296,88,30560,1,4
256,168,30860,1,0
208,88,31159,1,0
160,168,31459,6,2,B|104:264|224:352|304:288,1,260,10|6
298,292,32209,1,0
298,292,32359,1,0
312,200,32659,2,0,B|384:216|416:288,1,130,8|4
376,120,33259,2,0,B|402:181|474:197,1,130,0|4
456,104,33859,1,8
392,40,34159,1,0
304,40,34459,6,2,B|224:40|184:112,1,130
280,128,35059,1,8
216,192,35359,1,4
128,168,35659,2,2,B|96:272|216:336|304:256,1,260,2|10
291,266,36559,1,0
291,266,36859,1,4
264,184,37159,6,2,B|344:168|376:240,2,130,2|10|6
200,248,38059,1,0
136,184,38359,2,2,B|144:104|240:48|376:96,1,260,6|2
280,152,39259,1,6
440,232,39859,5,8
376,296,40159,1,4
352,208,40459,1,0
264,208,40759,5,2
200,272,41058,2,2,B|112:256|80:120|184:72,1,260,10|6
216,96,41808,1,0
256,80,41958,1,0
312,152,42258,1,8
312,152,42558,1,4
392,200,42858,1,0
392,200,43158,1,4
392,288,43458,1,8
312,328,43758,6,2,B|224:320|216:240,3,130,2|6|2|10
304,232,44958,1,0
232,176,45258,1,0
144,200,45558,2,2,B|104:128|192:64|272:56|320:128,1,260
307,112,46458,1,4
376,280,47058,5,10
376,280,47358,1,6
296,328,47658,1,0
296,328,47958,2,2,B|160:312|160:200|208:136,1,260,6|2
272,200,48858,1,0
272,200,49008,1,0
272,200,49158,1,0
320,128,49458,1,8
272,56,49758,1,4
216,128,50058,1,0
216,128,50358,1,0
128,128,50658,6,2,B|48:224|104:328|240:320,2,260,10|2|8
184,200,52157,1,4
272,200,52457,1,0
360,200,52757,1,4
448,200,53057,1,8
256,192,53207,12,8,55457
256,56,56057,5,2
88,192,56507,2,2,B|144:296|264:264,1,195
208,184,57257,2,2,B|314:155|370:259,1,195
328,288,57857,1,8
280,264,58007,1,2
280,264,58457,1,6
144,240,58757,5,0
72,184,59057,1,8
160,152,59357,1,4
88,96,59657,1,0
176,64,59957,1,0
248,120,60257,1,8
312,56,60557,2,0,B|360:120|312:184,1,130,0|4
248,120,61156,6,0,B|208:184|248:248,1,130,2|8
336,232,61756,1,4
296,312,62056,1,2
208,320,62356,1,4
120,320,62656,2,2,B|88:280|136:248|104:192,1,130,10|2
152,120,63256,1,6
256,48,63556,5,0
192,104,63856,2,2,B|256:136|320:104,1,130,10|6
256,192,64456,1,2
192,280,64756,2,0,B|256:248|320:280,1,130,0|8
256,336,65356,1,0
416,224,65656,6,2,B|440:144|384:80|312:88,1,195,6|2
322,87,66256,1,8
272,168,66556,1,6
224,88,66856,2,2,B|162:80|106:144|130:224,1,195,2|2
176,240,67456,1,8
144,272,67606,1,2
144,272,68056,1,6
256,344,68356,5,0
256,344,68656,1,10
328,288,68956,1,4
328,288,69256,1,2
256,232,69556,1,2
328,176,69856,2,0,B|328:96|160:64|120:144,1,260,10|4
128,232,70756,5,0
56,304,71055,2,2,B|24:240|56:176,1,130,10|6
128,232,71655,1,0
200,303,71955,2,2,B|231:239|201:178,1,130,6|10
128,152,72555,1,0
128,152,72855,1,4
208,96,73155,5,0
288,128,73455,1,8
288,128,73755,1,4
368,160,74055,1,2
288,208,74355,1,4
368,240,74655,2,2,B|344:320|272:336,2,130,2|0|6
288,248,75555,1,0
200,296,75855,1,8
112,328,76155,6,2,B|64:272|80:192,1,130,6|2
192,328,76755,2,2,B|312:328|360:248|344:144,1,260,6|2
346,163,77655,1,6
192,184,85454,6,0,B|224:256|312:240,2,130,8|4|0
280,152,86354,1,2
360,192,86654,1,8
360,104,86954,1,2
280,64,87254,5,4
280,64,87404,1,0
280,64,87554,1,0
200,104,87854,1,8
200,192,88154,1,4
200,192,88454,1,0
280,232,88754,5,0
280,320,89054,2,2,B|176:336|104:240|128:144,1,260,10|6
128,112,89804,1,0
128,112,89954,1,0
216,112,90254,1,8
256,32,90554,2,0,B|336:64|312:168,1,130,4|0
240,184,91153,1,4
240,184,91453,1,8
296,256,91753,5,2
384,288,92053,1,4
440,216,92353,1,0
440,128,92653,1,8
376,64,92953,2,2,B|328:16,2,65,6|2|2
440,128,93553,1,2
440,216,93853,1,8
360,176,94153,1,0
272,176,94453,1,4
320,96,94753,6,2,B|232:72|184:144,2,130,2|10|6
272,176,95653,1,0
272,264,95953,2,2,B|168:312|72:224|112:128,2,260,6|2|2
248,176,97453,1,8
208,96,97753,1,4
168,16,98053,1,0
208,96,98353,5,0
288,48,98653,2,0,B|376:40|408:136|392:224|312:232,1,260,10|6
330,228,99403,1,0
330,228,99553,1,0
232,232,99853,1,8
160,168,100153,2,4,B|128:232|160:296,2,130
232,120,101052,1,8
256,32,101352,6,2,B|328:64|320:144,3,130,2|6|2|10
232,120,102552,1,6
272,200,102852,1,0
184,192,103152,2,2,B|184:296|280:312|352:288|360:208,1,260
336,136,104052,1,4
80,296,104652,5,8
152,240,104952,1,4
144,152,105252,1,0
216,96,105552,2,2,B|328:72|400:152|352:272,2,260,6|2|2
264,176,107052,1,8
264,176,107352,1,4
264,176,107652,1,0
176,160,107952,6,0,B|168:232|224:288,1,130,0|8
296,320,108552,2,2,B|416:336|464:192|424:72|296:72,1,390,2|8
256,152,109752,1,4
200,80,110052,1,2
160,160,110352,1,4
200,80,110652,1,8
256,192,110802,12,6,112151
256,120,112751,5,0
256,120,113051,1,8
160,280,113651,5,2
280,352,114101,2,2,B|384:304|360:176,1,195
352,104,114851,2,2,B|304:0|176:24,1,195
152,40,115451,1,8
136,88,115601,2,2,B|184:192|312:168,1,195,2|6
384,160,116351,5,0
368,248,116651,2,0,B|296:216|288:144,1,130,8|4
312,64,117251,1,0
224,88,117551,1,0
216,176,117851,2,2,B|248:296|352:352|416:328,1,260,2|6
432,264,118751,6,2,B|360:248|328:184,1,130,2|8
424,168,119351,1,4
360,104,119651,1,0
360,104,119951,1,4
448,80,120251,2,2,B|416:0|328:24,1,130,10|2
280,80,120851,1,6
216,144,121150,5,0
128,144,121450,2,2,B|128:216|208:240,1,130,10|6
280,184,122050,1,2
344,248,122350,1,0
280,312,122650,1,8
56,192,123250,6,2,B|88:88|208:64,1,195
193,67,123850,1,8
184,160,124150,1,6
272,168,124450,2,2,B|240:270|134:291,1,195
88,288,125050,1,8
64,248,125200,2,2,B|39:143|120:72,1,195,2|6
208,64,125950,5,0
208,64,126250,1,10
208,152,126550,1,4
296,64,126850,2,2,B|328:128|296:192,1,130
208,152,127450,2,2,B|160:272|264:344|352:336,1,260,10|4
384,264,128350,5,0
448,200,128650,2,2,B|384:160|320:200,1,130,10|6
384,264,129250,1,0
296,296,129550,1,6
216,264,129850,1,10
216,80,130450,1,4
136,128,130750,5,0
136,216,131049,1,8
216,264,131349,1,4
304,264,131649,6,2,B|408:208|368:96,1,195
336,64,132249,1,8
288,64,132399,2,2,B|184:119|223:226,1,195,2|6
256,192,132999,12,0,134049
192,248,134349,6,0,B|256:288|320:248,1,130,4|8
256,176,134949,1,0
256,88,135249,1,6
368,128,144548,5,0
288,80,144848,2,2,B|184:152|208:288|256:320,1,260,6|10
328,336,145748,2,2,B|416:280|392:152,1,195,6|2
288,80,146648,1,8
200,80,146948,5,0
152,160,147248,1,4
200,240,147548,1,0
240,160,147848,1,8
328,160,148148,2,2,B|392:224|328:304,1,130,6|2
264,240,148748,1,4
264,240,149048,1,8
176,272,149348,6,0,B|208:336|280:344,2,130,0|4|0
136,192,150248,1,8
176,112,150548,2,2,B|256:48|368:72,2,195,6|2|10
256,344,152047,1,4
192,280,152347,6,0,B|256:256,1,65
256,168,153247,1,0
256,96,153547,1,0
328,144,153847,2,0,B|336:232|256:240,1,130,0|6
88,200,155047,5,8
104,288,155347,1,4
192,304,155647,1,0
176,216,155947,1,0
176,216,156247,1,8
264,216,156547,1,0
264,216,156697,1,0
264,216,156847,1,4
264,128,157147,2,0,B|344:136|368:208,1,130,0|8
336,288,157747,5,4
424,264,158047,1,0
456,176,158347,1,4
424,88,158647,1,8
336,64,158947,2,0,B|272:48,2,65,0|0|4
312,152,159547,1,0
312,152,159847,1,8
224,152,160147,5,4
264,232,160447,1,0
176,232,160747,1,0
136,152,161046,1,8
224,152,161346,1,0
184,72,161646,6,2,B|272:8|384:64,1,195,6|2
376,104,162246,1,8
367,153,162396,2,2,B|280:216|184:168,1,195,2|2
128,240,163146,1,4
208,280,163446,2,0,B|296:328|408:224|320:120,1,260,8|6
168,72,164646,1,8
88,120,164946,6,2,B|32:224|120:320|216:272,1,260
272,216,165846,1,8
320,136,166146,1,0
352,104,166296,1,0
384,136,166446,1,4
424,216,166746,6,2,B|464:280,2,65,2|2|10
320,304,167496,1,0
232,304,167796,1,0
184,304,167946,2,2,B|80:320|32:160|152:112,1,260,6|2
127,124,168846,1,4
224,96,169146,5,2
264,80,169296,1,2
304,64,169446,1,10
408,152,169896,2,2,B|384:240|312:256,1,130
296,224,170346,1,0
208,224,170646,1,8
120,224,170945,1,0
32,224,171245,1,4
80,144,171545,6,2,B|144:88|208:88,1,130,2|10
200,176,172145,1,4
272,120,172445,1,0
272,32,172745,2,2,B|352:64|376:128|376:192|304:248,1,260,6|0
256,168,173645,1,2
256,168,174245,1,8
384,336,175145,5,2
384,336,175445,2,2,B|464:320|472:224,1,130,10|2
256,192,176645,1,8
256,192,177845,1,8
256,128,178145,6,2,B|192:96,3,65,2|2|2|10
136,96,179345,1,0
88,136,179645,1,0
88,200,179945,2,2,B|104:280|200:272,1,130
181,272,180845,1,2
360,104,181444,5,8
408,144,181744,1,0
408,208,182044,1,0
360,248,182344,2,2,B|272:248|256:160,1,130
260,180,183244,1,2
88,88,183844,5,8
152,88,184144,1,0
88,152,184444,1,0
152,152,184744,1,0
208,120,185044,6,2,B|280:176|248:240,1,130,10|2
160,240,186244,1,8
192,296,186544,1,0
256,296,186844,1,0
288,240,187144,1,0
288,176,187444,5,10
288,176,188044,2,2,B|272:104|176:80|112:144,1,195
80,168,189244,1,0
80,168,189544,1,0
80,168,189844,1,4
360,320,190444,6,2,B|464:256|408:136,2,195
272,320,191643,2,2,B|168:256|224:136,1,195
296,208,192393,2,2,B|344:104|240:40,1,195,2|6
192,120,193143,5,0
168,32,193443,2,0,B|96:72|88:144,1,130,8|4
160,192,194043,1,0
88,248,194343,1,0
160,192,194643,1,8
224,248,194943,2,0,B|272:184|224:120,1,130,0|4
304,80,195543,6,0,B|344:40|408:96|440:56,1,130,2|8
352,136,196143,1,4
424,192,196443,2,0,B|368:248|296:208,1,130,0|4
352,136,197043,2,0,B|280:104|232:160,1,130,10|2
256,256,197643,1,6
176,168,197943,5,0
80,168,198243,2,2,B|72:224|160:216|128:304,1,130,2|6
40,280,198843,1,2
104,344,199143,1,0
192,344,199443,1,8
408,192,200043,6,2,B|352:96|240:96,1,195
200,96,200643,1,8
224,184,200942,1,2
224,184,201242,2,2,B|279:279|382:279,1,195
432,272,201842,1,8
456,232,201992,2,2,B|400:136|297:136,1,195,2|6
224,224,202742,5,0
168,296,203042,1,10
224,224,203342,1,4
168,152,203642,1,2
224,224,203942,1,2
280,152,204242,2,2,B|264:40|144:16|64:80|80:128,1,260,10|6
104,184,205142,5,0
192,216,205442,2,2,B|208:280|280:200|312:280,1,130,10|6
272,344,206041,1,0
360,328,206342,2,2,B|424:312|344:240|424:208,1,130,6|10
480,272,206941,1,0
480,184,207241,1,4
408,128,207542,5,0
344,64,207842,2,2,B|304:128|344:192,1,130,10|6
408,128,208442,1,2
408,216,208742,1,4
464,288,209042,2,2,B|400:328|336:272,1,130,10|2
272,232,209642,5,6
272,96,210092,2,0,B|208:56,1,65,2|8
128,40,210542,1,6
48,80,210842,2,2,B|24:192|136:248,1,195
168,248,211441,1,8
256,256,211741,1,2
256,256,212041,1,6
