osu file format v7

[General]
AudioFilename: Backstreet Boys - Quit Playing Games (With My Heart).mp3
AudioLeadIn: 0
PreviewTime: 55907
Countdown: 1
SampleSet: Soft
StackLeniency: 0.4
Mode: 0
LetterboxInBreaks: 1
EpilepsyWarning: 1

[Editor]
Bookmarks: 10462,17661,67906,113651,144848,173645,190444,212041
DistanceSpacing: 0.800000011920929
BeatDivisor: 4
GridSize: 8

[Metadata]
Title:Quit Playing Games (With My Heart)
Artist:Backstreet Boys
Creator:mrtn
Version:Easy
Source:
Tags:lesjuh gladi

[Difficulty]
HPDrainRate:1
CircleSize:3
OverallDifficulty:1
SliderMultiplier:0.999999999999999
SliderTickRate:2

[Events]
//Background and Video events
0,0,"bg.jpg"
//Break Periods
2,77855,83774
//Storyboard Layer 0 (Background)
//Storyboard Layer 1 (Fail)
//Storyboard Layer 2 (Pass)
//Storyboard Layer 3 (Foreground)
//Storyboard Sound Samples
//Background Colour Transformations
3,100,163,162,255

[TimingPoints]
863,599.9400059994,4,2,1,80,1,0
17511,-100,4,2,2,80,0,0
17811,-100,4,2,1,80,0,0
39109,-100,4,2,2,80,0,0
39409,-100,4,2,1,80,0,0
58458,-100,4,2,2,100,0,1
58607,-100,4,2,1,100,0,1
67982,-100,4,2,2,100,0,0
68057,-100,4,2,2,100,0,1
68206,-100,4,2,1,100,0,1
76005,-100,4,2,1,80,0,1
77655,-100,4,2,2,80,0,0
85154,-100,4,2,1,80,0,0
116051,-100,4,2,2,100,0,1
116201,-100,4,2,1,100,0,1
125575,-100,4,2,2,100,0,0
125650,-100,4,2,2,100,0,1
125800,-100,4,2,1,100,0,1
130300,-100,4,2,2,100,0,1
130600,-100,4,2,1,100,0,1
135249,-100,4,2,2,100,0,0
144248,-100,4,2,1,80,0,0
152197,-200,4,2,1,40,0,0
153697,-200,4,2,1,60,0,0
154447,-100,4,2,2,80,0,0
154597,-100,4,2,1,80,0,0
163896,-100,4,2,2,80,0,0
164196,-100,4,2,1,80,0,0
173645,-200,4,2,1,80,0,0
173945,-200,4,2,1,60,0,0
189694,-100,4,1,1,80,0,0
189994,-100,4,2,1,80,0,0
192843,-100,4,2,2,100,0,1
192993,-100,4,2,1,100,0,1
202367,-100,4,2,2,100,0,0
202442,-100,4,2,2,100,0,1
202592,-100,4,2,1,100,0,1
211891,-100,4,2,2,100,0,1
212041,-100,4,2,2,100,0,0

[HitObjects]
96,72,20061,1,4
176,96,20661,1,8
256,72,21260,1,0
336,96,21860,1,8
416,96,22460,6,0,B|432:224|304:232,1,200,6|0
309,231,24260,1,8
248,288,24860,6,0,B|152:256|48:288,1,200,6|0
0,224,26660,1,8
48,160,27260,1,6
128,176,27860,1,8
256,80,29060,1,8
328,120,29660,6,0,B|336:176|328:224,1,99.9999999999999,6|8
184,288,31459,1,8
256,328,32059,2,0,B|304:224|424:256,1,200,6|0
488,208,33859,1,8
504,128,34459,6,0,B|456:24|336:56,1,200,6|0
288,120,36259,1,8
224,168,36859,2,0,B|152:176|112:168,1,99.9999999999999,6|8
64,224,38059,1,0
80,304,38659,1,8
152,344,39259,6,0,B|328:360|384:192,1,300,6|8
384,112,41658,1,6
344,40,42258,1,8
184,32,43458,5,8
120,80,44058,2,0,B|112:136|120:184,1,99.9999999999999,6|8
56,232,45258,1,0
96,304,45858,1,8
168,344,46458,2,0,B|232:256|352:280,1,200,6|0
416,320,48258,1,8
480,272,48858,6,0,B|496:216|488:168,1,99.9999999999999,6|8
352,88,50658,1,8
280,120,51257,1,6
248,192,51857,2,0,B|176:272|64:248,1,200,8|8
16,184,53657,6,0,B|38:78|147:43,2,200,6|0|4
176,304,57257,1,2
256,328,57857,1,8
336,304,58457,6,2,B|240:128|432:64,1,300,4|10
472,136,60857,1,4
432,208,61456,2,2,B|224:208,1,200,8|10
168,160,63256,1,4
96,200,63856,2,2,B|56:328|184:344,1,200,8|10
256,312,65656,5,4
304,248,66256,1,8
256,184,66856,1,0
200,128,67456,1,8
256,72,68056,6,2,B|432:-24|496:168,1,300,4|10
464,232,70456,1,4
400,280,71055,2,2,B|192:280,1,200,8|10
128,312,72855,1,4
88,240,73455,2,2,B|48:112|176:96,1,200,8|10
256,88,75255,5,4
312,144,75855,1,8
256,200,76455,1,0
200,256,77055,1,8
256,312,77655,1,4
104,208,85454,5,8
120,288,86054,1,2
192,256,86654,1,8
264,288,87254,2,0,B|368:368|480:304|448:152,1,300,4|8
448,96,89654,2,0,B|344:16|232:80|264:232,1,300,4|8
184,232,92053,5,4
152,160,92653,2,0,B|104:112|56:96,2,99.9999999999999,8|2|8
224,120,94453,2,0,B|312:104|368:200|432:136,1,200,4|2
440,224,96253,1,8
496,280,96853,5,4
480,360,97453,2,0,B|424:336|368:336,1,99.9999999999999,8|2
304,336,98653,2,0,B|240:344|184:312,1,99.9999999999999,8|4
168,248,99853,1,8
328,216,101052,6,0,B|344:160|336:96,1,99.9999999999999,8|4
264,80,102252,1,8
208,136,102852,1,2
128,120,103452,2,0,B|72:128|24:104,2,99.9999999999999,8|4|8
152,192,105252,1,2
112,264,105852,1,8
176,320,106452,6,0,B|216:288|280:264,1,99.9999999999999,4|8
336,296,107652,1,2
392,232,108252,1,8
376,152,108852,2,0,B|336:112|312:48,1,99.9999999999999,4|8
240,48,110052,1,2
176,96,110652,1,8
256,192,111251,12,4,113651
176,304,116051,6,2,B|272:128|80:64,1,300,4|10
40,136,118451,1,6
80,208,119050,2,2,B|288:208,1,200,8|10
344,160,120850,1,6
416,200,121450,2,2,B|456:328|328:344,1,200,8|10
256,312,123250,5,6
208,248,123850,1,8
256,184,124450,1,0
312,128,125050,1,8
256,72,125650,6,2,B|80:-24|16:168,1,300,4|10
48,232,128050,1,6
112,280,128649,2,2,B|320:280,1,200,8|10
384,312,130449,1,6
424,240,131049,2,2,B|464:112|336:96,1,200,8|10
256,88,132849,5,6
200,144,133449,1,8
256,200,134049,1,0
312,256,134649,1,8
256,312,135249,1,6
