osu file format v9

[General]
AudioFilename: backstreet boys - you are my fire.mp3
AudioLeadIn: 0
PreviewTime: 145868
Countdown: 0
SampleSet: Soft
StackLeniency: 0.7
Mode: 0
LetterboxInBreaks: 1

[Editor]
Bookmarks: 126448,143462
DistanceSpacing: 1
BeatDivisor: 4
GridSize: 4

[Metadata]
Title:I Want It That Way
Artist:Backstreet Boys
Creator:tutuhaha
Version:Insane
Source:
Tags:AoiX Millennium xykbear

[Difficulty]
HPDrainRate:6
CircleSize:5
OverallDifficulty:6
ApproachRate:7
SliderMultiplier:1.4
SliderTickRate:1

[Events]
//Background and Video events
0,0,"BG.png"
//Break Periods
2,126686,142545
//Storyboard Layer 0 (Background)
//Storyboard Layer 1 (Fail)
//Storyboard Layer 2 (Pass)
//Storyboard Layer 3 (Foreground)
//Storyboard Sound Samples
//Background Colour Transformations
3,100,163,162,255

[TimingPoints]
27117,605.877006967586,4,2,1,50,1,0
28934,-50,4,2,1,50,0,0
48928,-50,4,2,1,60,0,1
68316,-50,4,2,1,50,0,0
87704,-50,4,2,1,60,0,1
107092,-50,4,2,1,60,0,0
126480,-50,4,2,0,40,0,0
145868,-50,4,2,1,80,0,1
164954,-50,4,2,1,80,0,0
165256,-50,4,2,0,50,0,1
165408,-50,4,2,1,80,0,1
184645,-50,4,2,1,80,0,0
204033,-50,4,2,1,10,0,0

[Colours]
Combo1 : 241,247,176
Combo2 : 135,202,252
SliderBorder : 35,149,255

[HitObjects]
144,92,28934,1,8
100,224,29237,1,0
236,192,29540,2,0,B|260:164|312:160|348:192|352:228,1,140,2|0
284,244,29994,1,0
340,288,30146,2,0,B|388:296|416:272|432:236|420:196,1,140,8|0
408,64,30752,6,0,B|384:20|332:8,1,70,2|0
296,48,31055,2,0,B|256:44|224:12,1,70
164,20,31358,2,0,B|116:16|56:40|36:88,1,140,8|0
20,216,31964,2,0,B|68:212|128:236|148:284,1,140,2|0
160,340,32418,2,0,B|200:328|216:280,1,70,0|8
256,160,32872,6,0,B|272:124|306:114,1,70
280,48,33175,2,0,B|312:32|364:44|384:96|376:120,1,140,2|0
420,172,33630,1,0
460,228,33781,2,0,B|464:263|435:308|379:309|359:293,1,140,8|0
392,232,34236,1,0
324,236,34387,2,0,B|280:264|280:336|336:364,1,140,2|0
188,148,34993,6,0,B|232:120|232:48|176:20,1,140,8|0
152,88,35447,2,0,B|116:108|112:148,1,70,0|2
48,268,35902,2,0,B|31:322|78:372|144:356,1,140,0|8
224,260,36508,5,0
288,232,36659,1,0
324,172,36811,2,0,B|380:192|432:160|428:92,1,140,2|0
308,40,37416,1,8
200,132,37719,2,0,B|160:120|144:84,1,70
84,60,38022,2,0,B|8:88|-12:176,1,140,2|0
32,216,38477,1,0
84,264,38628,2,0,B|124:328|204:328,1,140,8|0
428,264,39234,6,0,B|388:328|308:328,1,140,2|0
256,284,39688,1,0
256,216,39840,2,0,B|216:152|136:152,1,140,8|0
88,20,40446,1,2
216,80,40749,1,0
256,216,41052,6,0,B|296:152|376:152,1,140,8|0
352,84,41506,1,0
420,100,41658,2,0,B|456:120|456:184|428:216|388:216,1,140,2|0
292,296,42263,2,0,B|256:274|201:306|187:347|207:381,1,140,8|0
132,352,42718,2,0,B|132:312|160:276,1,70,0|2
48,192,43172,1,0
84,132,43324,1,0
108,64,43475,2,0,B|148:72|168:120|160:156|136:184,1,140,8|0
188,228,43930,1,0
236,176,44081,6,0,B|236:128|296:96|344:124,1,140,2|0
304,184,44535,1,0
372,188,44687,2,0,B|416:168|428:112|392:68,2,140,8|0|2
324,320,45596,2,0,B|304:288|252:280,1,70
236,220,45899,2,0,B|192:240|184:304|224:340,1,140,8|0
256,192,46505,12,4,48322
256,192,48625,5,4
176,76,48928,2,0,B|152:40|76:48|60:96,1,140,2|0
124,124,49382,1,0
156,188,49534,6,0,B|188:224|176:292|124:304,1,140,4|0
256,248,50140,2,0,B|292:220|324:220,1,70,8|0
364,168,50443,2,0,B|352:128|308:108,1,70
252,108,50746,2,0,B|256:64|288:44|320:36|360:56,1,140,4|0
432,172,51352,6,0,B|428:216|396:236|364:244|324:224,1,140,8|0
276,176,51806,2,0,B|232:176|208:208,1,70,0|4
112,300,52260,1,0
56,256,52412,1,0
24,192,52563,2,0,B|72:184|88:104|140:96,2,140,8|0|4
68,56,53472,6,0,B|96:24|152:28,1,70
188,68,53775,2,0,B|192:112|224:132|256:140|296:120,1,140,2|0
256,60,54229,1,0
324,56,54381,1,4
404,172,54684,2,0,B|364:204|356:232,1,70
296,260,54987,5,8
176,332,55290,1,0
112,300,55441,1,0
44,304,55593,2,0,B|40:264|68:232|112:216|152:244,1,140,4|0
184,104,56199,1,8
312,44,56502,1,0
364,88,56653,1,0
436,88,56804,2,0,B|440:128|412:160|368:176|328:148,1,140,4|0
188,272,57410,6,0,B|193:306|236:325|278:323|304:292,1,140,8|0
196,204,58016,2,0,B|170:172|128:170|85:189|77:237,1,140,4|0
316,180,58622,2,0,B|341:211|383:213|426:194|434:146,1,140,2|0
368,132,59077,2,0,B|352:56,1,70,0|4
216,28,59531,6,0,B|204:68|160:84,1,70
104,92,59834,2,0,B|44:136|52:224,1,140,8|0
108,344,60440,2,0,B|168:300|160:212,1,140,4|0
208,168,60894,1,0
252,112,61046,2,0,B|331:119|375:59,1,140,8|0
432,188,61651,1,4
376,316,61954,6,0,B|356:276|304:272,1,70
252,276,62257,1,8
188,304,62409,1,0
120,292,62560,1,0
64,252,62712,1,0
48,184,62863,1,4
100,56,63166,6,0,B|136:40|172:48,1,70
180,116,63469,2,0,B|220:116|256:64|228:8,1,140,8|0
331,267,64075,2,0,B|288:272|256:320|283:375,1,140,4|0
343,336,64529,2,0,B|376:344|412:328,1,70,0|8
440,188,64984,1,0
380,152,65135,1,0
332,100,65287,2,0,B|256:100|196:32,1,140,4|0
180,284,65893,6,0,B|256:280|316:352,2,140,8|0|4
40,280,66801,2,0,B|72:256|84:216,1,70
72,156,67104,1,8
100,92,67256,1,0
164,60,67407,1,0
232,72,67559,1,0
280,124,67710,1,4
404,192,68013,6,0,B|412:232|448:248,1,70
472,180,68316,2,0,B|468:128|400:100|360:136,1,140,2|0
256,220,68922,1,8
40,178,69225,2,0,B|44:128|112:100|146:131,1,140,0|2
107,192,69679,2,0,B|100:232|67:246,1,70
64,316,69982,6,0,B|80:352|120:364,1,70,0|8
204,256,70437,1,0
256,124,70740,2,0,B|328:144|360:224,1,140,2|0
404,268,71194,1,0
348,308,71346,2,0,B|268:304|216:372,1,140,8|0
132,256,71951,1,2
96,196,72103,1,0
40,156,72254,2,0,B|24:120|44:80,1,70
104,120,72557,6,8,B|120:48|200:20,1,140,8|0
256,56,73012,1,0
317,21,73163,2,0,B|392:48|408:120,1,140,2|0
408,260,73769,2,0,B|352:208|264:224,1,140,8|0
256,288,74223,1,0
216,344,74375,2,0,B|142:357|86:305,1,140,2|0
64,168,74981,5,8
128,44,75284,2,0,B|148:80|188:88,1,70
232,36,75587,2,0,B|260:72|256:120|232:144|196:156,1,140,2|0
280,348,76193,2,0,B|252:312|256:264|280:240|316:228,1,140,8|0
332,296,76647,2,0,B|404:296|400:296,1,70,0|2
448,164,77101,1,0
404,108,77253,1,0
340,76,77404,1,8
204,44,77707,6,0,B|188:88|148:108,1,70
96,76,78010,2,0,B|80:124|112:176|184:168,1,140,2|0
216,220,78465,1,0
188,284,78616,2,0,B|224:300|268:288|292:252|288:208,1,140,8|0
288,80,79222,1,2
428,72,79525,2,0,B|400:96|392:140,1,70
323,132,79828,6,0,B|320:164|344:200|388:212|424:196,1,140,8|0
332,304,80434,1,2
192,304,80737,2,0,B|164:264|108:256,1,70
80,220,81040,2,0,B|32:164|52:80,1,140,8|0
172,20,81645,2,0,B|224:76|312:68,1,140,2|0
368,72,82100,1,0
436,84,82251,1,0
460,224,82554,6,0,B|428:248|416:288,1,70
356,316,82857,2,0,B|276:308|248:220,1,140,2|0
156,68,83463,2,0,B|236:76|264:164,1,140,8|0
200,188,83917,1,0
132,204,84069,2,0,B|64:228|44:312,2,140,2|0|8
272,192,84978,2,0,B|348:192,1,70
376,252,85281,5,2
424,120,85584,1,0
372,76,85735,1,0
316,32,85887,2,0,B|268:92|192:100,1,140,8|0
128,96,86341,1,0
64,64,86492,2,0,B|16:124|32:212,1,140,2|0
104,344,87098,6,0,B|160:284|248:288,1,140,4|0
352,220,87704,1,4
256,120,88007,1,0
144,36,88310,6,0,B|64:32|4:88,1,140,4|0
76,204,88916,2,0,B|88:240|124:256|128:256,1,70,8|0
192,264,89219,2,0,B|232:276|252:308,1,70
256,372,89522,2,0,B|300:368|328:340|328:292|308:264,1,140,4|0
256,12,90128,2,0,B|212:16|184:44|184:92|204:120,1,140,8|0
263,81,90582,1,0
264,152,90734,1,4
124,152,91037,6,0,B|135:208|84:248|41:234,1,140,0|8
156,308,91642,1,0
224,296,91794,1,0
200,364,91945,2,0,B|240:376|280:360|304:324|296:284,1,140,4|0
344,240,92400,1,0
388,296,92551,2,0,B|420:268|424:220|400:184|364:172,1,140,2|0
124,88,93157,6,0,B|92:116|88:164|112:200|148:212,1,140,4|0
236,104,93763,2,0,B|280:80|288:36,1,70,8|0
348,24,94066,2,0,B|392:32|412:60,1,70
380,120,94369,2,0,B|372:192|288:236,1,140,4|0
132,264,94975,2,0,B|140:192|224:148,2,140,8|0|4
256,328,95884,2,0,B|292:308|312:272,1,70
300,212,96186,2,0,B|336:204|380:232|384:280|368:312,1,140,8|0
420,356,96641,1,0
444,292,96792,6,0,B|452:216|388:164,1,140,4|0
344,36,97398,2,0,B|296:96|212:104,1,140,2|0
168,348,98004,2,0,B|216:288|300:280,2,140,4|0|8
112,220,98913,2,0,B|104:176|72:152,1,70
12,156,99216,2,0,B|8:120|40:80|100:80|128:108,1,140,4|0
236,164,99822,6,0,B|232:200|264:240|324:240|352:212,1,140,8|0
304,160,100276,2,0,B|332:136|335:98,1,70,0|4
440,192,100731,1,0
428,260,100882,1,0
376,304,101033,2,0,B|328:360|240:352,1,140,8|0
192,316,101488,1,0
124,296,101639,2,0,B|104:216|24:176,1,140,4|0
92,56,102245,6,0,B|168:64|208:132,1,140,8|0
420,56,102851,2,0,B|344:64|304:132,1,140,4|0
256,180,103306,1,0
196,216,103457,2,0,B|216:248|256:260|296:248|320:212,1,140,8|0
380,248,103911,1,0
444,220,104063,2,0,B|456:256|448:300|412:320|368:316,1,140,4|0
68,220,104669,6,0,B|56:256|64:300|100:320|144:316,1,140,8|0
132,248,105123,1,0
128,180,105275,2,0,B|192:148|200:64,1,140,4|0
384,180,105881,2,0,B|320:148|308:64,1,140,8|0
364,24,106335,1,0
416,68,106486,2,0,B|480:100|492:184,1,140,4|0
392,280,107092,6,0,B|340:344|256:324,1,140,2|0
132,288,107698,1,4
68,164,108001,2,0,B|52:132|64:84|104:56|156:68,1,140,0|2
256,132,108607,1,0
444,164,108910,6,0,B|460:132|448:84|408:56|356:68,1,140,4|0
256,132,109516,2,0,B|248:208|180:256,1,140,2|0
136,296,109970,1,0
188,344,110122,2,0,B|256:312|324:344,1,140,4|0
376,296,110576,1,0
323,249,110728,2,0,B|264:208|256:132,2,140,2|0|4
356,112,111636,6,0,B|336:76|300:56,1,70
252,20,111939,2,0,B|220:80|136:104,1,140,2|0
252,364,112545,2,0,B|220:304|136:280,1,140,4|0
36,192,113151,1,2
176,192,113454,2,0,B|256:192,1,70
284,252,113757,2,0,B|316:232|332:188|308:140|272:128,1,140,4|0
144,148,114363,6,0,B|112:128|96:84|120:36|156:24,1,140,2|0
184,88,114817,1,0
252,96,114969,2,0,B|252:60|284:24|336:20|365:44,1,140,4|0
324,100,115423,1,0
376,148,115575,2,0,B|404:216|484:236,2,140,2|0|4
256,236,116483,6,0,B|200:276,1,70
136,308,116786,2,0,B|104:240|20:224,1,140,2|0
52,88,117392,1,4
188,56,117695,2,0,B|202:131|270:163,2,140,0|2|0
120,68,118452,1,0
144,132,118604,2,0,B|136:204|64:256,1,140,4|0
172,348,119210,5,2
256,236,119513,2,0,B|312:276,1,70
376,308,119816,2,0,B|408:240|492:224,1,140,4|0
460,88,120422,1,2
324,56,120724,2,0,B|309:131|241:163,2,140,0|4|0
392,68,121482,1,0
368,132,121633,6,0,B|376:204|448:256,1,140,2|0
144,132,122239,2,0,B|136:204|64:256,1,140,4|0
188,344,122845,2,0,B|256:312|324:344,1,140,2|0
364,288,123299,1,0
388,224,123451,1,4
124,160,123754,2,0,B|124:120|144:92,1,70
188,40,124057,6,0,B|256:72|324:40,1,140,2|0
369,93,124511,2,0,B|388:124|388:160,1,70,0|4
256,208,124966,1,0
208,256,125117,1,0
164,312,125269,2,0,B|132:296|124:240|144:204|176:192,1,140,2|0
348,72,125874,2,0,B|380:88|388:144|368:180|336:192,2,140,0|0|4
256,104,143445,5,4
208,236,143748,2,0,B|168:228|144:188,1,70
128,132,144051,2,0,B|72:148|68:224|104:248,1,140,2|0
148,296,144505,1,0
216,308,144657,2,0,B|274:307|296:236|268:200,1,140,4|0
276,64,145263,2,0,B|320:128|400:144,1,140,12|0
440,192,145717,1,0
488,244,145868,6,0,B|416:256|375:321,1,140,2|0
24,244,146474,2,0,B|96:256|137:321,1,140,8|0
192,280,146929,1,0
256,252,147080,2,0,B|284:208|212:156|260:100,1,140,2|0
184,88,147535,1,0
240,48,147686,6,0,B|268:36|312:56|332:108|308:144,1,140,8|0
360,188,148140,1,0
428,172,148292,2,0,B|440:216|416:252|380:268|344:260,1,140,2|0
84,172,148898,2,0,B|72:216|96:252|132:268|168:260,1,140,8|0
152,188,149352,1,0
132,120,149504,5,2
256,288,149807,1,8
380,120,150110,1,8
256,288,150412,6,0,B|296:288|324:252,1,70,0|0
304,192,150715,2,0,B|236:156|228:68,1,140,2|0
164,52,151170,1,0
100,24,151321,2,0,B|24:56|4:136,1,140,8|0
92,236,151927,2,0,B|164:264|196:336,1,140,2|0
256,300,152382,1,0
319,328,152533,2,0,B|348:264|420:236,1,140,8|0
376,104,153139,5,2
260,28,153442,2,0,B|240:72|196:80,1,70
140,72,153745,2,0,B|60:84|24:160,1,140,8|0
60,212,154199,1,0
128,224,154351,2,0,B|168:244|176:280,1,70,2|0
196,340,154654,2,0,B|232:320|244:280,1,70
256,220,154957,2,0,B|324:240|352:320,1,140,8|0
416,288,155411,1,0
480,260,155562,6,0,B|512:192|480:120,1,140,2|0
380,28,156168,2,0,B|354:104|286:124,1,140,8|0
164,56,156774,1,2
32,112,157077,2,0,B|68:136|80:176,1,70
96,232,157380,2,0,B|136:296|216:308,1,140,8|0
416,232,157986,6,0,B|376:296|296:308,1,140,2|0
256,252,158440,1,0
220,192,158592,2,0,B|180:128|100:116,1,140,8|0
292,192,159198,2,0,B|332:128|412:116,1,140,2|0
424,48,159652,1,0
360,20,159804,2,0,B|320:84|240:96,1,140,8|0
106,117,160409,5,2
132,256,160712,2,0,B|121:329|57:369,2,140,0|8|0
256,188,161621,1,2
308,316,161924,2,0,B|348:312|372:280,1,70
428,320,162227,2,0,B|448:280|436:244|412:216|372:216,1,140,8|0
468,112,162833,2,0,B|432:136|392:128|364:96|364:56,1,140,2|0
300,32,163287,2,0,B|264:36|232:60,1,70,0|8
96,76,163742,6,0,B|64:104|64:136,1,70
64,208,164045,1,2
84,276,164196,1,0
136,324,164348,1,0
204,340,164499,1,0
276,340,164651,2,0,B|304:272|388:256,1,140,8|0
276,44,165256,6,0,B|304:112|388:128,1,140,4|0
360,192,165711,1,0
288,192,165862,2,0,B|256:160|188:224|144:184,1,140,8|0
28,128,166468,2,0,B|40:92|80:76,1,70,2|0
144,60,166771,2,0,B|180:60|212:100,1,70
144,124,167074,2,0,B|92:128|68:172|76:228|112:240,1,140,8|0
184,336,167680,6,0,B|256:312|328:340,1,140,2|0
368,124,168286,2,0,B|420:128|444:172|436:228|400:240,1,140,8|0
284,192,168892,2,0,B|212:160|204:64,1,140,2|0
140,64,169346,1,0
116,128,169498,2,0,B|104:208|32:256,1,140,8|0
88,304,169952,1,0
140,352,170103,1,2
256,272,170406,5,0
372,352,170709,1,8
465,245,171012,2,0,B|408:208|396:128,1,140
300,28,171618,2,0,B|284:64|236:80,1,70,2|0
240,144,171921,2,0,B|196:136|172:100|172:64|192:32,1,140,8|0
52,64,172527,1,2
56,204,172830,6,0,B|92:228|108:264,1,70
124,324,173133,2,0,B|204:312|160:228|232:224,1,140,8|0
256,284,173587,1,0
298,227,173739,2,0,B|352:228|308:312|388:324,1,140,8|0
408,254,174193,2,0,B|420:228|456:204,1,70,0|8
348,112,174648,1,0
304,56,174799,1,0
240,32,174950,6,0,B|208:100|116:116,1,140,2|0
240,352,175556,2,0,B|208:284|116:268,1,140,8|0
244,188,176162,2,0,B|268:220|316:220,1,70,2|0
368,192,176465,2,0,B|392:160|440:160,1,70
468,220,176768,2,0,B|504:196|512:148|492:104|448:92,1,140,8|0
352,20,177374,6,0,B|328:84|248:116,1,140,2|0
184,116,177828,1,0
160,184,177980,2,0,B|136:256|66:282,1,140,8|0
100,344,178434,1,0
164,316,178586,2,0,B|200:300|216:248,1,70,2|0
252,208,178889,2,0,B|292:212|320:248,1,70
364,192,179192,2,0,B|388:120|457:93,1,140,8|0
328,40,179798,6,0,B|276:92|196:88,1,140,2|0
64,124,180403,1,8
68,264,180706,2,0,B|100:240|140:248,1,70
156,312,181009,2,0,B|188:308|224:256|200:212|176:188,1,140,2|0
327,186,181615,2,0,B|312:172|288:128|324:76|356:72,1,140,8|0
378,137,182070,6,0,B|412:144|444:120,1,70,0|2
416,328,182524,1,0
256,192,182827,1,8
96,328,183130,2,0,B|60:300|52:260,1,70
48,204,183433,2,0,B|120:176|144:84,1,140,2|0
256,28,184039,5,8
372,104,184342,2,0,B|392:140|436:148,1,70
396,208,184645,2,0,B|324:236|300:328,1,140,2|0
168,340,185250,2,0,B|100:324|72:236,1,140,8|0
36,188,185705,1,0
80,132,185856,2,0,B|120:120|140:80,1,70,2|0
168,28,186159,2,0,B|204:8|240:24,1,70
296,60,186462,2,0,B|328:120|416:136,1,140,8|0
216,324,187068,6,0,B|180:260|96:248,1,140,2|0
140,188,187522,1,0
184,132,187674,1,8
272,244,187977,1,0
328,288,188128,1,0
388,320,188280,2,0,B|456:288|468:204,1,140,2|0
412,168,188734,1,0
452,112,188886,2,0,B|420:84|364:88|336:136|344:180,2,140,8|0|2
336,36,189794,1,0
196,56,190097,6,0,B|168:128|80:144,1,140,8|0
60,276,190703,2,0,B|96:288|116:324,1,70,2|0
180,348,191006,2,0,B|220:348|248:308,1,70
288,264,191309,2,0,B|360:284|432:224,1,140,8|0
224,120,191915,6,0,B|152:100|80:160,1,140,2|0
124,212,192369,1,0
160,272,192521,1,8
272,188,192824,2,0,B|328:140,1,70
344,76,193127,1,2
412,96,193278,1,0
456,152,193430,1,0
460,224,193581,1,0
396,252,193733,6,0,B|316:264|280:328,1,140,8|0
212,340,194187,1,0
144,356,194339,2,0,B|68:328|52:236,1,140,2|0
144,28,194944,6,0,B|68:56|52:148,1,140,8|0
92,192,195399,1,0
164,192,195550,2,0,B|196:164|280:224|324:180,1,140,2|0
328,256,196005,1,0
368,200,196156,2,0,B|372:164|348:128|308:116|272:132,1,140,8|0
392,56,196762,6,0,B|424:128|488:156,1,140,2|0
480,224,197216,1,0
432,276,197368,2,0,B|356:288|320:360,1,140,8|0
256,328,197822,1,0
189,356,197974,2,0,B|156:288|80:276,1,140,2|0
32,224,198428,1,0
68,164,198580,2,0,B|108:156|136:112,1,70,8|0
140,56,198883,2,0,B|176:28|216:32,1,70
272,40,199186,6,0,B|304:108|388:120,1,140,2|0
272,344,199791,2,0,B|304:276|388:264,1,140,8|0
260,192,200397,1,2
152,280,200700,2,0,B|116:284|80:316,1,70
40,260,201003,2,0,B|72:192|40:124,1,140,8|0
89,75,201458,6,0,B|116:100|152:104,1,70,0|2
256,288,201912,1,0
464,260,202215,2,0,B|432:192|464:124,1,140,8|0
256,80,202821,2,0,B|240:156|164:196,1,140,2|0
176,260,203275,1,0
128,312,203427,1,8
384,312,203730,5,0
336,260,203881,1,0
288,208,204033,1,4
256,192,204184,12,0,210091
