osu file format v9

[General]
AudioFilename: backstreet boys - you are my fire.mp3
AudioLeadIn: 0
PreviewTime: 145868
Countdown: 0
SampleSet: Soft
StackLeniency: 0.7
Mode: 0
LetterboxInBreaks: 1

[Editor]
DistanceSpacing: 0.8
BeatDivisor: 4
GridSize: 4

[Metadata]
Title:I Want It That Way
Artist:Backstreet Boys
Creator:tutuhaha
Version:Hard
Source:
Tags:AoiX Millennium xykbear

[Difficulty]
HPDrainRate:5
CircleSize:4
OverallDifficulty:4
ApproachRate:5
SliderMultiplier:1.1
SliderTickRate:1

[Events]
//Background and Video events
0,0,"BG.png"
//Break Periods
2,126680,142245
//Storyboard Layer 0 (Background)
//Storyboard Layer 1 (Fail)
//Storyboard Layer 2 (Pass)
//Storyboard Layer 3 (Foreground)
//Storyboard Sound Samples
//Background Colour Transformations
3,100,163,162,255

[TimingPoints]
27117,605.877006967586,4,2,1,60,1,0
28934,-50,4,2,1,60,0,0
48928,-50,4,2,1,60,0,1
68316,-50,4,2,1,60,0,0
87704,-50,4,2,1,60,0,1
107092,-50,4,2,1,40,0,0
126481,-50,4,2,0,40,0,0
145868,-50,4,2,1,80,0,1
164954,-50,4,2,1,80,0,0
165256,-50,4,2,0,50,0,1
165408,-50,4,2,1,80,0,1
184645,-50,4,2,0,50,0,0
184746,-50,4,2,1,80,0,0
194339,-50,4,2,0,50,0,0
194490,-50,4,2,1,80,0,0
204033,-50,4,2,1,10,0,0

[Colours]
Combo1 : 241,247,176
Combo2 : 135,202,252
SliderBorder : 35,149,255

[HitObjects]
76,104,28934,1,8
116,276,29540,2,0,B|168:308|232:296,1,110,2|0
276,368,30146,2,0,B|328:324|324:264|292:208|224:208,1,220,8|2
188,128,31055,2,0,B|136:96|72:108,2,110,0|8|0
260,76,31964,6,0,B|304:128|364:124|420:92|420:24,1,220,2|8
492,76,32872,2,0,B|480:136|428:164,1,110,0|2
376,232,33478,1,0
320,300,33781,1,8
148,336,34387,6,0,B|112:252|24:240,1,165,2|0
16,196,34993,2,0,B|28:140|88:108,1,110,8|0
132,40,35599,1,2
208,88,35902,1,0
256,164,36205,6,0,B|272:232|340:256,1,110,8|0
284,328,36811,2,0,B|336:352|392:332|432:276|400:204,1,220,2|8
400,120,37719,2,0,B|384:52|316:28,1,110,0|2
256,76,38325,1,0
177,36,38628,6,0,B|124:60|112:120,1,110,8|0
180,176,39234,2,0,B|144:256|44:272,1,165,2|0
52,316,39840,2,0,B|88:364|152:368,1,110,8|0
224,328,40446,2,0,B|268:288|336:288,1,110,2|0
396,340,41052,5,8
400,164,41658,2,0,B|331:185|281:135|267:77|300:28,2,220,2|8|2
384,252,43172,2,0,B|321:267|266:211,1,110,0|8
204,188,43778,1,0
132,136,44081,6,0,B|92:96|8:116,1,110
36,200,44687,1,8
52,288,44990,1,0
80,372,45293,1,2
144,308,45596,1,0
224,272,45899,1,8
312,292,46202,1,0
396,272,46505,6,0,B|456:260|480:192|460:116|376:104,1,220,0|8
364,192,47413,2,0,B|244:192,1,110,0|2
236,104,48019,1,0
168,48,48322,2,0,B|144:104|80:120,1,110,8|0
40,192,48928,1,4
156,324,49534,6,0,B|208:348|264:328|304:272|272:200,1,220,4|8
236,124,50443,1,0
256,40,50746,2,0,B|316:28|360:64,1,110,4|0
440,24,51352,2,0,B|464:76|444:132|388:172|316:140,1,220,8|12
236,124,52260,2,0,B|176:104|168:36,2,110
260,208,53169,5,4
100,280,53775,2,0,B|48:256|40:180,2,110,2|0|4
172,332,54684,1,0
256,360,54987,2,0,B|280:312|360:296,1,110,8|0
328,212,55593,6,0,B|400:200|444:256|452:312|408:368,2,220,4|8|4
240,204,57107,2,0,B|172:200|144:144,1,110,0|8
64,116,57713,1,0
128,56,58016,5,4
208,88,58319,1,0
276,32,58622,2,0,B|340:4|408:40|424:124|384:168,1,220,2|4
316,112,59531,2,0,B|288:176|332:228,1,110,0|8
388,276,60137,1,0
320,332,60440,2,0,B|260:344|208:300,1,110,4|0
244,224,61046,6,0,B|192:200|128:236|108:292|140:356,2,220,8|4|8
112,104,62863,2,0,B|156:70|216:78,1,110,4|0
196,164,63469,6,0,B|253:179|306:139|327:75|284:18,2,220,2|4|2
236,244,64984,2,0,B|304:240|344:188,1,110,0|4
396,260,65590,1,0
320,304,65893,2,0,B|348:356|428:364|488:324|480:248,2,220,2|4|2
248,352,67407,6,0,B|192:340|172:276,1,110,0|8
92,244,68013,1,0
20,192,68316,1,2
128,52,68922,6,0,B|148:112|216:128,1,110,8|0
288,96,69528,2,0,B|340:32|444:44,1,165,2|0
440,88,70134,6,0,B|448:156|504:176,1,110,8|0
424,220,70740,2,0,B|448:280|412:340|344:356|292:320,1,220,2|8
344,248,71648,2,0,B|312:200|236:192,1,110,0|2
196,264,72254,1,0
124,216,72557,6,0,B|84:172|96:112,1,110,8|0
16,76,73163,2,0,B|40:16|120:4|180:40|184:112,1,220,2|8
240,160,74072,1,0
292,232,74375,2,0,B|316:292|396:304|456:268|460:196,1,220,2|8
372,196,75284,5,0
300,148,75587,2,0,B|244:140|192:180|184:256|244:304,2,220,2|8|2
256,72,77101,2,0,B|196:68|160:16,1,110,0|8
84,64,77707,1,0
24,128,78010,6,0,B|104:160|120:260,1,165,2|0
160,272,78616,2,0,B|192:324|264:328,2,110,8|0|2
200,192,79525,1,0
256,124,79828,5,8
308,52,80131,1,0
392,24,80434,2,0,B|406:117|486:149,1,165,2|0
484,192,81040,2,0,B|464:244|400:268,1,110,8|0
420,352,81645,2,0,B|368:368|300:328|296:248|340:204,1,220,2|8
296,128,82554,5,0
368,76,82857,2,0,B|332:16|248:20|196:72|212:136,1,220,0|8
192,204,83766,2,0,B|200:256|153:302|69:306|33:246,1,220
108,200,84675,2,0,B|80:144|96:88,1,110,8|0
256,192,85281,12,4,87098
256,192,87401,5,0
256,192,87704,2,0,B|272:252|336:276,1,110,2|0
296,356,88310,2,0,B|348:380|420:348|432:280|400:212,1,220,4|8
352,156,89219,1,0
280,104,89522,2,0,B|248:52|168:72,1,110,4|0
112,20,90128,2,0,B|76:76|96:132|144:172|212:152,1,220,8|4
292,192,91037,6,0,B|360:176|406:212|424:276|392:328,1,220,2|0
324,272,91945,2,0,B|252:288|220:236,1,110,4|0
144,280,92551,1,2
256,148,93157,6,0,B|228:92|156:92,1,110,4|0
176,180,93763,2,0,B|112:184|60:136|64:60|112:20,2,220,8|4|8
180,268,95278,1,0
256,316,95581,2,0,B|316:324|356:276,2,110,4|0|8
280,232,96489,1,0
192,244,96792,6,0,B|184:192|220:132|308:128|348:176,1,220,4|2
192,84,98004,2,0,B|136:108|116:172,2,110,4|0|8
268,40,98913,1,0
348,12,99216,2,0,B|368:68|432:84,1,110,4|0
488,144,99822,5,8
452,224,100125,1,0
396,292,100428,2,0,B|336:300|292:252,1,110,4|0
344,184,101033,2,0,B|288:148|224:172|192:228|212:288,1,220,8|4
136,332,101942,5,0
92,256,102245,2,0,B|141:211|134:143|88:97|25:101,1,220,0|4
76,28,103154,2,0,B|140:40|184:100,1,110,0|2
256,56,103760,1,0
342,82,104063,2,0,B|372:40|436:28,1,110,4|0
483,101,104669,6,0,B|423:97|377:143|370:211|420:256,1,220,2|4
356,316,105578,2,0,B|320:360|188:360|148:312,1,220
108,240,106486,1,4
68,68,107092,6,0,B|128:52|176:92,1,110,2|0
252,124,107698,1,4
304,192,108001,1,0
480,172,108607,6,0,B|472:236|420:268,1,110,0|4
436,352,109213,2,0,B|372:368|320:304|316:240|376:188,1,220
356,116,110122,1,4
428,68,110425,2,0,B|388:0|304:16|260:64|272:120,1,220
256,196,111333,1,4
184,144,111636,5,0
108,100,111939,2,0,B|52:132|40:192,1,110
76,264,112545,1,4
160,244,112848,2,0,B|212:208|288:224|316:300|296:344,1,220,0|2
348,172,114060,6,0,B|312:120|328:44|404:16|448:36,1,220,2|0
420,120,114969,2,0,B|448:176|420:228,2,110,4|0|2
256,188,116180,1,4
192,128,116483,1,0
124,76,116786,6,0,B|40:112|16:208,1,165,2|0
48,228,117392,2,0,B|100:256|112:316,1,110,4|0
192,352,117998,2,0,B|256:320|276:260,1,110
256,188,118604,1,4
388,76,119210,6,0,B|472:112|496:208,1,165,2|0
464,228,119816,2,0,B|412:256|400:316,1,110,4|0
320,352,120422,2,0,B|256:320|236:260,1,110
256,188,121027,1,4
200,20,121633,6,0,B|176:80|108:100,1,110,2|0
108,180,122239,1,4
22,155,122542,2,0,B|4:196|32:272|108:288|160:252,1,220
228,196,123451,1,4
204,112,123754,6,0,B|248:92|320:121|336:200|300:249,1,220
232,304,124663,1,4
160,252,124966,1,0
96,192,125269,2,0,B|59:217|45:297|103:349|166:344,2,220,0|4|4
256,192,143445,5,4
108,96,144051,2,0,B|40:108|20:168,1,110,2|0
108,180,144657,2,2,B|180:176|212:112|196:48|140:20,2,220,4|12|4
284,164,146474,6,0,B|336:188|360:252,1,110,8|0
284,292,147080,2,0,B|320:348|404:344|448:308|444:224,1,220,2|8
440,160,147989,1,0
396,84,148292,6,0,B|336:20|236:24,1,165,2|0
224,60,148898,2,0,B|200:108|144:136,1,110,8|0
76,192,149504,2,0,B|100:240|156:268,2,110,2|0|8
152,356,150715,6,0,B|216:360|256:312|260:240|212:200,1,220,2|8
232,116,151624,2,0,B|292:140|312:216,1,110,0|2
332,276,152230,1,0
388,208,152533,2,0,B|432:164|428:88,1,110,8|0
496,52,153139,2,0,B|464:8|392:8|336:44|344:120,1,220,2|8
256,136,154048,1,0
168,132,154351,6,0,B|108:116|84:56,2,110,2|0|8
148,220,155259,1,0
60,228,155562,2,0,B|64:292|120:328|192:324|228:260,1,220,0|8
256,188,156471,2,0,B|285:133|357:129|413:165|416:232,1,220
328,236,157380,2,0,B|344:300|408:320,1,110,8|0
480,292,157986,1,2
452,120,158592,6,0,B|416:72|344:68,1,110,8|0
284,20,159198,2,0,B|252:104|152:124,1,165,2|0
124,144,159804,2,0,B|68:172|44:224,1,110,8|0
116,272,160409,2,0,B|144:200|236:192|284:252|272:308,1,220,2|8
252,116,161621,6,0,B|304:128|344:184,1,110,2|0
424,160,162227,2,0,B|468:120|468:48,1,110,8|0
384,32,162833,1,2
208,28,163439,6,0,B|140:32|100:92,2,110,0|0|2
192,116,164348,1,0
144,192,164651,5,8
64,232,164954,1,0
112,308,165256,2,0,B|144:356|208:356,2,110,4|0|8
256,204,166468,6,0,B|317:203|349:251,1,110,2|0
312,332,167074,2,0,B|368:356|428:336|464:268|424:196,2,220,8|2|8
349,251,168589,2,0,B|317:203|256:204,1,110,0|2
168,188,169195,1,0
120,112,169498,2,0,B|148:56|212:40,2,110,8|0|2
172,280,170709,6,0,B|116:304|56:284|20:216|60:144,2,220,8|2|8
128,204,172224,1,0
200,152,172527,2,0,B|256:128|316:148|352:216|312:288,1,220,2|8
396,316,173436,2,0,B|424:264|412:200,1,110,0|2
376,128,174042,1,0
308,72,174345,6,0,B|248:48|188:68,1,110,8|0
120,104,174950,1,2
64,272,175556,6,0,B|100:320|180:332|240:272|224:208,1,220,8|2
140,224,176465,2,0,B|144:164|204:140,1,110,0|8
288,116,177071,1,0
276,28,177374,2,0,B|332:20|388:56|400:144|344:188,2,220,2|8|2
188,40,178889,1,0
104,60,179192,2,0,B|108:124|160:160,1,110,8|0
236,124,179798,6,0,B|252:188|228:244|156:264|96:228,1,220,2|8
88,320,180706,2,0,B|144:344|208:324,1,110,0|2
280,304,181312,1,0
312,224,181615,2,0,B|336:172|320:116,1,110,8|0
240,84,182221,2,0,B|252:28|332:0|392:36|404:100,2,220,2|8|2
184,152,183736,1,0
144,232,184039,6,0,B|124:288|60:320,2,110,8|0|4
256,96,185250,1,8
92,156,185856,2,0,B|112:100|176:68,2,110,2|0|8
172,196,186765,1,0
256,220,187068,6,0,B|256:280|308:332|392:320|420:264,1,220,2|8
344,220,187977,2,0,B|340:160|288:124,1,110,0|2
208,148,188583,1,0
208,60,188886,2,0,B|148:60|96:112|108:196|164:224,1,220,8|2
32,344,190097,5,8
120,332,190400,1,0
208,316,190703,2,0,B|264:308|300:260,1,110,2|0
388,264,191309,2,0,B|388:204|336:152|252:164|224:220,2,220,8|2|8
464,220,192824,6,0,B|452:156|392:120,1,110,0|2
356,56,193430,1,0
280,100,193733,2,0,B|220:100|180:144,1,110,8|0
112,192,194339,1,4
256,296,194944,5,8
332,252,195247,1,0
396,192,195550,2,0,B|380:124|320:96,1,110,2|0
396,40,196156,2,0,B|353:-2|280:-2|229:65|248:124,1,220,8|2
160,140,197065,5,0
84,188,197368,1,8
160,236,197671,2,0,B|216:256|236:320,1,110,0|2
320,336,198277,2,0,B|384:336|432:276,1,110,0|8
408,204,198883,1,0
496,204,199186,6,0,B|496:144|444:92|360:104|332:160,1,220,2|8
252,136,200094,2,0,B|206:174|132:168|87:96|112:38,1,220
24,80,201003,2,0,B|24:144|72:188,1,110,8|0
132,236,201609,6,0,B|220:264|260:344,1,165,2|0
300,352,202215,2,0,B|368:352|400:300,1,110,8|0
484,304,202821,2,0,B|484:244|432:192|348:204|320:260,2,220,2|8|0
256,192,204184,12,0,210091
