osu file format v13

[General]
AudioFilename: BACK-ON STRIKE BACKMUSIC VIDEO.mp3
AudioLeadIn: 0
PreviewTime: 61346
Countdown: 0
SampleSet: None
StackLeniency: 0.7
Mode: 0
LetterboxInBreaks: 1
WidescreenStoryboard: 1

[Editor]
DistanceSpacing: 1
BeatDivisor: 4
GridSize: 4
TimelineZoom: 1.100001

[Metadata]
Title:Strike Back [TV Size]
TitleUnicode:Strike Back [TV Size]
Artist:Back-On
ArtistUnicode:Back-On
Creator:ButterWater
Version:Insane
Source:Fairy Tail
Tags:2014 Opening Op2
BeatmapID:483786
BeatmapSetID:190560

[Difficulty]
HPDrainRate:8
CircleSize:4
OverallDifficulty:7
ApproachRate:9
SliderMultiplier:2
SliderTickRate:2

[Events]
//Background and Video events
0,0,"Fairy Tail.jpg",0,0
Video,1153,"Fairy Tail Opening 16.avi"
//Break Periods
2,12056,21589
2,62056,83256
//Storyboard Layer 0 (Background)
//Storyboard Layer 1 (Fail)
//Storyboard Layer 2 (Pass)
//Storyboard Layer 3 (Foreground)
//Storyboard Sound Samples
//Background Colour Transformations
3,100,163,162,255

[TimingPoints]
1190,333.333333333333,4,3,0,60,1,0
61356,-100,4,3,0,85,0,1
86523,-100,4,3,0,20,0,0

[Colours]
Combo1 : 255,255,0
Combo2 : 0,202,0
Combo3 : 18,124,255
Combo4 : 242,24,57

[HitObjects]
60,68,1190,5,0,0:0:0:0:
120,148,1356,1,0,0:0:0:0:
160,56,1523,2,4,P|210:41|268:76,1,100,4|4,0:0|0:0,0:0:0:0:
348,92,1856,1,0,0:0:0:0:
416,164,2023,1,0,0:0:0:0:
320,184,2189,2,4,P|270:169|212:204,1,100,4|4,0:0|0:0,0:0:0:0:
128,204,2523,5,0,0:0:0:0:
92,296,2689,1,0,0:0:0:0:
192,280,2856,2,4,P|240:292|316:268,1,100,4|4,0:0|0:0,0:0:0:0:
372,228,3189,1,0,0:0:0:0:
424,144,3356,1,0,0:0:0:0:
324,132,3523,2,4,P|284:104|224:112,1,100,4|4,0:0|0:0,0:0:0:0:
208,64,3773,1,0,0:0:0:0:
152,52,3856,1,0,0:0:0:0:
52,68,4023,5,0,0:0:0:0:
116,144,4189,2,4,P|112:196|132:260,1,100,4|4,0:0|0:0,0:0:0:0:
212,244,4523,1,0,0:0:0:0:
212,144,4689,1,0,0:0:0:0:
304,244,4856,1,0,0:0:0:0:
304,144,5023,1,0,0:0:0:0:
396,144,5189,2,4,P|400:196|380:260,1,100,4|4,0:0|0:0,0:0:0:0:
308,240,5523,5,0,0:0:0:0:
304,144,5689,1,0,0:0:0:0:
212,244,5856,1,0,0:0:0:0:
212,144,6023,1,0,0:0:0:0:
264,192,6189,2,4,L|152:192,1,100,4|4,0:0|0:0,0:0:0:0:
64,196,6523,5,0,0:0:0:0:
64,296,6689,1,0,0:0:0:0:
152,248,6856,2,4,P|192:288|280:288,1,100,4|4,0:0|0:0,0:0:0:0:
332,292,7189,1,0,0:0:0:0:
404,224,7356,1,0,0:0:0:0:
308,200,7523,6,4,P|264:164|240:104,1,100,4|4,0:0|0:0,0:0:0:0:
152,88,7856,1,0,0:0:0:0:
120,184,8023,1,0,0:0:0:0:
220,168,8189,6,4,P|272:164|328:232,1,100,4|4,0:0|0:0,0:0:0:0:
408,160,8523,1,0,0:0:0:0:
484,224,8689,1,0,0:0:0:0:
388,260,8856,2,4,P|376:304|320:344,1,100,4|4,0:0|0:0,0:0:0:0:
288,324,9106,1,0,0:0:0:0:
252,284,9189,1,0,0:0:0:0:
196,200,9356,5,0,0:0:0:0:
292,168,9523,2,4,P|304:96|192:76,1,200,4|4,0:0|0:0,0:0:0:0:
124,136,10023,1,0,0:0:0:0:
48,200,10189,2,4,P|88:236|176:224,1,100,6|6,0:0|0:0,0:0:0:0:
232,240,10523,5,0,0:0:0:0:
260,232,10606,1,0,0:0:0:0:
280,208,10689,1,0,0:0:0:0:
284,180,10773,1,0,0:0:0:0:
276,152,10856,1,0,0:0:0:0:
256,192,11023,12,0,11856,0:0:0:0:
256,160,22189,5,0,0:0:0:0:
256,192,22273,1,0,0:0:0:0:
256,220,22356,1,0,0:0:0:0:
256,248,22439,1,0,0:0:0:0:
196,272,22523,6,4,P|128:192|208:132,1,200
256,272,23023,1,0,0:0:0:0:
316,272,23189,2,4,P|384:192|304:132,1,200
256,272,23689,1,0,0:0:0:0:
256,188,23856,6,4,L|256:60,2,100,4|4|4,0:0|0:0|0:0,0:0:0:0:
160,164,24356,2,4,P|100:164|64:228,1,100
76,288,24689,2,0,P|103:313|175:305,1,100
256,332,25023,5,0,0:0:0:0:
356,332,25189,2,4,P|416:320|460:252,1,100
480,200,25523,1,0,0:0:0:0:
476,100,25689,1,0,0:0:0:0:
384,64,25856,2,4,P|340:40|284:40,1,100
192,40,26189,1,0,0:0:0:0:
92,56,26356,6,4,P|60:92|68:168,1,100
252,96,26856,1,0,0:0:0:0:
248,196,27023,1,0,0:0:0:0:
296,244,27356,2,4,P|244:260|188:232,2,100,4|4|4,0:0|0:0|0:0,0:0:0:0:
352,328,27856,2,0,P|256:344|156:328,1,200
256,48,28523,5,0,0:0:0:0:
52,332,28856,1,0,0:0:0:0:
460,332,29189,1,0,0:0:0:0:
256,48,29523,5,0,0:0:0:0:
168,188,29689,1,0,0:0:0:0:
336,188,29856,1,0,0:0:0:0:
48,192,30189,5,0,0:0:0:0:
188,280,30355,1,0,0:0:0:0:
188,112,30522,1,0,0:0:0:0:
472,192,30856,5,0,0:0:0:0:
332,104,31022,1,0,0:0:0:0:
332,272,31189,1,0,0:0:0:0:
256,48,31523,6,4,B|256:176,1,100,0|0,0:0|0:0,0:0:0:0:
120,192,31856,2,4,P|256:236|404:192,1,300,0|0,0:0|0:0,0:0:0:0:
256,148,32523,1,0,0:0:0:0:
440,68,32856,5,0,0:0:0:0:
340,64,33023,1,0,0:0:0:0:
240,60,33189,2,4,P|192:52|104:72,1,100
40,60,33523,1,0,0:0:0:0:
84,152,33689,1,0,0:0:0:0:
184,144,33856,2,4,P|232:156|300:140,1,100
360,148,34189,2,4,P|416:136|464:152,2,100,0|0|0,0:0|0:0|0:0,0:0:0:0:
416,340,34856,5,0,0:0:0:0:
324,300,35023,1,0,0:0:0:0:
232,336,35189,1,0,0:0:0:0:
136,308,35356,1,0,0:0:0:0:
76,168,35689,2,4,L|76:64,1,100,0|0,0:0|0:0,0:0:0:0:
376,68,36356,2,4,P|437:75|456:144,1,100,0|0,0:0|0:0,0:0:0:0:
372,284,36856,1,0,0:0:0:0:
172,264,37189,5,0,0:0:0:0:
172,164,37356,1,0,0:0:0:0:
272,164,37523,1,0,0:0:0:0:
272,264,37689,1,0,0:0:0:0:
184,216,37856,5,0,0:0:0:0:
240,132,38023,1,0,0:0:0:0:
320,188,38189,1,0,0:0:0:0:
268,272,38356,1,0,0:0:0:0:
224,184,38523,5,4,0:0:0:0:
452,80,39189,6,4,P|344:60|220:80,1,200
212,160,39689,1,0,0:0:0:0:
168,248,39856,2,4,P|140:208|156:132,1,100
256,252,40189,2,4,P|284:212|268:136,2,100,0|0|0,0:0|0:0|0:0,0:0:0:0:
284,156,40689,1,0,0:0:0:0:
284,156,40856,1,0,0:0:0:0:
284,156,41023,1,0,0:0:0:0:
368,104,41189,6,4,P|384:200|368:332,1,200
296,244,41689,1,0,0:0:0:0:
280,144,41856,1,0,0:0:0:0:
212,308,42189,6,4,P|196:212|212:80,1,200
68,44,42773,1,0,0:0:0:0:
52,192,43023,1,0,0:0:0:0:
52,292,43189,1,0,0:0:0:0:
192,208,43523,5,0,0:0:0:0:
312,172,43689,1,0,0:0:0:0:
412,100,43856,6,4,P|364:88|312:100,1,100,4|4,0:0|0:0,0:0:0:0:
68,192,44189,2,4,P|116:184|168:192,1,100
412,292,44523,2,4,P|364:280|312:292,1,100
252,252,44856,1,0,0:0:0:0:
252,252,45023,1,0,0:0:0:0:
92,292,45189,6,4,P|140:304|192:292,1,100
444,192,45522,2,4,P|396:200|344:192,1,100,0|4,0:0|0:0,0:0:0:0:
92,92,45856,2,4,P|140:104|192:92,1,100
288,76,46189,2,4,P|304:104|288:132,1,50
256,188,46523,6,0,L|256:292,1,100
156,288,46856,2,0,L|260:288,1,100
356,288,47189,2,0,L|256:288,1,100
80,100,47523,2,0,L|140:100,1,50,0|0,0:0|0:0,0:0:0:0:
80,284,47856,2,0,L|140:284,1,50,0|0,0:0|0:0,0:0:0:0:
432,192,48523,2,0,L|376:192,1,50,0|0,0:0|0:0,0:0:0:0:
52,96,49189,6,4,L|188:96,1,100,4|4,0:0|0:0,0:0:0:0:
432,192,49523,2,4,L|300:192,1,100
52,288,49856,2,4,L|188:288,1,100,4|4,0:0|0:0,0:0:0:0:
256,44,50523,6,4,L|256:156,1,100
404,192,50856,2,4,L|292:192,1,100
108,192,51189,2,4,L|220:192,1,100
256,340,51856,6,4,L|256:228,1,100
108,192,52189,2,4,L|220:192,1,100
404,192,52523,2,4,L|292:192,1,100
256,192,52856,6,0,L|256:140,1,50,0|4,0:0|0:0,0:0:0:0:
312,156,53189,2,0,L|312:80,1,50
200,156,53523,2,0,L|200:80,1,50
312,224,53856,2,0,L|312:280,1,50
200,220,54189,2,0,L|200:272,1,50
52,288,54523,6,4,L|252:288,1,200
460,96,55189,2,4,L|260:96,1,200,4|4,0:0|0:0,0:0:0:0:
156,192,55856,6,4,L|256:192,1,100
356,192,56189,2,4,L|248:192,1,100
256,292,56523,2,4,L|256:192,1,100
156,192,57189,6,4,L|256:192,1,100
356,192,57522,2,4,L|256:192,1,100
256,92,57856,2,4,L|256:196,1,100
256,320,58856,5,0,0:0:0:0:
256,64,59523,5,0,0:0:0:0:
200,192,59856,5,0,0:0:0:0:
320,192,60023,1,0,0:0:0:0:
216,248,60189,1,0,0:0:0:0:
284,148,60356,1,0,0:0:0:0:
256,264,60523,1,0,0:0:0:0:
228,148,60689,1,0,0:0:0:0:
296,248,60856,1,0,0:0:0:0:
200,192,61024,1,0,0:0:0:0:
404,64,61357,6,0,P|256:40|104:64,1,300
256,192,83856,12,0,85856,0:0:0:0:
