osu file format v13

[General]
AudioFilename: BACK-ON STRIKE BACKMUSIC VIDEO.mp3
AudioLeadIn: 0
PreviewTime: 61346
Countdown: 0
SampleSet: None
StackLeniency: 0.7
Mode: 0
LetterboxInBreaks: 1
WidescreenStoryboard: 0

[Editor]
DistanceSpacing: 1
BeatDivisor: 4
GridSize: 4
TimelineZoom: 0.9

[Metadata]
Title:Strike Back [TV Size]
TitleUnicode:Strike Back [TV Size]
Artist:Back-On
ArtistUnicode:Back-On
Creator:ButterWater
Version:Hard
Source:Fairy Tail
Tags:2014 Opening Op2
BeatmapID:453706
BeatmapSetID:0

[Difficulty]
HPDrainRate:6
CircleSize:4
OverallDifficulty:6
ApproachRate:7
SliderMultiplier:1.4
SliderTickRate:2

[Events]
//Background and Video events
0,0,"Fairy Tail.jpg",0,0
Video,1153,"Fairy Tail Opening 16.avi"
//Break Periods
2,13166,21456
//Storyboard Layer 0 (Background)
//Storyboard Layer 1 (Fail)
//Storyboard Layer 2 (Pass)
//Storyboard Layer 3 (Foreground)
//Storyboard Sound Samples
//Background Colour Transformations
3,100,163,162,255

[TimingPoints]
1190,333.333333333333,4,3,0,60,1,0
61356,-100,4,3,0,85,0,1
86523,-100,4,3,0,20,0,0

[Colours]
Combo1 : 255,255,0
Combo2 : 0,202,0
Combo3 : 18,124,255
Combo4 : 242,24,57

[HitObjects]
96,192,1190,5,0,0:0:0:0:
176,112,1523,1,0,0:0:0:0:
280,80,1856,1,0,0:0:0:0:
388,116,2189,1,0,0:0:0:0:
472,192,2523,1,0,0:0:0:0:
388,264,2856,1,0,0:0:0:0:
280,288,3189,1,0,0:0:0:0:
168,268,3523,2,8,P|100:224|96:140,1,140,8|8,0:0|0:0,0:0:0:0:
176,100,4189,5,0,0:0:0:0:
288,60,4523,1,0,0:0:0:0:
328,164,4856,1,0,0:0:0:0:
224,208,5189,1,0,0:0:0:0:
256,100,5523,1,0,0:0:0:0:
356,152,5856,1,0,0:0:0:0:
328,260,6189,2,8,P|288:304|192:284,1,140,8|8,0:0|0:0,0:0:0:0:
144,212,6856,5,0,0:0:0:0:
148,96,7189,1,0,0:0:0:0:
256,68,7523,1,0,0:0:0:0:
364,100,7856,1,0,0:0:0:0:
364,212,8189,1,0,0:0:0:0:
260,256,8523,1,0,0:0:0:0:
156,216,8856,2,8,B|96:140|184:72,1,140,8|8,0:0|0:0,0:0:0:0:
268,128,9523,5,0,0:0:0:0:
184,200,9856,1,0,0:0:0:0:
272,268,10189,1,0,0:0:0:0:
352,188,10523,2,4,L|416:188,2,35,4|4|4,0:0|0:0|0:0,0:0:0:0:
280,192,10856,2,4,P|236:200|208:244,1,70,4|4,0:0|0:0,0:0:0:0:
256,192,11189,12,0,12189,0:0:0:0:
184,64,22356,5,0,0:0:0:0:
240,56,22523,2,4,P|344:48|400:88,1,140
360,120,23023,1,0,0:0:0:0:
360,160,23189,2,4,P|424:192|424:288,1,140
384,280,23689,1,0,0:0:0:0:
328,264,23856,1,0,0:0:0:0:
224,216,24189,1,0,0:0:0:0:
192,168,24356,1,0,0:0:0:0:
168,56,24689,2,4,P|96:32|40:88,1,140
56,120,25189,6,4,P|88:216|152:248,1,140
168,260,25689,1,0,0:0:0:0:
220,236,25856,2,4,P|260:216|276:104,1,140
272,76,26356,1,0,0:0:0:0:
216,64,26523,2,4,P|168:72|152:112,1,70
140,140,26856,1,0,0:0:0:0:
176,184,27023,2,4,P|208:200|264:192,1,70
296,192,27356,2,4,P|372:200|424:264,1,140
416,300,27856,2,4,P|344:324|256:300,1,140
352,228,28523,5,0,0:0:0:0:
240,232,28856,1,0,0:0:0:0:
160,156,29189,1,0,0:0:0:0:
236,72,29523,1,0,0:0:0:0:
124,92,29856,2,4,P|100:116|92:164,1,70
112,208,30189,2,4,P|152:228|192:216,1,70
148,272,30523,5,0,0:0:0:0:
232,344,30856,1,0,0:0:0:0:
220,232,31189,1,0,0:0:0:0:
304,308,31523,1,0,0:0:0:0:
416,300,31856,5,0,0:0:0:0:
416,248,32023,2,4,L|416:200,2,35,0|0|0,0:0|0:0|0:0,0:0:0:0:
456,208,32356,1,0,0:0:0:0:
424,160,32523,1,0,0:0:0:0:
400,112,32689,2,4,L|400:64,2,35,0|0|0,0:0|0:0|0:0,0:0:0:0:
360,72,33023,5,0,0:0:0:0:
304,56,33189,2,4,P|232:40|144:64,1,140
136,104,33689,1,0,0:0:0:0:
192,104,33856,1,0,0:0:0:0:
216,152,34023,1,0,0:0:0:0:
192,200,34189,1,0,0:0:0:0:
136,200,34356,1,0,0:0:0:0:
104,152,34523,1,0,0:0:0:0:
64,240,34856,5,0,0:0:0:0:
112,272,35023,1,0,0:0:0:0:
168,272,35189,1,0,0:0:0:0:
224,272,35356,2,4,P|312:264|336:192,1,140
360,176,35856,1,0,0:0:0:0:
280,24,36356,5,0,0:0:0:0:
232,48,36523,2,4,L|152:88,3,70,0|0|0|0,0:0|0:0|0:0|0:0,0:0:0:0:
168,136,37189,1,0,0:0:0:0:
200,184,37356,1,0,0:0:0:0:
256,160,37523,1,0,0:0:0:0:
232,112,37689,5,0,0:0:0:0:
192,72,37856,1,0,0:0:0:0:
136,88,38023,2,4,P|88:144|112:208,1,140
152,232,38523,2,4,P|216:256|288:240,1,140
384,280,39189,5,0,0:0:0:0:
272,304,39523,1,0,0:0:0:0:
216,296,39689,1,0,0:0:0:0:
176,256,39856,1,0,0:0:0:0:
88,192,40189,1,0,0:0:0:0:
96,80,40523,2,4,P|192:48|256:64,1,140
340,72,41189,5,0,0:0:0:0:
124,132,41523,1,0,0:0:0:0:
344,164,41856,1,0,0:0:0:0:
124,216,42189,1,0,0:0:0:0:
348,240,42523,1,0,0:0:0:0:
132,296,42856,1,0,0:0:0:0:
348,240,43189,2,4,P|283:206|212:172,1,140
148,96,43856,5,0,0:0:0:0:
72,176,44190,1,0,0:0:0:0:
184,168,44523,2,4,P|256:143|344:168,1,140
360,184,45023,1,0,0:0:0:0:
360,240,45190,1,0,0:0:0:0:
288,320,45523,1,0,0:0:0:0:
184,272,45856,2,4,P|120:232|32:232,1,140,0|0,0:0|0:0,0:0:0:0:
96,336,46523,5,0,0:0:0:0:
208,336,46856,1,0,0:0:0:0:
208,224,47189,1,0,0:0:0:0:
208,112,47523,1,0,0:0:0:0:
96,104,47856,5,0,0:0:0:0:
256,260,48189,1,0,0:0:0:0:
408,96,48523,1,0,0:0:0:0:
256,32,49189,5,0,0:0:0:0:
144,228,49523,1,0,0:0:0:0:
368,228,49856,1,0,0:0:0:0:
256,304,50523,5,0,0:0:0:0:
144,108,50856,1,0,0:0:0:0:
368,112,51189,1,0,0:0:0:0:
256,304,51856,5,0,0:0:0:0:
60,196,52189,1,0,0:0:0:0:
256,92,52523,1,0,0:0:0:0:
256,304,53189,5,0,0:0:0:0:
452,196,53523,1,0,0:0:0:0:
256,92,53856,2,4,L|256:132,2,35,0|0|0,0:0|0:0|0:0,0:0:0:0:
412,212,54523,6,4,L|268:212,1,140
264,100,55189,2,4,L|416:100,1,140
256,292,55856,5,0,0:0:0:0:
56,192,56189,1,0,0:0:0:0:
280,192,56523,1,0,0:0:0:0:
256,76,57189,5,0,0:0:0:0:
448,192,57523,1,0,0:0:0:0:
224,192,57856,1,0,0:0:0:0:
256,48,58523,5,0,0:0:0:0:
80,188,58856,1,0,0:0:0:0:
256,324,59189,1,0,0:0:0:0:
472,264,59856,5,0,0:0:0:0:
392,176,60189,1,0,0:0:0:0:
288,136,60523,1,0,0:0:0:0:
176,148,60856,2,4,P|133:159|88:140,1,70
16,88,61356,6,4,P|112:40|232:80,1,210
256,96,62023,1,0,0:0:0:0:
288,144,62189,1,0,0:0:0:0:
264,192,62356,1,0,0:0:0:0:
216,160,62523,2,4,P|186:95|112:64,1,140
80,112,63023,2,4,P|64:184|112:256,1,140
96,296,63523,1,0,0:0:0:0:
152,280,63689,2,4,P|225:290|312:264,1,140,0|0,0:0|0:0,0:0:0:0:
304,208,64189,5,0,0:0:0:0:
360,224,64356,1,0,0:0:0:0:
408,192,64523,2,4,P|384:120|320:104,1,140
304,152,65023,1,0,0:0:0:0:
304,208,65189,1,0,0:0:0:0:
248,216,65356,5,0,0:0:0:0:
192,216,65523,1,0,0:0:0:0:
144,192,65689,2,4,P|101:186|80:160,1,70
80,104,66023,2,4,P|88:60|132:24,1,70
172,36,66356,2,4,P|244:36|320:60,1,140
480,76,67189,5,0,0:0:0:0:
260,120,67523,1,0,0:0:0:0:
480,148,67856,1,0,0:0:0:0:
260,120,68189,1,0,0:0:0:0:
464,216,68523,5,0,0:0:0:0:
260,120,68856,1,0,0:0:0:0:
428,268,69189,5,0,0:0:0:0:
260,120,69523,1,0,0:0:0:0:
380,308,69856,1,0,0:0:0:0:
260,120,70189,1,0,0:0:0:0:
316,336,70523,1,0,0:0:0:0:
260,120,70856,1,0,0:0:0:0:
256,344,71189,1,0,0:0:0:0:
260,120,71523,1,0,0:0:0:0:
108,188,72023,6,4,P|228:224|340:216,1,210
348,180,72689,1,0,0:0:0:0:
384,136,72856,1,0,0:0:0:0:
440,136,73023,1,0,0:0:0:0:
472,180,73189,1,0,0:0:0:0:
444,228,73356,1,0,0:0:0:0:
388,224,73523,1,0,0:0:0:0:
384,168,73689,2,4,P|396:132|384:80,1,70
352,60,74023,2,4,P|311:66|288:92,1,70
260,132,74356,2,4,P|228:204|228:292,1,140,0|0,0:0|0:0,0:0:0:0:
184,320,74856,6,4,P|145:332|88:320,1,70
80,288,75189,2,4,P|59:219|80:128,1,140
64,96,75689,1,0,0:0:0:0:
112,72,75856,1,0,0:0:0:0:
160,96,76023,1,0,0:0:0:0:
208,72,76189,1,0,0:0:0:0:
264,88,76356,2,4,L|392:88,1,70
392,88,76689,2,4,P|400:120|368:160,1,70,4|4,0:0|0:0,0:0:0:0:
352,192,77023,6,4,L|256:288,1,70,0|0,0:0|0:0,0:0:0:0:
168,232,77523,1,0,0:0:0:0:
104,144,77856,2,4,P|168:80|232:144,1,140
256,192,78523,1,0,0:0:0:0:
256,52,78856,1,0,0:0:0:0:
256,192,79189,5,0,0:0:0:0:
396,188,79523,1,0,0:0:0:0:
256,196,79856,1,0,0:0:0:0:
248,336,80189,1,0,0:0:0:0:
252,196,80523,1,0,0:0:0:0:
112,192,80856,5,0,0:0:0:0:
252,196,81189,1,0,0:0:0:0:
256,56,81523,1,0,0:0:0:0:
252,196,81856,6,4,P|284:240|376:240,1,140
396,140,82523,1,0,0:0:0:0:
300,196,82856,1,0,0:0:0:0:
356,292,83189,1,0,0:0:0:0:
448,228,83523,1,0,0:0:0:0:
256,192,83856,12,0,86023,0:0:0:0:
