osu file format v5

[General]
AudioFilename: Back-On - 01 - New World.mp3
AudioLeadIn: 0
PreviewTime: -1
Countdown: 1
SampleSet: Normal
StackLeniency: 0.7
Mode: 0
LetterboxInBreaks: 1

[Metadata]
Title:New World
Artist:Back-On
Creator:MagusZero
Version:Normal
Source:
Tags:

[Difficulty]
HPDrainRate:4
CircleSize:5
OverallDifficulty:5
SliderMultiplier:1.4
SliderTickRate:2

[Events]
//Background and Video events
//Break Periods
2,14029,22704
2,78059,92032
2,132686,143525
//Storyboard Layer 0 (Background)
//Storyboard Layer 1 (Failing)
//Storyboard Layer 2 (Passing)
//Storyboard Layer 3 (Foreground)
//Storyboard Sound Samples
//Background Colour Transformations
3,100,163,162,255

[TimingPoints]
9812,441.176470588235,4,1,0,100,1

[Colours]
Combo1 : 124,1,199
Combo2 : 0,14,187
Combo3 : 2,196,176

[HitObjects]
256,192,9812,1,0
256,64,10253,1,0
384,64,10694,1,0
256,64,11135,1,0
128,64,11576,5,0
128,160,12017,1,0
128,256,12459,1,0
128,256,12679,2,0,C|224:256,1,70
288,160,13341,6,0,C|448:160,1,140
256,192,23929,5,0
256,192,24150,1,0
256,192,24370,1,0
256,192,24591,1,0
256,256,24812,5,0
256,256,25032,1,0
352,320,25473,5,0
352,192,25914,1,0
256,128,26356,1,0
160,128,26797,5,0
160,128,27017,1,0
160,128,27238,2,0,C|160:224,1,70
160,256,27679,1,0
320,256,28341,5,0
384,256,28562,1,0
480,256,29003,1,0
480,128,29444,5,0
480,128,29664,2,0,C|480:32,1,70
480,58,30106,1,0
480,58,30326,2,0,C|384:64,1,70
288,64,30988,5,0
288,160,31429,1,0
160,160,31870,5,0
32,160,32312,1,0
32,256,32753,1,0
32,128,33194,1,0
160,128,33635,1,0
160,128,34076,1,0
160,128,34297,1,0
192,224,34738,5,0
288,288,35179,2,0,C|384:288,1,70
416,224,35841,1,0
416,160,36062,5,0
416,160,36282,1,0
416,96,36503,1,0
416,96,36723,1,0
416,160,36944,1,0
416,160,37164,1,0
416,96,37385,1,0
416,96,37606,1,0
288,96,38047,2,0,C|128:96,1,140
32,160,38929,5,0
32,256,39370,2,0,C|128:256,1,70
160,256,39812,1,0
256,256,40253,1,0
352,256,40694,6,0,C|448:256,1,70
480,256,41135,2,0,C|480:96,1,140
480,64,41797,1,0
480,64,42017,2,0,C|384:64,1,70
410,64,42459,2,0,C|320:64,1,70
160,64,43341,5,0
160,64,43562,2,0,C|160:160,1,70
160,134,44003,2,0,C|160:224,3,70
160,256,45106,6,0,C|320:256,1,140
416,192,46209,1,0
416,128,46650,5,0
416,128,46870,1,0
416,64,47091,1,0
416,64,47312,1,0
416,128,47532,1,0
416,128,47753,1,0
32,32,51282,6,0,C|320:32,1,280
416,32,52606,2,0,C|480:192,1,140
480,288,53488,2,0,C|352:352,1,140
256,352,54370,2,0,C|96:352,1,140
64,256,55253,2,0,C|64:96,1,140
160,96,56135,2,0,C|160:256,1,140
256,256,57017,2,0,C|256:96,1,140
352,96,57900,2,0,C|352:256,1,140
224,352,59223,6,0,C|384:352,1,140
364,352,59885,2,0,C|480:256,1,140
480,96,60988,2,0,C|320:32,1,140
350,44,61650,1,0
160,32,62312,5,0
160,32,62753,1,0
160,32,62973,1,0
160,32,63194,1,0
160,32,63414,1,0
288,96,63856,5,0
288,192,64297,5,0
192,256,64738,5,0
352,352,65400,5,0
416,288,65841,1,0
416,160,66282,1,0
416,288,66723,1,0
416,160,67164,1,0
416,32,67606,1,0
416,160,68047,1,0
416,32,68488,1,0
416,160,68929,1,0
288,160,69370,1,0
288,160,69812,5,0
288,160,70253,1,0
288,160,70694,1,0
288,256,71135,1,0
288,256,71576,1,0
288,160,72017,1,0
288,160,72459,1,0
96,192,73341,5,0
96,320,73782,1,0
96,320,74003,1,0
256,352,74664,1,0
320,256,75106,1,0
256,160,75547,1,0
320,64,75988,1,0
320,64,76209,1,0
320,64,76429,1,0
320,64,76650,1,0
256,192,76870,12,0,77973
256,160,93194,5,0
256,160,93414,2,0,C|352:160,1,70
416,160,94076,2,0,C|416:288,1,70
352,320,94517,1,0
352,320,94738,1,0
352,320,94959,1,0
224,320,95400,1,0
192,224,95841,5,0
192,96,96282,1,0
288,64,96723,1,0
352,160,97164,2,0,C|320:320,1,140
288,320,97826,1,0
288,320,98047,1,0
192,256,98488,5,0
224,160,98929,1,0
288,224,99370,1,0
384,288,99811,5,0
384,160,100253,1,0
384,32,100694,1,0
384,160,101135,1,0
384,288,101576,2,0,C|384:192,1,70
288,288,102238,6,0,C|192:288,1,70
160,288,102679,2,0,C|64:288,1,70
256,192,103120,12,0,104223
224,192,105988,5,0
288,192,106209,6,0,C|416:192|352:96|224:96,1,350
202,116,107532,1,0
128,128,107753,1,0
32,192,108194,5,0
32,192,108414,1,0
64,256,108635,1,0
160,320,109076,1,0
256,352,109517,1,0
256,224,109959,1,0
256,352,110400,1,0
256,224,110841,1,0
352,288,111282,1,0
256,224,111723,1,0
160,288,112164,1,0
256,352,112606,1,0
352,288,113047,1,0
256,224,113488,1,0
256,96,113929,5,0
256,224,114370,1,0
256,224,114591,1,0
160,160,115032,1,0
352,160,115694,5,0
256,96,116135,1,0
256,96,116356,1,0
256,256,117017,1,0
352,192,117459,1,0
352,192,117679,2,0,C|256:96,1,70
256,96,118120,1,0
128,192,118561,1,0
160,288,119003,1,0
256,352,119444,1,0
320,224,120106,5,0
320,224,120326,1,0
320,224,120547,1,0
320,224,120767,1,0
320,224,120988,1,0
384,320,121429,1,0
416,224,121870,1,0
352,128,122311,1,0
256,192,122753,1,0
192,288,123194,1,0
288,352,123635,5,0
384,288,124076,1,0
384,160,124517,1,0
320,64,124959,1,0
224,96,125400,1,0
96,96,125841,5,0
128,224,126282,1,0
128,352,126723,1,0
128,224,127164,1,0
352,288,128047,5,0
352,160,128488,1,0
352,32,128929,1,0
352,160,129370,1,0
352,160,129811,1,0
352,160,130253,1,0
352,32,130694,1,0
256,96,131135,1,0
256,192,131576,12,0,132459
32,32,144811,6,0,C|320:32,1,280
416,32,146135,2,0,C|480:192,1,140
480,288,147017,2,0,C|352:352,1,140
256,352,147900,2,0,C|96:352,1,140
64,256,148782,2,0,C|64:96,1,140
160,96,149664,2,0,C|160:256,1,140
256,256,150547,2,0,C|256:96,1,140
352,96,151429,2,0,C|352:256,1,140
160,352,152753,6,0,C|160:192,1,140
160,128,153414,2,0,C|288:64,1,140
416,96,154517,6,0,C|416:256,1,140
416,236,155179,1,0
256,192,155841,12,0,157826
32,32,158929,6,0,C|320:32,1,280
416,32,160253,2,0,C|480:192,1,140
480,288,161135,2,0,C|352:352,1,140
256,352,162017,2,0,C|96:352,1,140
64,256,162900,2,0,C|64:96,1,140
160,96,163782,2,0,C|160:256,1,140
256,256,164664,2,0,C|256:96,1,140
352,96,165547,2,0,C|352:256,1,140
160,352,166870,6,0,C|160:192,1,140
160,128,167532,2,0,C|288:64,1,140
416,96,168635,6,0,C|416:256,1,140
320,160,169517,1,0
288,192,169738,1,0
320,224,169959,1,0
256,192,170179,12,0,172164
