osu file format v5

[General]
AudioFilename: Allo Papy.mp3
AudioLeadIn: 0
PreviewTime: -1
Countdown: 1
SampleSet: Normal
StackLeniency: 0.7
Mode: 0
LetterboxInBreaks: 1

[Metadata]
Title:Allo Papy
Artist:Baby V.O.X
Creator:Crazy Jay
Version:Easy
Source:
Tags:

[Difficulty]
HPDrainRate:5
CircleSize:4
OverallDifficulty:4
SliderMultiplier:1.1
SliderTickRate:2

[Events]
//Background and Video events
0,0,"babyvox.jpg"
//Break Periods
2,33959,34207
//Storyboard Layer 0 (Background)
//Storyboard Layer 1 (Failing)
//Storyboard Layer 2 (Passing)
//Storyboard Layer 3 (Foreground)
//Storyboard Sound Samples
//Background Colour Transformations
3,100,163,162,255

[TimingPoints]
598,442.151805453206,4,1,0,100,1,0

[Colours]
Combo1 : 64,128,128
Combo2 : 255,0,0
Combo3 : 72,72,251
Combo4 : 255,98,176

[HitObjects]
96,128,14304,1,0
205,125,15188,1,8
314,124,16072,1,0
424,122,16957,1,8
425,231,17841,6,0,B|313:231,3,110,0|8|0|8
267,259,19610,6,0,B|155:259,3,110,0|8|0|8
157,203,21379,5,0
157,93,22263,1,8
266,92,23147,1,0
266,202,24032,1,8
375,199,24916,6,0,B|375:64,3,110,0|8|0|8
320,89,26684,6,0,B|320:218,3,110,0|8|0|8
311,253,28453,6,0,B|284:295|223:318|156:309|94:289|53:225|50:156,1,330,0|2
75,130,30222,6,0,B|102:88|163:65|230:74|292:94|333:158|336:227,1,330,0|2
256,192,32211,12,0,33759
384,64,35527,5,0
384,119,35970,1,0
384,173,36412,1,2
274,170,37296,5,0
219,170,37738,1,0
164,170,38180,1,8
164,280,39065,6,0,B|300:280,2,110,0|0|2
161,170,40833,6,0,B|32:171,2,110,0|0|8
280,101,42823,6,2,B|229:106|182:164|217:237,1,165
334,288,44592,6,2,B|385:283|432:225|397:152,1,165
274,109,46360,5,0
220,171,47023,1,2
109,171,47908,5,0
107,225,48350,1,0
161,225,48792,1,8
270,234,49676,5,0
270,234,50119,1,0
270,234,50561,1,2
379,235,51445,5,0
379,235,51887,1,0
379,235,52329,1,2
256,192,53435,12,0,56309
96,256,56751,6,0,B|120:284|179:288|207:243,3,110,0|8|0|8
195,202,58519,6,0,B|171:174|112:170|84:215,3,110,0|8|0|8
133,241,60288,6,0,B|259:241,1,110
297,241,61172,1,8
297,241,61393,1,8
297,241,61614,1,2
299,185,62057,6,0,B|174:185,1,110
134,185,62941,1,8
134,185,63162,1,8
134,185,63383,1,2
188,177,63825,6,0,B|225:121|184:52,3,110,0|8|0|8
139,72,65594,6,0,B|108:129|143:197,3,110,0|8|0|8
148,231,67362,1,0
203,231,67805,1,0
257,232,68247,1,8
284,231,68468,1,8
311,231,68689,1,2
365,234,69131,5,0
363,179,69573,1,0
363,124,70015,1,8
363,96,70236,1,8
363,68,70457,1,2
308,71,70900,6,0,B|187:71,1,110
173,120,71784,1,8
173,120,72005,1,0
173,120,72226,1,2
148,169,72668,6,0,B|22:170,1,110
12,218,73553,1,8
12,218,73774,1,0
12,218,73995,1,2
256,192,74658,12,2,76205
