osu file format v12

[General]
AudioFilename: Baby Alice - Pina Colada Boy (Nightcore Mix).mp3
AudioLeadIn: 2000
PreviewTime: 30760
Countdown: 1
SampleSet: None
StackLeniency: 0.7
Mode: 3
LetterboxInBreaks: 0
SpecialStyle: 1
WidescreenStoryboard: 1

[Editor]
DistanceSpacing: 0.9
BeatDivisor: 4
GridSize: 8
TimelineZoom: 1.4

[Metadata]
Title:Pina Colada Boy (Nightcore Mix)
TitleUnicode:Pina Colada Boy (Nightcore Mix)
Artist:Baby Alice
ArtistUnicode:Baby Alice
Creator:Xcrypt
Version:[BMS Insane] LV.10 - Advanced
Source:
Tags:
BeatmapID:422124
BeatmapSetID:174933

[Difficulty]
HPDrainRate:9
CircleSize:8
OverallDifficulty:10
ApproachRate:5
SliderMultiplier:1.4
SliderTickRate:1

[Events]
//Background and Video events
0,0,"Jericho moe.jpg",0,0
//Break Periods
//Storyboard Layer 0 (Background)
//Storyboard Layer 1 (Fail)
//Storyboard Layer 2 (Pass)
//Storyboard Layer 3 (Foreground)
//Storyboard Sound Samples
//Background Colour Transformations
3,100,255,255,255

[TimingPoints]
926,424.778761061947,4,2,1,80,1,0

[HitObjects]
224,192,926,5,0,0:0:0:0:
96,192,926,1,0,0:0:0:0:
352,192,1350,1,0,0:0:0:0:
480,192,1350,1,0,0:0:0:0:
352,192,1563,1,0,0:0:0:0:
480,192,1563,1,0,0:0:0:0:
352,192,1669,1,0,0:0:0:0:
480,192,1669,1,0,0:0:0:0:
224,192,1881,1,0,0:0:0:0:
96,192,1881,1,0,0:0:0:0:
352,192,1987,1,0,0:0:0:0:
224,192,1987,1,0,0:0:0:0:
480,192,2200,1,0,0:0:0:0:
352,192,2200,1,0,0:0:0:0:
352,192,2412,1,0,0:0:0:0:
224,192,2412,1,0,0:0:0:0:
480,192,4324,1,0,0:0:0:0:
352,192,4324,1,0,0:0:0:0:
224,192,4749,1,0,0:0:0:0:
96,192,4749,1,0,0:0:0:0:
224,192,4961,1,0,0:0:0:0:
96,192,4961,1,0,0:0:0:0:
224,192,5067,1,0,0:0:0:0:
96,192,5067,1,0,0:0:0:0:
224,192,5386,1,0,0:0:0:0:
96,192,5386,1,0,0:0:0:0:
352,192,5598,1,0,0:0:0:0:
224,192,5598,1,0,0:0:0:0:
96,192,5810,1,0,0:0:0:0:
224,192,5810,1,0,0:0:0:0:
224,192,7722,1,0,0:0:0:0:
96,192,7722,1,0,0:0:0:0:
352,192,7722,1,0,0:0:0:0:
352,192,8146,1,0,0:0:0:0:
32,192,8147,1,0,0:0:0:0:
224,192,8147,1,0,0:0:0:0:
480,192,8147,1,0,0:0:0:0:
352,192,8359,1,0,0:0:0:0:
480,192,8359,1,0,0:0:0:0:
352,192,8465,1,0,0:0:0:0:
480,192,8465,1,0,0:0:0:0:
224,192,8677,1,0,0:0:0:0:
96,192,8678,1,0,0:0:0:0:
352,192,8678,1,0,0:0:0:0:
352,192,8783,1,0,0:0:0:0:
224,192,8784,1,0,0:0:0:0:
480,192,8996,1,0,0:0:0:0:
32,192,8996,1,0,0:0:0:0:
352,192,8996,1,0,0:0:0:0:
224,192,8996,1,0,0:0:0:0:
352,192,9208,1,0,0:0:0:0:
224,192,9209,1,0,0:0:0:0:
160,192,9421,1,0,0:0:0:0:
288,192,9421,1,0,0:0:0:0:
416,192,9421,1,0,0:0:0:0:
288,192,9740,1,0,0:0:0:0:
32,192,9846,1,0,0:0:0:0:
416,192,9846,1,0,0:0:0:0:
416,192,10058,1,0,0:0:0:0:
288,192,10058,1,0,0:0:0:0:
160,192,10271,1,0,0:0:0:0:
288,192,10271,1,0,0:0:0:0:
416,192,10271,1,0,0:0:0:0:
288,192,10589,1,0,0:0:0:0:
32,192,10695,1,0,0:0:0:0:
416,192,10695,1,0,0:0:0:0:
288,192,10908,1,0,0:0:0:0:
416,192,10908,1,0,0:0:0:0:
480,192,11120,1,0,0:0:0:0:
352,192,11120,1,0,0:0:0:0:
224,192,11120,1,0,0:0:0:0:
224,192,11545,1,0,0:0:0:0:
32,192,11545,1,0,0:0:0:0:
96,192,11545,1,0,0:0:0:0:
352,192,11545,1,0,0:0:0:0:
224,192,11757,1,0,0:0:0:0:
352,192,11757,1,0,0:0:0:0:
224,192,11863,1,0,0:0:0:0:
352,192,11864,1,0,0:0:0:0:
224,192,12182,1,0,0:0:0:0:
96,192,12182,1,0,0:0:0:0:
352,192,12182,1,0,0:0:0:0:
352,192,12394,1,0,0:0:0:0:
32,192,12395,1,0,0:0:0:0:
224,192,12395,1,0,0:0:0:0:
480,192,12395,1,0,0:0:0:0:
96,192,12606,1,0,0:0:0:0:
224,192,12607,1,0,0:0:0:0:
352,192,12607,1,0,0:0:0:0:
160,192,12819,1,0,0:0:0:0:
288,192,12819,1,0,0:0:0:0:
416,192,12819,1,0,0:0:0:0:
288,192,13138,1,0,0:0:0:0:
32,192,13244,1,0,0:0:0:0:
416,192,13244,1,0,0:0:0:0:
416,192,13456,1,0,0:0:0:0:
288,192,13456,1,0,0:0:0:0:
160,192,13669,1,0,0:0:0:0:
288,192,13669,1,0,0:0:0:0:
416,192,13669,1,0,0:0:0:0:
32,192,14094,1,0,0:0:0:0:
160,192,14200,1,0,0:0:0:0:
288,192,14306,1,0,0:0:0:0:
416,192,14412,1,0,0:0:0:0:
32,192,14518,1,0,0:0:0:0:
224,192,14731,1,0,0:0:0:0:
96,192,14731,1,0,0:0:0:0:
288,192,14837,1,0,0:0:0:0:
480,192,14837,1,0,0:0:0:0:
160,192,14837,1,0,0:0:0:0:
32,192,14943,1,0,0:0:0:0:
96,192,14943,1,0,0:0:0:0:
224,192,14943,1,0,0:0:0:0:
352,192,14943,1,0,0:0:0:0:
416,192,14943,1,0,0:0:0:0:
288,192,15156,1,0,0:0:0:0:
160,192,15156,1,0,0:0:0:0:
224,192,15262,1,0,0:0:0:0:
416,192,15262,1,0,0:0:0:0:
96,192,15262,1,0,0:0:0:0:
32,192,15368,1,0,0:0:0:0:
160,192,15368,1,0,0:0:0:0:
288,192,15368,1,0,0:0:0:0:
352,192,15368,1,0,0:0:0:0:
224,192,15580,1,0,0:0:0:0:
96,192,15580,1,0,0:0:0:0:
160,192,15686,1,0,0:0:0:0:
480,192,15686,1,0,0:0:0:0:
288,192,15686,1,0,0:0:0:0:
32,192,15792,1,0,0:0:0:0:
352,192,15792,1,0,0:0:0:0:
96,192,15792,1,0,0:0:0:0:
416,192,15792,1,0,0:0:0:0:
224,192,15792,1,0,0:0:0:0:
288,192,16005,1,0,0:0:0:0:
160,192,16005,1,0,0:0:0:0:
96,192,16111,1,0,0:0:0:0:
416,192,16111,1,0,0:0:0:0:
224,192,16111,1,0,0:0:0:0:
32,192,16217,1,0,0:0:0:0:
288,192,16217,1,0,0:0:0:0:
352,192,16217,1,0,0:0:0:0:
160,192,16217,1,0,0:0:0:0:
352,192,16430,1,0,0:0:0:0:
224,192,16430,1,0,0:0:0:0:
288,192,16536,1,0,0:0:0:0:
160,192,16536,1,0,0:0:0:0:
480,192,16536,1,0,0:0:0:0:
96,192,16642,1,0,0:0:0:0:
32,192,16642,1,0,0:0:0:0:
224,192,16642,1,0,0:0:0:0:
352,192,16642,1,0,0:0:0:0:
416,192,16642,1,0,0:0:0:0:
352,192,16855,1,0,0:0:0:0:
160,192,16855,1,0,0:0:0:0:
224,192,16961,1,0,0:0:0:0:
416,192,16961,1,0,0:0:0:0:
96,192,16961,1,0,0:0:0:0:
160,192,17067,1,0,0:0:0:0:
32,192,17067,1,0,0:0:0:0:
480,192,17067,1,0,0:0:0:0:
288,192,17067,1,0,0:0:0:0:
224,192,17279,1,0,0:0:0:0:
352,192,17279,1,0,0:0:0:0:
288,192,17385,1,0,0:0:0:0:
480,192,17385,1,0,0:0:0:0:
160,192,17385,1,0,0:0:0:0:
96,192,17491,1,0,0:0:0:0:
416,192,17491,1,0,0:0:0:0:
224,192,17491,1,0,0:0:0:0:
32,192,17491,1,0,0:0:0:0:
352,192,17491,1,0,0:0:0:0:
160,192,17704,1,0,0:0:0:0:
352,192,17704,1,0,0:0:0:0:
416,192,17810,1,0,0:0:0:0:
224,192,17810,1,0,0:0:0:0:
96,192,17810,1,0,0:0:0:0:
32,192,17916,1,0,0:0:0:0:
480,192,17916,1,0,0:0:0:0:
160,192,17916,1,0,0:0:0:0:
288,192,17916,1,0,0:0:0:0:
352,192,18129,1,0,0:0:0:0:
480,192,18129,1,0,0:0:0:0:
288,192,18235,1,0,0:0:0:0:
416,192,18235,1,0,0:0:0:0:
224,192,18235,1,0,0:0:0:0:
32,192,18341,1,0,0:0:0:0:
480,192,18341,1,0,0:0:0:0:
96,192,18341,1,0,0:0:0:0:
352,192,18341,1,0,0:0:0:0:
160,192,18341,1,0,0:0:0:0:
480,192,18554,1,0,0:0:0:0:
224,192,18554,1,0,0:0:0:0:
416,192,18660,1,0,0:0:0:0:
288,192,18660,1,0,0:0:0:0:
96,192,18660,1,0,0:0:0:0:
32,192,18766,1,0,0:0:0:0:
480,192,18766,1,0,0:0:0:0:
352,192,18766,1,0,0:0:0:0:
224,192,18766,1,0,0:0:0:0:
160,192,18766,1,0,0:0:0:0:
480,192,18979,1,0,0:0:0:0:
352,192,18979,1,0,0:0:0:0:
224,192,19085,1,0,0:0:0:0:
416,192,19085,1,0,0:0:0:0:
288,192,19085,1,0,0:0:0:0:
96,192,19191,1,0,0:0:0:0:
352,192,19191,1,0,0:0:0:0:
32,192,19191,1,0,0:0:0:0:
480,192,19191,1,0,0:0:0:0:
160,192,19191,1,0,0:0:0:0:
224,192,19404,1,0,0:0:0:0:
480,192,19404,1,0,0:0:0:0:
96,192,19510,1,0,0:0:0:0:
416,192,19510,1,0,0:0:0:0:
288,192,19510,1,0,0:0:0:0:
224,192,19616,1,0,0:0:0:0:
160,192,19616,1,0,0:0:0:0:
352,192,19616,1,0,0:0:0:0:
32,192,19616,1,0,0:0:0:0:
480,192,19616,1,0,0:0:0:0:
352,192,19828,1,0,0:0:0:0:
224,192,19828,1,0,0:0:0:0:
288,192,19934,1,0,0:0:0:0:
160,192,19934,1,0,0:0:0:0:
480,192,19934,1,0,0:0:0:0:
96,192,20040,1,0,0:0:0:0:
32,192,20040,1,0,0:0:0:0:
416,192,20040,1,0,0:0:0:0:
352,192,20040,1,0,0:0:0:0:
224,192,20040,1,0,0:0:0:0:
352,192,20253,1,0,0:0:0:0:
160,192,20253,1,0,0:0:0:0:
416,192,20359,1,0,0:0:0:0:
224,192,20359,1,0,0:0:0:0:
96,192,20359,1,0,0:0:0:0:
32,192,20465,1,0,0:0:0:0:
288,192,20465,1,0,0:0:0:0:
480,192,20465,1,0,0:0:0:0:
160,192,20465,1,0,0:0:0:0:
224,192,20677,1,0,0:0:0:0:
352,192,20677,1,0,0:0:0:0:
288,192,20783,1,0,0:0:0:0:
160,192,20783,1,0,0:0:0:0:
480,192,20783,1,0,0:0:0:0:
224,192,20889,1,0,0:0:0:0:
32,192,20889,1,0,0:0:0:0:
352,192,20889,1,0,0:0:0:0:
96,192,20889,1,0,0:0:0:0:
416,192,20889,1,0,0:0:0:0:
160,192,21102,1,0,0:0:0:0:
352,192,21102,1,0,0:0:0:0:
416,192,21209,1,0,0:0:0:0:
224,192,21209,1,0,0:0:0:0:
96,192,21209,1,0,0:0:0:0:
32,192,21315,1,0,0:0:0:0:
160,192,21315,1,0,0:0:0:0:
288,192,21315,1,0,0:0:0:0:
480,192,21315,1,0,0:0:0:0:
96,192,21527,1,0,0:0:0:0:
224,192,21527,1,0,0:0:0:0:
160,192,21633,1,0,0:0:0:0:
480,192,21633,1,0,0:0:0:0:
288,192,21633,1,0,0:0:0:0:
352,192,21739,1,0,0:0:0:0:
416,192,21739,1,0,0:0:0:0:
224,192,21739,1,0,0:0:0:0:
32,192,21739,1,0,0:0:0:0:
96,192,21739,1,0,0:0:0:0:
160,192,21952,1,0,0:0:0:0:
288,192,21952,1,0,0:0:0:0:
96,192,22058,1,0,0:0:0:0:
416,192,22058,1,0,0:0:0:0:
224,192,22058,1,0,0:0:0:0:
288,192,22164,1,0,0:0:0:0:
352,192,22164,1,0,0:0:0:0:
32,192,22164,1,0,0:0:0:0:
160,192,22164,1,0,0:0:0:0:
96,192,22376,1,0,0:0:0:0:
224,192,22376,1,0,0:0:0:0:
288,192,22482,1,0,0:0:0:0:
480,192,22482,1,0,0:0:0:0:
160,192,22482,1,0,0:0:0:0:
416,192,22588,1,0,0:0:0:0:
224,192,22588,1,0,0:0:0:0:
96,192,22588,1,0,0:0:0:0:
32,192,22588,1,0,0:0:0:0:
352,192,22588,1,0,0:0:0:0:
160,192,22801,1,0,0:0:0:0:
288,192,22801,1,0,0:0:0:0:
224,192,22907,1,0,0:0:0:0:
416,192,22907,1,0,0:0:0:0:
96,192,22907,1,0,0:0:0:0:
352,192,23013,1,0,0:0:0:0:
160,192,23013,1,0,0:0:0:0:
32,192,23013,1,0,0:0:0:0:
288,192,23013,1,0,0:0:0:0:
224,192,23226,1,0,0:0:0:0:
352,192,23226,1,0,0:0:0:0:
480,192,23332,1,0,0:0:0:0:
160,192,23332,1,0,0:0:0:0:
288,192,23332,1,0,0:0:0:0:
352,192,23438,1,0,0:0:0:0:
416,192,23438,1,0,0:0:0:0:
224,192,23438,1,0,0:0:0:0:
96,192,23438,1,0,0:0:0:0:
32,192,23438,1,0,0:0:0:0:
160,192,23651,1,0,0:0:0:0:
352,192,23651,1,0,0:0:0:0:
96,192,23757,1,0,0:0:0:0:
416,192,23757,1,0,0:0:0:0:
224,192,23757,1,0,0:0:0:0:
480,192,23863,1,0,0:0:0:0:
288,192,23863,1,0,0:0:0:0:
160,192,23863,1,0,0:0:0:0:
32,192,23863,1,0,0:0:0:0:
352,192,24075,1,0,0:0:0:0:
224,192,24075,1,0,0:0:0:0:
160,192,24181,1,0,0:0:0:0:
480,192,24181,1,0,0:0:0:0:
288,192,24181,1,0,0:0:0:0:
32,192,24287,1,0,0:0:0:0:
352,192,24287,1,0,0:0:0:0:
224,192,24287,1,0,0:0:0:0:
96,192,24287,1,0,0:0:0:0:
416,192,24287,1,0,0:0:0:0:
352,192,24500,1,0,0:0:0:0:
160,192,24500,1,0,0:0:0:0:
96,192,24606,1,0,0:0:0:0:
224,192,24606,1,0,0:0:0:0:
416,192,24606,1,0,0:0:0:0:
160,192,24712,1,0,0:0:0:0:
288,192,24712,1,0,0:0:0:0:
32,192,24712,1,0,0:0:0:0:
480,192,24712,1,0,0:0:0:0:
480,192,24925,1,0,0:0:0:0:
352,192,24925,1,0,0:0:0:0:
224,192,25031,1,0,0:0:0:0:
416,192,25031,1,0,0:0:0:0:
288,192,25031,1,0,0:0:0:0:
352,192,25137,1,0,0:0:0:0:
160,192,25137,1,0,0:0:0:0:
96,192,25137,1,0,0:0:0:0:
32,192,25137,1,0,0:0:0:0:
480,192,25137,1,0,0:0:0:0:
224,192,25350,1,0,0:0:0:0:
480,192,25350,1,0,0:0:0:0:
96,192,25456,1,0,0:0:0:0:
288,192,25456,1,0,0:0:0:0:
416,192,25456,1,0,0:0:0:0:
224,192,25562,1,0,0:0:0:0:
160,192,25562,1,0,0:0:0:0:
352,192,25562,1,0,0:0:0:0:
32,192,25562,1,0,0:0:0:0:
480,192,25562,1,0,0:0:0:0:
352,192,25775,1,0,0:0:0:0:
480,192,25775,1,0,0:0:0:0:
288,192,25881,1,0,0:0:0:0:
416,192,25881,1,0,0:0:0:0:
224,192,25881,1,0,0:0:0:0:
480,192,25987,1,0,0:0:0:0:
160,192,25987,1,0,0:0:0:0:
32,192,25987,1,0,0:0:0:0:
96,192,25987,1,0,0:0:0:0:
352,192,25987,1,0,0:0:0:0:
480,192,26200,1,0,0:0:0:0:
224,192,26200,1,0,0:0:0:0:
288,192,26306,1,0,0:0:0:0:
416,192,26306,1,0,0:0:0:0:
96,192,26306,1,0,0:0:0:0:
32,192,26412,1,0,0:0:0:0:
480,192,26412,1,0,0:0:0:0:
352,192,26412,1,0,0:0:0:0:
224,192,26412,1,0,0:0:0:0:
160,192,26412,1,0,0:0:0:0:
224,192,26624,1,0,0:0:0:0:
352,192,26624,1,0,0:0:0:0:
480,192,26730,1,0,0:0:0:0:
160,192,26730,1,0,0:0:0:0:
288,192,26730,1,0,0:0:0:0:
352,192,26836,1,0,0:0:0:0:
224,192,26836,1,0,0:0:0:0:
416,192,26836,1,0,0:0:0:0:
96,192,26836,1,0,0:0:0:0:
32,192,26836,1,0,0:0:0:0:
160,192,27049,1,0,0:0:0:0:
352,192,27049,1,0,0:0:0:0:
96,192,27155,1,0,0:0:0:0:
224,192,27155,1,0,0:0:0:0:
416,192,27155,1,0,0:0:0:0:
480,192,27261,1,0,0:0:0:0:
160,192,27261,1,0,0:0:0:0:
32,192,27261,1,0,0:0:0:0:
288,192,27261,1,0,0:0:0:0:
352,192,27473,1,0,0:0:0:0:
224,192,27473,1,0,0:0:0:0:
480,192,27579,1,0,0:0:0:0:
160,192,27579,1,0,0:0:0:0:
288,192,27579,1,0,0:0:0:0:
96,192,27685,1,0,0:0:0:0:
416,192,27685,1,0,0:0:0:0:
352,192,27685,1,0,0:0:0:0:
224,192,27685,1,0,0:0:0:0:
32,192,27685,1,0,0:0:0:0:
160,192,27899,1,0,0:0:0:0:
352,192,27899,1,0,0:0:0:0:
96,192,28005,1,0,0:0:0:0:
224,192,28005,1,0,0:0:0:0:
416,192,28005,1,0,0:0:0:0:
160,192,28111,1,0,0:0:0:0:
288,192,28111,1,0,0:0:0:0:
32,192,28111,1,0,0:0:0:0:
480,192,28111,1,0,0:0:0:0:
224,192,28324,1,0,0:0:0:0:
96,192,28324,1,0,0:0:0:0:
288,192,28430,1,0,0:0:0:0:
480,192,28430,1,0,0:0:0:0:
160,192,28430,1,0,0:0:0:0:
32,192,28536,1,0,0:0:0:0:
96,192,28536,1,0,0:0:0:0:
224,192,28536,1,0,0:0:0:0:
352,192,28536,1,0,0:0:0:0:
416,192,28536,1,0,0:0:0:0:
288,192,28749,1,0,0:0:0:0:
160,192,28749,1,0,0:0:0:0:
224,192,28855,1,0,0:0:0:0:
416,192,28855,1,0,0:0:0:0:
96,192,28855,1,0,0:0:0:0:
32,192,28961,1,0,0:0:0:0:
160,192,28961,1,0,0:0:0:0:
288,192,28961,1,0,0:0:0:0:
352,192,28961,1,0,0:0:0:0:
224,192,29173,1,0,0:0:0:0:
96,192,29173,1,0,0:0:0:0:
160,192,29279,1,0,0:0:0:0:
480,192,29279,1,0,0:0:0:0:
288,192,29279,1,0,0:0:0:0:
32,192,29385,1,0,0:0:0:0:
352,192,29385,1,0,0:0:0:0:
96,192,29385,1,0,0:0:0:0:
416,192,29385,1,0,0:0:0:0:
224,192,29385,1,0,0:0:0:0:
288,192,29598,1,0,0:0:0:0:
160,192,29598,1,0,0:0:0:0:
96,192,29704,1,0,0:0:0:0:
416,192,29704,1,0,0:0:0:0:
224,192,29704,1,0,0:0:0:0:
32,192,29810,1,0,0:0:0:0:
288,192,29810,1,0,0:0:0:0:
352,192,29810,1,0,0:0:0:0:
160,192,29810,1,0,0:0:0:0:
32,192,30235,1,0,0:0:0:0:
96,192,30235,1,0,0:0:0:0:
32,192,30660,1,0,0:0:0:0:
160,192,30872,1,0,0:0:0:0:
288,192,30872,1,0,0:0:0:0:
32,192,31085,1,0,0:0:0:0:
96,192,31085,1,0,0:0:0:0:
416,192,31085,1,0,0:0:0:0:
288,192,31085,1,0,0:0:0:0:
160,192,31297,1,0,0:0:0:0:
288,192,31297,1,0,0:0:0:0:
32,192,31510,1,0,0:0:0:0:
96,192,31510,1,0,0:0:0:0:
224,192,31510,1,0,0:0:0:0:
352,192,31510,1,0,0:0:0:0:
416,192,31510,1,0,0:0:0:0:
288,192,31510,1,0,0:0:0:0:
416,192,31828,1,0,0:0:0:0:
352,192,31828,1,0,0:0:0:0:
288,192,31828,1,0,0:0:0:0:
480,192,31828,1,0,0:0:0:0:
224,192,31828,1,0,0:0:0:0:
32,192,31934,1,0,0:0:0:0:
96,192,31934,1,0,0:0:0:0:
480,192,31934,1,0,0:0:0:0:
352,192,31934,1,0,0:0:0:0:
224,192,31934,1,0,0:0:0:0:
160,192,32147,1,0,0:0:0:0:
480,192,32147,1,0,0:0:0:0:
352,192,32147,1,0,0:0:0:0:
288,192,32147,1,0,0:0:0:0:
224,192,32147,1,0,0:0:0:0:
32,192,32359,1,0,0:0:0:0:
224,192,32359,1,0,0:0:0:0:
352,192,32359,1,0,0:0:0:0:
160,192,32572,1,0,0:0:0:0:
288,192,32572,1,0,0:0:0:0:
352,192,32678,1,0,0:0:0:0:
224,192,32678,1,0,0:0:0:0:
480,192,32678,1,0,0:0:0:0:
32,192,32784,1,0,0:0:0:0:
96,192,32784,1,0,0:0:0:0:
416,192,32784,1,0,0:0:0:0:
288,192,32784,1,0,0:0:0:0:
480,192,32784,1,0,0:0:0:0:
224,192,32784,1,0,0:0:0:0:
352,192,32784,1,0,0:0:0:0:
160,192,32996,1,0,0:0:0:0:
288,192,32996,1,0,0:0:0:0:
480,192,32996,1,0,0:0:0:0:
352,192,32996,1,0,0:0:0:0:
224,192,32996,1,0,0:0:0:0:
32,192,33209,1,0,0:0:0:0:
416,192,33209,1,0,0:0:0:0:
352,192,33209,1,0,0:0:0:0:
224,192,33209,1,0,0:0:0:0:
288,192,33209,1,0,0:0:0:0:
288,192,33527,1,0,0:0:0:0:
352,192,33527,1,0,0:0:0:0:
160,192,33527,1,0,0:0:0:0:
224,192,33527,1,0,0:0:0:0:
480,192,33527,1,0,0:0:0:0:
32,192,33633,1,0,0:0:0:0:
96,192,33633,1,0,0:0:0:0:
480,192,33633,1,0,0:0:0:0:
224,192,33633,1,0,0:0:0:0:
352,192,33633,1,0,0:0:0:0:
160,192,33846,1,0,0:0:0:0:
416,192,33846,1,0,0:0:0:0:
480,192,33846,1,0,0:0:0:0:
352,192,33846,1,0,0:0:0:0:
224,192,33846,1,0,0:0:0:0:
32,192,34058,1,0,0:0:0:0:
352,192,34058,1,0,0:0:0:0:
224,192,34058,1,0,0:0:0:0:
288,192,34271,1,0,0:0:0:0:
416,192,34271,1,0,0:0:0:0:
352,192,34377,1,0,0:0:0:0:
224,192,34377,1,0,0:0:0:0:
480,192,34377,1,0,0:0:0:0:
32,192,34483,1,0,0:0:0:0:
96,192,34483,1,0,0:0:0:0:
160,192,34483,1,0,0:0:0:0:
288,192,34483,1,0,0:0:0:0:
480,192,34483,1,0,0:0:0:0:
224,192,34483,1,0,0:0:0:0:
352,192,34483,1,0,0:0:0:0:
288,192,34695,1,0,0:0:0:0:
480,192,34695,1,0,0:0:0:0:
352,192,34695,1,0,0:0:0:0:
416,192,34695,1,0,0:0:0:0:
224,192,34695,1,0,0:0:0:0:
32,192,34908,1,0,0:0:0:0:
288,192,34908,1,0,0:0:0:0:
352,192,34908,1,0,0:0:0:0:
224,192,34908,1,0,0:0:0:0:
416,192,34908,1,0,0:0:0:0:
416,192,35226,1,0,0:0:0:0:
352,192,35226,1,0,0:0:0:0:
288,192,35226,1,0,0:0:0:0:
224,192,35226,1,0,0:0:0:0:
480,192,35226,1,0,0:0:0:0:
32,192,35333,1,0,0:0:0:0:
96,192,35333,1,0,0:0:0:0:
480,192,35333,1,0,0:0:0:0:
224,192,35333,1,0,0:0:0:0:
352,192,35333,1,0,0:0:0:0:
416,192,35545,1,0,0:0:0:0:
480,192,35545,1,0,0:0:0:0:
352,192,35545,1,0,0:0:0:0:
288,192,35545,1,0,0:0:0:0:
224,192,35545,1,0,0:0:0:0:
32,192,35757,1,0,0:0:0:0:
352,192,35757,1,0,0:0:0:0:
224,192,35757,1,0,0:0:0:0:
288,192,35970,1,0,0:0:0:0:
160,192,35970,1,0,0:0:0:0:
352,192,36076,1,0,0:0:0:0:
224,192,36076,1,0,0:0:0:0:
480,192,36076,1,0,0:0:0:0:
416,192,36182,1,0,0:0:0:0:
32,192,36182,1,0,0:0:0:0:
96,192,36182,1,0,0:0:0:0:
288,192,36182,1,0,0:0:0:0:
480,192,36182,1,0,0:0:0:0:
224,192,36182,1,0,0:0:0:0:
352,192,36182,1,0,0:0:0:0:
288,192,36395,1,0,0:0:0:0:
480,192,36395,1,0,0:0:0:0:
352,192,36395,1,0,0:0:0:0:
160,192,36395,1,0,0:0:0:0:
224,192,36395,1,0,0:0:0:0:
160,192,36607,1,0,0:0:0:0:
416,192,36607,1,0,0:0:0:0:
32,192,36607,1,0,0:0:0:0:
352,192,36607,1,0,0:0:0:0:
224,192,36607,1,0,0:0:0:0:
288,192,36926,1,0,0:0:0:0:
352,192,36926,1,0,0:0:0:0:
160,192,36926,1,0,0:0:0:0:
224,192,36926,1,0,0:0:0:0:
480,192,36926,1,0,0:0:0:0:
32,192,37032,1,0,0:0:0:0:
96,192,37032,1,0,0:0:0:0:
480,192,37032,1,0,0:0:0:0:
224,192,37032,1,0,0:0:0:0:
352,192,37032,1,0,0:0:0:0:
416,192,37244,1,0,0:0:0:0:
480,192,37244,1,0,0:0:0:0:
352,192,37244,1,0,0:0:0:0:
288,192,37244,1,0,0:0:0:0:
224,192,37244,1,0,0:0:0:0:
32,192,37456,1,0,0:0:0:0:
352,192,37456,1,0,0:0:0:0:
224,192,37456,1,0,0:0:0:0:
160,192,37669,1,0,0:0:0:0:
288,192,37669,1,0,0:0:0:0:
416,192,37881,1,0,0:0:0:0:
32,192,37881,1,0,0:0:0:0:
96,192,37881,1,0,0:0:0:0:
288,192,37881,1,0,0:0:0:0:
224,192,37987,1,0,0:0:0:0:
480,192,37987,1,0,0:0:0:0:
160,192,38094,1,0,0:0:0:0:
288,192,38094,1,0,0:0:0:0:
352,192,38094,1,0,0:0:0:0:
96,192,38094,1,0,0:0:0:0:
480,192,38200,1,0,0:0:0:0:
32,192,38306,1,0,0:0:0:0:
96,192,38306,1,0,0:0:0:0:
224,192,38306,1,0,0:0:0:0:
352,192,38306,1,0,0:0:0:0:
416,192,38306,1,0,0:0:0:0:
288,192,38306,1,0,0:0:0:0:
416,192,38624,1,0,0:0:0:0:
352,192,38625,1,0,0:0:0:0:
288,192,38625,1,0,0:0:0:0:
224,192,38625,1,0,0:0:0:0:
480,192,38625,1,0,0:0:0:0:
32,192,38730,1,0,0:0:0:0:
96,192,38730,1,0,0:0:0:0:
480,192,38731,1,0,0:0:0:0:
224,192,38731,1,0,0:0:0:0:
352,192,38731,1,0,0:0:0:0:
160,192,38943,1,0,0:0:0:0:
480,192,38943,1,0,0:0:0:0:
352,192,38943,1,0,0:0:0:0:
288,192,38943,1,0,0:0:0:0:
224,192,38943,1,0,0:0:0:0:
32,192,39155,1,0,0:0:0:0:
224,192,39155,1,0,0:0:0:0:
352,192,39155,1,0,0:0:0:0:
160,192,39368,1,0,0:0:0:0:
288,192,39368,1,0,0:0:0:0:
352,192,39474,1,0,0:0:0:0:
224,192,39474,1,0,0:0:0:0:
480,192,39474,1,0,0:0:0:0:
32,192,39580,1,0,0:0:0:0:
96,192,39580,1,0,0:0:0:0:
416,192,39580,1,0,0:0:0:0:
288,192,39580,1,0,0:0:0:0:
480,192,39580,1,0,0:0:0:0:
224,192,39580,1,0,0:0:0:0:
352,192,39580,1,0,0:0:0:0:
160,192,39792,1,0,0:0:0:0:
288,192,39792,1,0,0:0:0:0:
480,192,39792,1,0,0:0:0:0:
352,192,39793,1,0,0:0:0:0:
224,192,39793,1,0,0:0:0:0:
32,192,40005,1,0,0:0:0:0:
416,192,40005,1,0,0:0:0:0:
352,192,40005,1,0,0:0:0:0:
224,192,40005,1,0,0:0:0:0:
288,192,40005,1,0,0:0:0:0:
288,192,40323,1,0,0:0:0:0:
352,192,40324,1,0,0:0:0:0:
160,192,40324,1,0,0:0:0:0:
224,192,40324,1,0,0:0:0:0:
480,192,40324,1,0,0:0:0:0:
32,192,40429,1,0,0:0:0:0:
96,192,40429,1,0,0:0:0:0:
480,192,40430,1,0,0:0:0:0:
224,192,40430,1,0,0:0:0:0:
352,192,40430,1,0,0:0:0:0:
160,192,40642,1,0,0:0:0:0:
416,192,40642,1,0,0:0:0:0:
480,192,40642,1,0,0:0:0:0:
352,192,40642,1,0,0:0:0:0:
224,192,40642,1,0,0:0:0:0:
32,192,40854,1,0,0:0:0:0:
352,192,40854,1,0,0:0:0:0:
224,192,40854,1,0,0:0:0:0:
288,192,41067,1,0,0:0:0:0:
416,192,41067,1,0,0:0:0:0:
352,192,41173,1,0,0:0:0:0:
224,192,41173,1,0,0:0:0:0:
480,192,41173,1,0,0:0:0:0:
32,192,41279,1,0,0:0:0:0:
96,192,41279,1,0,0:0:0:0:
160,192,41279,1,0,0:0:0:0:
288,192,41279,1,0,0:0:0:0:
480,192,41279,1,0,0:0:0:0:
224,192,41279,1,0,0:0:0:0:
352,192,41279,1,0,0:0:0:0:
288,192,41491,1,0,0:0:0:0:
480,192,41491,1,0,0:0:0:0:
352,192,41492,1,0,0:0:0:0:
416,192,41492,1,0,0:0:0:0:
224,192,41492,1,0,0:0:0:0:
32,192,41704,1,0,0:0:0:0:
288,192,41704,1,0,0:0:0:0:
352,192,41704,1,0,0:0:0:0:
224,192,41704,1,0,0:0:0:0:
416,192,41704,1,0,0:0:0:0:
416,192,42022,1,0,0:0:0:0:
352,192,42023,1,0,0:0:0:0:
288,192,42023,1,0,0:0:0:0:
224,192,42023,1,0,0:0:0:0:
480,192,42023,1,0,0:0:0:0:
32,192,42129,1,0,0:0:0:0:
96,192,42129,1,0,0:0:0:0:
480,192,42129,1,0,0:0:0:0:
224,192,42129,1,0,0:0:0:0:
352,192,42129,1,0,0:0:0:0:
416,192,42341,1,0,0:0:0:0:
480,192,42341,1,0,0:0:0:0:
352,192,42341,1,0,0:0:0:0:
288,192,42341,1,0,0:0:0:0:
224,192,42341,1,0,0:0:0:0:
32,192,42553,1,0,0:0:0:0:
352,192,42553,1,0,0:0:0:0:
224,192,42553,1,0,0:0:0:0:
288,192,42766,1,0,0:0:0:0:
160,192,42766,1,0,0:0:0:0:
352,192,42872,1,0,0:0:0:0:
224,192,42872,1,0,0:0:0:0:
480,192,42872,1,0,0:0:0:0:
416,192,42978,1,0,0:0:0:0:
32,192,42978,1,0,0:0:0:0:
96,192,42978,1,0,0:0:0:0:
288,192,42979,1,0,0:0:0:0:
480,192,42979,1,0,0:0:0:0:
224,192,42979,1,0,0:0:0:0:
352,192,42979,1,0,0:0:0:0:
288,192,43191,1,0,0:0:0:0:
480,192,43191,1,0,0:0:0:0:
352,192,43191,1,0,0:0:0:0:
160,192,43191,1,0,0:0:0:0:
224,192,43191,1,0,0:0:0:0:
160,192,43403,1,0,0:0:0:0:
416,192,43403,1,0,0:0:0:0:
32,192,43403,1,0,0:0:0:0:
352,192,43403,1,0,0:0:0:0:
224,192,43403,1,0,0:0:0:0:
288,192,43722,1,0,0:0:0:0:
352,192,43722,1,0,0:0:0:0:
160,192,43722,1,0,0:0:0:0:
224,192,43722,1,0,0:0:0:0:
480,192,43722,1,0,0:0:0:0:
32,192,43828,1,0,0:0:0:0:
96,192,43828,1,0,0:0:0:0:
480,192,43828,1,0,0:0:0:0:
224,192,43828,1,0,0:0:0:0:
352,192,43828,1,0,0:0:0:0:
416,192,44040,1,0,0:0:0:0:
480,192,44040,1,0,0:0:0:0:
352,192,44041,1,0,0:0:0:0:
288,192,44041,1,0,0:0:0:0:
224,192,44041,1,0,0:0:0:0:
32,192,44252,1,0,0:0:0:0:
96,192,44253,1,0,0:0:0:0:
160,192,44306,1,0,0:0:0:0:
224,192,44359,1,0,0:0:0:0:
288,192,44412,1,0,0:0:0:0:
352,192,44465,1,0,0:0:0:0:
416,192,44465,1,0,0:0:0:0:
480,192,44465,1,0,0:0:0:0:
224,192,44572,1,0,0:0:0:0:
160,192,44572,1,0,0:0:0:0:
96,192,44572,1,0,0:0:0:0:
352,192,44678,1,0,0:0:0:0:
416,192,44678,1,0,0:0:0:0:
480,192,44678,1,0,0:0:0:0:
224,192,44784,1,0,0:0:0:0:
160,192,44784,1,0,0:0:0:0:
96,192,44784,1,0,0:0:0:0:
352,192,44890,1,0,0:0:0:0:
416,192,44890,1,0,0:0:0:0:
480,192,44890,1,0,0:0:0:0:
32,192,45102,1,0,0:0:0:0:
352,192,45102,1,0,0:0:0:0:
224,192,45102,1,0,0:0:0:0:
160,192,45102,1,0,0:0:0:0:
288,192,45102,1,0,0:0:0:0:
352,192,45421,1,0,0:0:0:0:
224,192,45421,1,0,0:0:0:0:
480,192,45421,1,0,0:0:0:0:
32,192,45527,1,0,0:0:0:0:
96,192,45527,1,0,0:0:0:0:
416,192,45527,1,0,0:0:0:0:
160,192,45527,1,0,0:0:0:0:
480,192,45527,1,0,0:0:0:0:
224,192,45527,1,0,0:0:0:0:
352,192,45527,1,0,0:0:0:0:
416,192,45740,1,0,0:0:0:0:
160,192,45740,1,0,0:0:0:0:
96,192,45740,1,0,0:0:0:0:
224,192,45740,1,0,0:0:0:0:
416,192,45846,1,0,0:0:0:0:
160,192,45846,1,0,0:0:0:0:
480,192,45846,1,0,0:0:0:0:
352,192,45846,1,0,0:0:0:0:
416,192,46058,1,0,0:0:0:0:
160,192,46058,1,0,0:0:0:0:
352,192,46058,1,0,0:0:0:0:
480,192,46058,1,0,0:0:0:0:
416,192,46164,1,0,0:0:0:0:
160,192,46164,1,0,0:0:0:0:
224,192,46164,1,0,0:0:0:0:
96,192,46164,1,0,0:0:0:0:
352,192,46271,1,0,0:0:0:0:
480,192,46271,1,0,0:0:0:0:
416,192,46377,1,0,0:0:0:0:
32,192,46377,1,0,0:0:0:0:
96,192,46377,1,0,0:0:0:0:
288,192,46377,1,0,0:0:0:0:
352,192,46589,1,0,0:0:0:0:
480,192,46589,1,0,0:0:0:0:
160,192,46589,1,0,0:0:0:0:
416,192,46589,1,0,0:0:0:0:
224,192,46589,1,0,0:0:0:0:
32,192,46802,1,0,0:0:0:0:
352,192,46802,1,0,0:0:0:0:
224,192,46802,1,0,0:0:0:0:
160,192,46802,1,0,0:0:0:0:
288,192,46802,1,0,0:0:0:0:
224,192,47120,1,0,0:0:0:0:
480,192,47120,1,0,0:0:0:0:
352,192,47121,1,0,0:0:0:0:
480,192,47226,1,0,0:0:0:0:
224,192,47226,1,0,0:0:0:0:
352,192,47226,1,0,0:0:0:0:
32,192,47227,1,0,0:0:0:0:
96,192,47227,1,0,0:0:0:0:
416,192,47227,1,0,0:0:0:0:
160,192,47227,1,0,0:0:0:0:
416,192,47439,1,0,0:0:0:0:
96,192,47439,1,0,0:0:0:0:
160,192,47439,1,0,0:0:0:0:
224,192,47439,1,0,0:0:0:0:
480,192,47545,1,0,0:0:0:0:
416,192,47545,1,0,0:0:0:0:
160,192,47545,1,0,0:0:0:0:
352,192,47545,1,0,0:0:0:0:
352,192,47757,1,0,0:0:0:0:
160,192,47757,1,0,0:0:0:0:
416,192,47757,1,0,0:0:0:0:
480,192,47757,1,0,0:0:0:0:
160,192,47863,1,0,0:0:0:0:
416,192,47863,1,0,0:0:0:0:
224,192,47863,1,0,0:0:0:0:
96,192,47864,1,0,0:0:0:0:
352,192,47970,1,0,0:0:0:0:
480,192,47970,1,0,0:0:0:0:
416,192,48077,1,0,0:0:0:0:
32,192,48077,1,0,0:0:0:0:
96,192,48077,1,0,0:0:0:0:
288,192,48077,1,0,0:0:0:0:
224,192,48288,1,0,0:0:0:0:
352,192,48289,1,0,0:0:0:0:
480,192,48289,1,0,0:0:0:0:
160,192,48289,1,0,0:0:0:0:
416,192,48289,1,0,0:0:0:0:
352,192,48501,1,0,0:0:0:0:
224,192,48501,1,0,0:0:0:0:
32,192,48501,1,0,0:0:0:0:
288,192,48501,1,0,0:0:0:0:
416,192,48501,1,0,0:0:0:0:
224,192,48819,1,0,0:0:0:0:
480,192,48819,1,0,0:0:0:0:
352,192,48820,1,0,0:0:0:0:
416,192,48926,1,0,0:0:0:0:
160,192,48926,1,0,0:0:0:0:
32,192,48926,1,0,0:0:0:0:
96,192,48926,1,0,0:0:0:0:
480,192,48926,1,0,0:0:0:0:
224,192,48926,1,0,0:0:0:0:
352,192,48926,1,0,0:0:0:0:
160,192,49138,1,0,0:0:0:0:
96,192,49138,1,0,0:0:0:0:
416,192,49138,1,0,0:0:0:0:
224,192,49138,1,0,0:0:0:0:
160,192,49244,1,0,0:0:0:0:
416,192,49244,1,0,0:0:0:0:
480,192,49244,1,0,0:0:0:0:
352,192,49244,1,0,0:0:0:0:
416,192,49456,1,0,0:0:0:0:
160,192,49456,1,0,0:0:0:0:
352,192,49456,1,0,0:0:0:0:
480,192,49456,1,0,0:0:0:0:
224,192,49562,1,0,0:0:0:0:
416,192,49562,1,0,0:0:0:0:
160,192,49562,1,0,0:0:0:0:
96,192,49563,1,0,0:0:0:0:
480,192,49670,1,0,0:0:0:0:
352,192,49670,1,0,0:0:0:0:
96,192,49776,1,0,0:0:0:0:
288,192,49776,1,0,0:0:0:0:
416,192,49776,1,0,0:0:0:0:
32,192,49776,1,0,0:0:0:0:
160,192,49987,1,0,0:0:0:0:
416,192,49987,1,0,0:0:0:0:
224,192,49987,1,0,0:0:0:0:
352,192,49988,1,0,0:0:0:0:
480,192,49988,1,0,0:0:0:0:
32,192,50200,1,0,0:0:0:0:
352,192,50200,1,0,0:0:0:0:
224,192,50200,1,0,0:0:0:0:
224,192,50518,1,0,0:0:0:0:
480,192,50518,1,0,0:0:0:0:
352,192,50519,1,0,0:0:0:0:
32,192,50625,1,0,0:0:0:0:
96,192,50625,1,0,0:0:0:0:
416,192,50625,1,0,0:0:0:0:
160,192,50625,1,0,0:0:0:0:
480,192,50625,1,0,0:0:0:0:
224,192,50625,1,0,0:0:0:0:
352,192,50625,1,0,0:0:0:0:
416,192,50837,1,0,0:0:0:0:
96,192,50837,1,0,0:0:0:0:
160,192,50837,1,0,0:0:0:0:
224,192,50837,1,0,0:0:0:0:
480,192,50943,1,0,0:0:0:0:
416,192,50943,1,0,0:0:0:0:
160,192,50943,1,0,0:0:0:0:
352,192,50943,1,0,0:0:0:0:
352,192,51155,1,0,0:0:0:0:
160,192,51155,1,0,0:0:0:0:
416,192,51155,1,0,0:0:0:0:
480,192,51156,1,0,0:0:0:0:
160,192,51261,1,0,0:0:0:0:
416,192,51261,1,0,0:0:0:0:
224,192,51261,1,0,0:0:0:0:
96,192,51262,1,0,0:0:0:0:
352,192,51368,1,0,0:0:0:0:
480,192,51368,1,0,0:0:0:0:
160,192,51474,1,0,0:0:0:0:
416,192,51474,1,0,0:0:0:0:
96,192,51474,1,0,0:0:0:0:
32,192,51475,1,0,0:0:0:0:
224,192,51580,1,0,0:0:0:0:
352,192,51687,1,0,0:0:0:0:
416,192,51687,1,0,0:0:0:0:
288,192,51687,1,0,0:0:0:0:
480,192,51793,1,0,0:0:0:0:
32,192,51899,1,0,0:0:0:0:
352,192,51899,1,0,0:0:0:0:
224,192,51899,1,0,0:0:0:0:
160,192,51899,1,0,0:0:0:0:
288,192,51899,1,0,0:0:0:0:
352,192,52218,1,0,0:0:0:0:
224,192,52218,1,0,0:0:0:0:
480,192,52218,1,0,0:0:0:0:
32,192,52324,1,0,0:0:0:0:
96,192,52324,1,0,0:0:0:0:
416,192,52324,1,0,0:0:0:0:
160,192,52324,1,0,0:0:0:0:
480,192,52324,1,0,0:0:0:0:
224,192,52324,1,0,0:0:0:0:
352,192,52324,1,0,0:0:0:0:
160,192,52536,1,0,0:0:0:0:
96,192,52536,1,0,0:0:0:0:
416,192,52536,1,0,0:0:0:0:
224,192,52536,1,0,0:0:0:0:
160,192,52642,1,0,0:0:0:0:
416,192,52642,1,0,0:0:0:0:
480,192,52642,1,0,0:0:0:0:
352,192,52642,1,0,0:0:0:0:
416,192,52854,1,0,0:0:0:0:
160,192,52854,1,0,0:0:0:0:
352,192,52854,1,0,0:0:0:0:
480,192,52855,1,0,0:0:0:0:
224,192,52960,1,0,0:0:0:0:
416,192,52960,1,0,0:0:0:0:
160,192,52960,1,0,0:0:0:0:
96,192,52961,1,0,0:0:0:0:
352,192,53068,1,0,0:0:0:0:
480,192,53068,1,0,0:0:0:0:
416,192,53174,1,0,0:0:0:0:
32,192,53174,1,0,0:0:0:0:
96,192,53174,1,0,0:0:0:0:
288,192,53174,1,0,0:0:0:0:
352,192,53386,1,0,0:0:0:0:
480,192,53386,1,0,0:0:0:0:
160,192,53386,1,0,0:0:0:0:
416,192,53386,1,0,0:0:0:0:
224,192,53386,1,0,0:0:0:0:
32,192,53599,1,0,0:0:0:0:
352,192,53599,1,0,0:0:0:0:
224,192,53599,1,0,0:0:0:0:
160,192,53599,1,0,0:0:0:0:
288,192,53599,1,0,0:0:0:0:
224,192,53917,1,0,0:0:0:0:
480,192,53917,1,0,0:0:0:0:
352,192,53918,1,0,0:0:0:0:
480,192,54023,1,0,0:0:0:0:
224,192,54023,1,0,0:0:0:0:
352,192,54023,1,0,0:0:0:0:
32,192,54024,1,0,0:0:0:0:
96,192,54024,1,0,0:0:0:0:
416,192,54024,1,0,0:0:0:0:
160,192,54024,1,0,0:0:0:0:
416,192,54235,1,0,0:0:0:0:
96,192,54235,1,0,0:0:0:0:
160,192,54235,1,0,0:0:0:0:
224,192,54235,1,0,0:0:0:0:
480,192,54341,1,0,0:0:0:0:
416,192,54341,1,0,0:0:0:0:
160,192,54341,1,0,0:0:0:0:
352,192,54341,1,0,0:0:0:0:
352,192,54553,1,0,0:0:0:0:
160,192,54553,1,0,0:0:0:0:
416,192,54553,1,0,0:0:0:0:
480,192,54554,1,0,0:0:0:0:
160,192,54659,1,0,0:0:0:0:
416,192,54659,1,0,0:0:0:0:
224,192,54659,1,0,0:0:0:0:
96,192,54660,1,0,0:0:0:0:
480,192,54766,1,0,0:0:0:0:
352,192,54768,1,0,0:0:0:0:
416,192,54874,1,0,0:0:0:0:
32,192,54874,1,0,0:0:0:0:
96,192,54874,1,0,0:0:0:0:
288,192,54874,1,0,0:0:0:0:
224,192,55085,1,0,0:0:0:0:
352,192,55086,1,0,0:0:0:0:
480,192,55086,1,0,0:0:0:0:
160,192,55086,1,0,0:0:0:0:
416,192,55086,1,0,0:0:0:0:
352,192,55298,1,0,0:0:0:0:
224,192,55298,1,0,0:0:0:0:
32,192,55298,1,0,0:0:0:0:
288,192,55298,1,0,0:0:0:0:
416,192,55298,1,0,0:0:0:0:
224,192,55616,1,0,0:0:0:0:
480,192,55616,1,0,0:0:0:0:
352,192,55617,1,0,0:0:0:0:
480,192,55722,1,0,0:0:0:0:
224,192,55722,1,0,0:0:0:0:
352,192,55722,1,0,0:0:0:0:
416,192,55723,1,0,0:0:0:0:
160,192,55723,1,0,0:0:0:0:
32,192,55723,1,0,0:0:0:0:
96,192,55723,1,0,0:0:0:0:
160,192,55934,1,0,0:0:0:0:
96,192,55934,1,0,0:0:0:0:
416,192,55934,1,0,0:0:0:0:
224,192,55934,1,0,0:0:0:0:
160,192,56040,1,0,0:0:0:0:
416,192,56040,1,0,0:0:0:0:
480,192,56040,1,0,0:0:0:0:
352,192,56041,1,0,0:0:0:0:
416,192,56252,1,0,0:0:0:0:
160,192,56252,1,0,0:0:0:0:
352,192,56252,1,0,0:0:0:0:
480,192,56253,1,0,0:0:0:0:
224,192,56358,1,0,0:0:0:0:
416,192,56358,1,0,0:0:0:0:
160,192,56358,1,0,0:0:0:0:
96,192,56359,1,0,0:0:0:0:
480,192,56467,1,0,0:0:0:0:
352,192,56467,1,0,0:0:0:0:
96,192,56573,1,0,0:0:0:0:
288,192,56573,1,0,0:0:0:0:
416,192,56573,1,0,0:0:0:0:
32,192,56573,1,0,0:0:0:0:
160,192,56784,1,0,0:0:0:0:
416,192,56784,1,0,0:0:0:0:
224,192,56784,1,0,0:0:0:0:
352,192,56785,1,0,0:0:0:0:
480,192,56785,1,0,0:0:0:0:
32,192,56997,1,0,0:0:0:0:
352,192,56997,1,0,0:0:0:0:
224,192,56997,1,0,0:0:0:0:
224,192,57315,1,0,0:0:0:0:
480,192,57315,1,0,0:0:0:0:
352,192,57316,1,0,0:0:0:0:
480,192,57421,1,0,0:0:0:0:
224,192,57421,1,0,0:0:0:0:
352,192,57421,1,0,0:0:0:0:
32,192,57422,1,0,0:0:0:0:
96,192,57422,1,0,0:0:0:0:
416,192,57422,1,0,0:0:0:0:
160,192,57422,1,0,0:0:0:0:
416,192,57633,1,0,0:0:0:0:
96,192,57633,1,0,0:0:0:0:
160,192,57633,1,0,0:0:0:0:
224,192,57633,1,0,0:0:0:0:
480,192,57739,1,0,0:0:0:0:
416,192,57739,1,0,0:0:0:0:
160,192,57739,1,0,0:0:0:0:
352,192,57740,1,0,0:0:0:0:
352,192,57951,1,0,0:0:0:0:
160,192,57951,1,0,0:0:0:0:
416,192,57951,1,0,0:0:0:0:
480,192,57952,1,0,0:0:0:0:
160,192,58057,1,0,0:0:0:0:
416,192,58057,1,0,0:0:0:0:
224,192,58057,1,0,0:0:0:0:
96,192,58058,1,0,0:0:0:0:
352,192,58164,1,0,0:0:0:0:
480,192,58164,1,0,0:0:0:0:
416,192,58271,1,0,0:0:0:0:
96,192,58271,1,0,0:0:0:0:
160,192,58271,1,0,0:0:0:0:
32,192,58271,1,0,0:0:0:0:
224,192,58377,1,0,0:0:0:0:
416,192,58483,1,0,0:0:0:0:
352,192,58484,1,0,0:0:0:0:
288,192,58484,1,0,0:0:0:0:
480,192,58589,1,0,0:0:0:0:
96,192,58908,1,0,0:0:0:0:
224,192,58908,1,0,0:0:0:0:
160,192,59014,1,0,0:0:0:0:
480,192,59014,1,0,0:0:0:0:
288,192,59014,1,0,0:0:0:0:
352,192,59120,1,0,0:0:0:0:
416,192,59120,1,0,0:0:0:0:
224,192,59120,1,0,0:0:0:0:
32,192,59120,1,0,0:0:0:0:
96,192,59120,1,0,0:0:0:0:
160,192,59333,1,0,0:0:0:0:
288,192,59333,1,0,0:0:0:0:
96,192,59439,1,0,0:0:0:0:
416,192,59439,1,0,0:0:0:0:
224,192,59439,1,0,0:0:0:0:
288,192,59545,1,0,0:0:0:0:
352,192,59545,1,0,0:0:0:0:
32,192,59545,1,0,0:0:0:0:
160,192,59545,1,0,0:0:0:0:
96,192,59757,1,0,0:0:0:0:
224,192,59757,1,0,0:0:0:0:
288,192,59863,1,0,0:0:0:0:
480,192,59863,1,0,0:0:0:0:
160,192,59863,1,0,0:0:0:0:
416,192,59969,1,0,0:0:0:0:
224,192,59969,1,0,0:0:0:0:
96,192,59969,1,0,0:0:0:0:
32,192,59969,1,0,0:0:0:0:
352,192,59969,1,0,0:0:0:0:
160,192,60182,1,0,0:0:0:0:
288,192,60182,1,0,0:0:0:0:
224,192,60288,1,0,0:0:0:0:
416,192,60288,1,0,0:0:0:0:
96,192,60288,1,0,0:0:0:0:
352,192,60394,1,0,0:0:0:0:
160,192,60394,1,0,0:0:0:0:
32,192,60394,1,0,0:0:0:0:
288,192,60394,1,0,0:0:0:0:
224,192,60607,1,0,0:0:0:0:
352,192,60607,1,0,0:0:0:0:
480,192,60713,1,0,0:0:0:0:
160,192,60713,1,0,0:0:0:0:
288,192,60713,1,0,0:0:0:0:
352,192,60819,1,0,0:0:0:0:
416,192,60819,1,0,0:0:0:0:
224,192,60819,1,0,0:0:0:0:
96,192,60819,1,0,0:0:0:0:
32,192,60819,1,0,0:0:0:0:
160,192,61032,1,0,0:0:0:0:
352,192,61032,1,0,0:0:0:0:
96,192,61138,1,0,0:0:0:0:
416,192,61138,1,0,0:0:0:0:
224,192,61138,1,0,0:0:0:0:
480,192,61244,1,0,0:0:0:0:
288,192,61244,1,0,0:0:0:0:
160,192,61244,1,0,0:0:0:0:
32,192,61244,1,0,0:0:0:0:
352,192,61456,1,0,0:0:0:0:
224,192,61456,1,0,0:0:0:0:
160,192,61562,1,0,0:0:0:0:
480,192,61562,1,0,0:0:0:0:
288,192,61562,1,0,0:0:0:0:
32,192,61668,1,0,0:0:0:0:
352,192,61668,1,0,0:0:0:0:
224,192,61668,1,0,0:0:0:0:
96,192,61668,1,0,0:0:0:0:
416,192,61668,1,0,0:0:0:0:
352,192,61881,1,0,0:0:0:0:
160,192,61881,1,0,0:0:0:0:
96,192,61987,1,0,0:0:0:0:
224,192,61987,1,0,0:0:0:0:
416,192,61987,1,0,0:0:0:0:
160,192,62093,1,0,0:0:0:0:
288,192,62093,1,0,0:0:0:0:
32,192,62093,1,0,0:0:0:0:
480,192,62093,1,0,0:0:0:0:
480,192,62306,1,0,0:0:0:0:
352,192,62306,1,0,0:0:0:0:
224,192,62412,1,0,0:0:0:0:
416,192,62412,1,0,0:0:0:0:
288,192,62412,1,0,0:0:0:0:
352,192,62518,1,0,0:0:0:0:
160,192,62518,1,0,0:0:0:0:
96,192,62518,1,0,0:0:0:0:
32,192,62518,1,0,0:0:0:0:
480,192,62518,1,0,0:0:0:0:
224,192,62731,1,0,0:0:0:0:
480,192,62731,1,0,0:0:0:0:
96,192,62837,1,0,0:0:0:0:
288,192,62837,1,0,0:0:0:0:
416,192,62837,1,0,0:0:0:0:
224,192,62943,1,0,0:0:0:0:
160,192,62943,1,0,0:0:0:0:
352,192,62943,1,0,0:0:0:0:
32,192,62943,1,0,0:0:0:0:
480,192,62943,1,0,0:0:0:0:
352,192,63156,1,0,0:0:0:0:
480,192,63156,1,0,0:0:0:0:
288,192,63262,1,0,0:0:0:0:
416,192,63262,1,0,0:0:0:0:
224,192,63262,1,0,0:0:0:0:
480,192,63368,1,0,0:0:0:0:
160,192,63368,1,0,0:0:0:0:
32,192,63368,1,0,0:0:0:0:
96,192,63368,1,0,0:0:0:0:
352,192,63368,1,0,0:0:0:0:
480,192,63581,1,0,0:0:0:0:
224,192,63581,1,0,0:0:0:0:
288,192,63687,1,0,0:0:0:0:
416,192,63687,1,0,0:0:0:0:
96,192,63687,1,0,0:0:0:0:
32,192,63793,1,0,0:0:0:0:
480,192,63793,1,0,0:0:0:0:
352,192,63793,1,0,0:0:0:0:
224,192,63793,1,0,0:0:0:0:
160,192,63793,1,0,0:0:0:0:
224,192,64005,1,0,0:0:0:0:
352,192,64005,1,0,0:0:0:0:
480,192,64111,1,0,0:0:0:0:
160,192,64111,1,0,0:0:0:0:
288,192,64111,1,0,0:0:0:0:
352,192,64217,1,0,0:0:0:0:
224,192,64217,1,0,0:0:0:0:
416,192,64217,1,0,0:0:0:0:
96,192,64217,1,0,0:0:0:0:
32,192,64217,1,0,0:0:0:0:
160,192,64430,1,0,0:0:0:0:
352,192,64430,1,0,0:0:0:0:
96,192,64536,1,0,0:0:0:0:
224,192,64536,1,0,0:0:0:0:
416,192,64536,1,0,0:0:0:0:
480,192,64642,1,0,0:0:0:0:
160,192,64642,1,0,0:0:0:0:
32,192,64642,1,0,0:0:0:0:
288,192,64642,1,0,0:0:0:0:
352,192,64854,1,0,0:0:0:0:
224,192,64854,1,0,0:0:0:0:
480,192,64960,1,0,0:0:0:0:
160,192,64960,1,0,0:0:0:0:
288,192,64960,1,0,0:0:0:0:
96,192,65066,1,0,0:0:0:0:
416,192,65066,1,0,0:0:0:0:
352,192,65066,1,0,0:0:0:0:
224,192,65066,1,0,0:0:0:0:
32,192,65066,1,0,0:0:0:0:
352,192,65279,1,0,0:0:0:0:
160,192,65279,1,0,0:0:0:0:
96,192,65386,1,0,0:0:0:0:
224,192,65386,1,0,0:0:0:0:
416,192,65386,1,0,0:0:0:0:
288,192,65492,1,0,0:0:0:0:
480,192,65492,1,0,0:0:0:0:
32,192,65492,1,0,0:0:0:0:
160,192,65492,1,0,0:0:0:0:
224,192,65704,1,0,0:0:0:0:
96,192,65704,1,0,0:0:0:0:
288,192,65810,1,0,0:0:0:0:
480,192,65810,1,0,0:0:0:0:
160,192,65810,1,0,0:0:0:0:
32,192,65916,1,0,0:0:0:0:
96,192,65916,1,0,0:0:0:0:
224,192,65916,1,0,0:0:0:0:
352,192,65916,1,0,0:0:0:0:
416,192,65916,1,0,0:0:0:0:
288,192,66129,1,0,0:0:0:0:
160,192,66129,1,0,0:0:0:0:
224,192,66235,1,0,0:0:0:0:
416,192,66235,1,0,0:0:0:0:
96,192,66235,1,0,0:0:0:0:
32,192,66341,1,0,0:0:0:0:
160,192,66341,1,0,0:0:0:0:
288,192,66341,1,0,0:0:0:0:
352,192,66341,1,0,0:0:0:0:
224,192,66553,1,0,0:0:0:0:
96,192,66553,1,0,0:0:0:0:
160,192,66659,1,0,0:0:0:0:
480,192,66659,1,0,0:0:0:0:
288,192,66659,1,0,0:0:0:0:
32,192,66765,1,0,0:0:0:0:
352,192,66765,1,0,0:0:0:0:
96,192,66765,1,0,0:0:0:0:
416,192,66765,1,0,0:0:0:0:
224,192,66765,1,0,0:0:0:0:
288,192,66978,1,0,0:0:0:0:
160,192,66978,1,0,0:0:0:0:
96,192,67084,1,0,0:0:0:0:
416,192,67084,1,0,0:0:0:0:
224,192,67084,1,0,0:0:0:0:
32,192,67190,1,0,0:0:0:0:
288,192,67190,1,0,0:0:0:0:
352,192,67190,1,0,0:0:0:0:
160,192,67190,1,0,0:0:0:0:
352,192,67403,1,0,0:0:0:0:
224,192,67403,1,0,0:0:0:0:
288,192,67509,1,0,0:0:0:0:
160,192,67509,1,0,0:0:0:0:
480,192,67509,1,0,0:0:0:0:
96,192,67615,1,0,0:0:0:0:
32,192,67615,1,0,0:0:0:0:
224,192,67615,1,0,0:0:0:0:
352,192,67615,1,0,0:0:0:0:
416,192,67615,1,0,0:0:0:0:
352,192,67828,1,0,0:0:0:0:
160,192,67828,1,0,0:0:0:0:
224,192,67934,1,0,0:0:0:0:
416,192,67934,1,0,0:0:0:0:
96,192,67934,1,0,0:0:0:0:
160,192,68040,1,0,0:0:0:0:
32,192,68040,1,0,0:0:0:0:
480,192,68040,1,0,0:0:0:0:
288,192,68040,1,0,0:0:0:0:
224,192,68252,1,0,0:0:0:0:
352,192,68252,1,0,0:0:0:0:
288,192,68358,1,0,0:0:0:0:
480,192,68358,1,0,0:0:0:0:
160,192,68358,1,0,0:0:0:0:
96,192,68464,1,0,0:0:0:0:
416,192,68464,1,0,0:0:0:0:
224,192,68464,1,0,0:0:0:0:
32,192,68464,1,0,0:0:0:0:
352,192,68464,1,0,0:0:0:0:
160,192,68677,1,0,0:0:0:0:
352,192,68677,1,0,0:0:0:0:
416,192,68783,1,0,0:0:0:0:
224,192,68783,1,0,0:0:0:0:
96,192,68783,1,0,0:0:0:0:
32,192,68889,1,0,0:0:0:0:
480,192,68889,1,0,0:0:0:0:
160,192,68889,1,0,0:0:0:0:
288,192,68889,1,0,0:0:0:0:
352,192,69102,1,0,0:0:0:0:
480,192,69102,1,0,0:0:0:0:
288,192,69208,1,0,0:0:0:0:
416,192,69208,1,0,0:0:0:0:
224,192,69208,1,0,0:0:0:0:
32,192,69314,1,0,0:0:0:0:
480,192,69314,1,0,0:0:0:0:
96,192,69314,1,0,0:0:0:0:
352,192,69314,1,0,0:0:0:0:
160,192,69314,1,0,0:0:0:0:
480,192,69527,1,0,0:0:0:0:
224,192,69527,1,0,0:0:0:0:
416,192,69633,1,0,0:0:0:0:
288,192,69633,1,0,0:0:0:0:
96,192,69633,1,0,0:0:0:0:
32,192,69739,1,0,0:0:0:0:
480,192,69739,1,0,0:0:0:0:
352,192,69739,1,0,0:0:0:0:
224,192,69739,1,0,0:0:0:0:
160,192,69739,1,0,0:0:0:0:
480,192,69952,1,0,0:0:0:0:
352,192,69952,1,0,0:0:0:0:
224,192,70058,1,0,0:0:0:0:
416,192,70058,1,0,0:0:0:0:
288,192,70058,1,0,0:0:0:0:
96,192,70164,1,0,0:0:0:0:
352,192,70164,1,0,0:0:0:0:
32,192,70164,1,0,0:0:0:0:
480,192,70164,1,0,0:0:0:0:
160,192,70164,1,0,0:0:0:0:
224,192,70377,1,0,0:0:0:0:
480,192,70377,1,0,0:0:0:0:
96,192,70483,1,0,0:0:0:0:
416,192,70483,1,0,0:0:0:0:
288,192,70483,1,0,0:0:0:0:
224,192,70589,1,0,0:0:0:0:
160,192,70589,1,0,0:0:0:0:
352,192,70589,1,0,0:0:0:0:
32,192,70589,1,0,0:0:0:0:
480,192,70589,1,0,0:0:0:0:
352,192,70801,1,0,0:0:0:0:
224,192,70801,1,0,0:0:0:0:
288,192,70907,1,0,0:0:0:0:
160,192,70907,1,0,0:0:0:0:
480,192,70907,1,0,0:0:0:0:
96,192,71013,1,0,0:0:0:0:
32,192,71013,1,0,0:0:0:0:
416,192,71013,1,0,0:0:0:0:
352,192,71013,1,0,0:0:0:0:
224,192,71013,1,0,0:0:0:0:
352,192,71226,1,0,0:0:0:0:
160,192,71226,1,0,0:0:0:0:
416,192,71332,1,0,0:0:0:0:
224,192,71332,1,0,0:0:0:0:
96,192,71332,1,0,0:0:0:0:
32,192,71438,1,0,0:0:0:0:
288,192,71438,1,0,0:0:0:0:
480,192,71438,1,0,0:0:0:0:
160,192,71438,1,0,0:0:0:0:
224,192,71650,1,0,0:0:0:0:
352,192,71650,1,0,0:0:0:0:
288,192,71756,1,0,0:0:0:0:
160,192,71756,1,0,0:0:0:0:
480,192,71756,1,0,0:0:0:0:
224,192,71862,1,0,0:0:0:0:
32,192,71862,1,0,0:0:0:0:
352,192,71862,1,0,0:0:0:0:
96,192,71862,1,0,0:0:0:0:
416,192,71862,1,0,0:0:0:0:
352,192,72076,1,0,0:0:0:0:
160,192,72076,1,0,0:0:0:0:
416,192,72182,1,0,0:0:0:0:
224,192,72182,1,0,0:0:0:0:
96,192,72182,1,0,0:0:0:0:
32,192,72288,1,0,0:0:0:0:
480,192,72288,1,0,0:0:0:0:
160,192,72288,1,0,0:0:0:0:
288,192,72288,1,0,0:0:0:0:
96,192,72501,1,0,0:0:0:0:
224,192,72501,1,0,0:0:0:0:
160,192,72607,1,0,0:0:0:0:
480,192,72607,1,0,0:0:0:0:
288,192,72607,1,0,0:0:0:0:
352,192,72713,1,0,0:0:0:0:
416,192,72713,1,0,0:0:0:0:
224,192,72713,1,0,0:0:0:0:
32,192,72713,1,0,0:0:0:0:
96,192,72713,1,0,0:0:0:0:
160,192,72926,1,0,0:0:0:0:
288,192,72926,1,0,0:0:0:0:
96,192,73032,1,0,0:0:0:0:
416,192,73032,1,0,0:0:0:0:
224,192,73032,1,0,0:0:0:0:
288,192,73138,1,0,0:0:0:0:
352,192,73138,1,0,0:0:0:0:
32,192,73138,1,0,0:0:0:0:
160,192,73138,1,0,0:0:0:0:
96,192,73350,1,0,0:0:0:0:
224,192,73350,1,0,0:0:0:0:
288,192,73456,1,0,0:0:0:0:
480,192,73456,1,0,0:0:0:0:
160,192,73456,1,0,0:0:0:0:
416,192,73562,1,0,0:0:0:0:
224,192,73562,1,0,0:0:0:0:
96,192,73562,1,0,0:0:0:0:
32,192,73562,1,0,0:0:0:0:
352,192,73562,1,0,0:0:0:0:
160,192,73775,1,0,0:0:0:0:
288,192,73775,1,0,0:0:0:0:
224,192,73881,1,0,0:0:0:0:
416,192,73881,1,0,0:0:0:0:
96,192,73881,1,0,0:0:0:0:
352,192,73987,1,0,0:0:0:0:
160,192,73987,1,0,0:0:0:0:
32,192,73987,1,0,0:0:0:0:
288,192,73987,1,0,0:0:0:0:
96,192,74412,1,0,0:0:0:0:
32,192,74412,1,0,0:0:0:0:
32,192,74837,1,0,0:0:0:0:
288,192,75049,1,0,0:0:0:0:
160,192,75049,1,0,0:0:0:0:
416,192,75262,1,0,0:0:0:0:
288,192,75262,1,0,0:0:0:0:
32,192,75262,1,0,0:0:0:0:
96,192,75262,1,0,0:0:0:0:
288,192,75474,1,0,0:0:0:0:
160,192,75474,1,0,0:0:0:0:
352,192,75687,1,0,0:0:0:0:
416,192,75687,1,0,0:0:0:0:
288,192,75687,1,0,0:0:0:0:
32,192,75687,1,0,0:0:0:0:
96,192,75687,1,0,0:0:0:0:
224,192,75687,1,0,0:0:0:0:
480,192,76005,1,0,0:0:0:0:
224,192,76005,1,0,0:0:0:0:
288,192,76005,1,0,0:0:0:0:
416,192,76005,1,0,0:0:0:0:
352,192,76005,1,0,0:0:0:0:
352,192,76111,1,0,0:0:0:0:
224,192,76111,1,0,0:0:0:0:
480,192,76111,1,0,0:0:0:0:
32,192,76111,1,0,0:0:0:0:
96,192,76111,1,0,0:0:0:0:
288,192,76324,1,0,0:0:0:0:
224,192,76324,1,0,0:0:0:0:
352,192,76324,1,0,0:0:0:0:
160,192,76324,1,0,0:0:0:0:
480,192,76324,1,0,0:0:0:0:
352,192,76536,1,0,0:0:0:0:
224,192,76536,1,0,0:0:0:0:
32,192,76536,1,0,0:0:0:0:
288,192,76749,1,0,0:0:0:0:
160,192,76749,1,0,0:0:0:0:
480,192,76855,1,0,0:0:0:0:
224,192,76855,1,0,0:0:0:0:
352,192,76855,1,0,0:0:0:0:
480,192,76961,1,0,0:0:0:0:
224,192,76961,1,0,0:0:0:0:
352,192,76961,1,0,0:0:0:0:
288,192,76961,1,0,0:0:0:0:
32,192,76961,1,0,0:0:0:0:
96,192,76961,1,0,0:0:0:0:
416,192,76961,1,0,0:0:0:0:
352,192,77173,1,0,0:0:0:0:
224,192,77173,1,0,0:0:0:0:
480,192,77173,1,0,0:0:0:0:
160,192,77173,1,0,0:0:0:0:
288,192,77173,1,0,0:0:0:0:
224,192,77386,1,0,0:0:0:0:
288,192,77386,1,0,0:0:0:0:
352,192,77386,1,0,0:0:0:0:
32,192,77386,1,0,0:0:0:0:
416,192,77386,1,0,0:0:0:0:
224,192,77704,1,0,0:0:0:0:
480,192,77704,1,0,0:0:0:0:
160,192,77704,1,0,0:0:0:0:
288,192,77704,1,0,0:0:0:0:
352,192,77704,1,0,0:0:0:0:
224,192,77810,1,0,0:0:0:0:
352,192,77810,1,0,0:0:0:0:
480,192,77810,1,0,0:0:0:0:
32,192,77810,1,0,0:0:0:0:
96,192,77810,1,0,0:0:0:0:
352,192,78023,1,0,0:0:0:0:
224,192,78023,1,0,0:0:0:0:
480,192,78023,1,0,0:0:0:0:
160,192,78023,1,0,0:0:0:0:
416,192,78023,1,0,0:0:0:0:
224,192,78235,1,0,0:0:0:0:
352,192,78235,1,0,0:0:0:0:
32,192,78235,1,0,0:0:0:0:
416,192,78448,1,0,0:0:0:0:
288,192,78448,1,0,0:0:0:0:
480,192,78554,1,0,0:0:0:0:
224,192,78554,1,0,0:0:0:0:
352,192,78554,1,0,0:0:0:0:
480,192,78660,1,0,0:0:0:0:
224,192,78660,1,0,0:0:0:0:
352,192,78660,1,0,0:0:0:0:
288,192,78660,1,0,0:0:0:0:
32,192,78660,1,0,0:0:0:0:
96,192,78660,1,0,0:0:0:0:
160,192,78660,1,0,0:0:0:0:
416,192,78872,1,0,0:0:0:0:
224,192,78872,1,0,0:0:0:0:
352,192,78872,1,0,0:0:0:0:
288,192,78872,1,0,0:0:0:0:
480,192,78872,1,0,0:0:0:0:
224,192,79085,1,0,0:0:0:0:
416,192,79085,1,0,0:0:0:0:
352,192,79085,1,0,0:0:0:0:
32,192,79085,1,0,0:0:0:0:
288,192,79085,1,0,0:0:0:0:
224,192,79403,1,0,0:0:0:0:
480,192,79403,1,0,0:0:0:0:
288,192,79403,1,0,0:0:0:0:
416,192,79403,1,0,0:0:0:0:
352,192,79403,1,0,0:0:0:0:
224,192,79510,1,0,0:0:0:0:
352,192,79510,1,0,0:0:0:0:
480,192,79510,1,0,0:0:0:0:
32,192,79510,1,0,0:0:0:0:
96,192,79510,1,0,0:0:0:0:
288,192,79722,1,0,0:0:0:0:
224,192,79722,1,0,0:0:0:0:
352,192,79722,1,0,0:0:0:0:
416,192,79722,1,0,0:0:0:0:
480,192,79722,1,0,0:0:0:0:
224,192,79934,1,0,0:0:0:0:
352,192,79934,1,0,0:0:0:0:
32,192,79934,1,0,0:0:0:0:
160,192,80147,1,0,0:0:0:0:
288,192,80147,1,0,0:0:0:0:
480,192,80253,1,0,0:0:0:0:
224,192,80253,1,0,0:0:0:0:
352,192,80253,1,0,0:0:0:0:
480,192,80359,1,0,0:0:0:0:
224,192,80359,1,0,0:0:0:0:
352,192,80359,1,0,0:0:0:0:
288,192,80359,1,0,0:0:0:0:
416,192,80359,1,0,0:0:0:0:
32,192,80359,1,0,0:0:0:0:
96,192,80359,1,0,0:0:0:0:
160,192,80572,1,0,0:0:0:0:
224,192,80572,1,0,0:0:0:0:
352,192,80572,1,0,0:0:0:0:
288,192,80572,1,0,0:0:0:0:
480,192,80572,1,0,0:0:0:0:
352,192,80784,1,0,0:0:0:0:
224,192,80784,1,0,0:0:0:0:
32,192,80784,1,0,0:0:0:0:
160,192,80784,1,0,0:0:0:0:
416,192,80784,1,0,0:0:0:0:
224,192,81103,1,0,0:0:0:0:
480,192,81103,1,0,0:0:0:0:
160,192,81103,1,0,0:0:0:0:
288,192,81103,1,0,0:0:0:0:
352,192,81103,1,0,0:0:0:0:
224,192,81209,1,0,0:0:0:0:
352,192,81209,1,0,0:0:0:0:
480,192,81209,1,0,0:0:0:0:
32,192,81209,1,0,0:0:0:0:
96,192,81209,1,0,0:0:0:0:
288,192,81421,1,0,0:0:0:0:
224,192,81421,1,0,0:0:0:0:
352,192,81421,1,0,0:0:0:0:
416,192,81421,1,0,0:0:0:0:
480,192,81421,1,0,0:0:0:0:
224,192,81633,1,0,0:0:0:0:
352,192,81633,1,0,0:0:0:0:
32,192,81633,1,0,0:0:0:0:
288,192,81846,1,0,0:0:0:0:
160,192,81846,1,0,0:0:0:0:
96,192,82058,1,0,0:0:0:0:
288,192,82058,1,0,0:0:0:0:
416,192,82058,1,0,0:0:0:0:
32,192,82058,1,0,0:0:0:0:
480,192,82164,1,0,0:0:0:0:
224,192,82164,1,0,0:0:0:0:
352,192,82271,1,0,0:0:0:0:
96,192,82271,1,0,0:0:0:0:
160,192,82271,1,0,0:0:0:0:
288,192,82271,1,0,0:0:0:0:
480,192,82377,1,0,0:0:0:0:
352,192,82483,1,0,0:0:0:0:
416,192,82483,1,0,0:0:0:0:
288,192,82483,1,0,0:0:0:0:
32,192,82483,1,0,0:0:0:0:
96,192,82483,1,0,0:0:0:0:
224,192,82483,1,0,0:0:0:0:
416,192,82801,1,0,0:0:0:0:
224,192,82802,1,0,0:0:0:0:
480,192,82802,1,0,0:0:0:0:
352,192,82802,1,0,0:0:0:0:
288,192,82802,1,0,0:0:0:0:
96,192,82907,1,0,0:0:0:0:
32,192,82907,1,0,0:0:0:0:
352,192,82908,1,0,0:0:0:0:
224,192,82908,1,0,0:0:0:0:
480,192,82908,1,0,0:0:0:0:
288,192,83120,1,0,0:0:0:0:
224,192,83120,1,0,0:0:0:0:
352,192,83120,1,0,0:0:0:0:
160,192,83120,1,0,0:0:0:0:
480,192,83120,1,0,0:0:0:0:
352,192,83332,1,0,0:0:0:0:
224,192,83332,1,0,0:0:0:0:
32,192,83332,1,0,0:0:0:0:
288,192,83545,1,0,0:0:0:0:
160,192,83545,1,0,0:0:0:0:
480,192,83651,1,0,0:0:0:0:
224,192,83651,1,0,0:0:0:0:
352,192,83651,1,0,0:0:0:0:
480,192,83757,1,0,0:0:0:0:
224,192,83757,1,0,0:0:0:0:
352,192,83757,1,0,0:0:0:0:
288,192,83757,1,0,0:0:0:0:
32,192,83757,1,0,0:0:0:0:
96,192,83757,1,0,0:0:0:0:
416,192,83757,1,0,0:0:0:0:
480,192,83969,1,0,0:0:0:0:
288,192,83969,1,0,0:0:0:0:
160,192,83969,1,0,0:0:0:0:
224,192,83970,1,0,0:0:0:0:
352,192,83970,1,0,0:0:0:0:
224,192,84182,1,0,0:0:0:0:
288,192,84182,1,0,0:0:0:0:
352,192,84182,1,0,0:0:0:0:
32,192,84182,1,0,0:0:0:0:
416,192,84182,1,0,0:0:0:0:
288,192,84500,1,0,0:0:0:0:
224,192,84501,1,0,0:0:0:0:
480,192,84501,1,0,0:0:0:0:
352,192,84501,1,0,0:0:0:0:
160,192,84501,1,0,0:0:0:0:
96,192,84606,1,0,0:0:0:0:
32,192,84606,1,0,0:0:0:0:
352,192,84607,1,0,0:0:0:0:
224,192,84607,1,0,0:0:0:0:
480,192,84607,1,0,0:0:0:0:
352,192,84819,1,0,0:0:0:0:
224,192,84819,1,0,0:0:0:0:
480,192,84819,1,0,0:0:0:0:
160,192,84819,1,0,0:0:0:0:
416,192,84819,1,0,0:0:0:0:
224,192,85031,1,0,0:0:0:0:
352,192,85031,1,0,0:0:0:0:
32,192,85031,1,0,0:0:0:0:
416,192,85244,1,0,0:0:0:0:
288,192,85244,1,0,0:0:0:0:
480,192,85350,1,0,0:0:0:0:
224,192,85350,1,0,0:0:0:0:
352,192,85350,1,0,0:0:0:0:
480,192,85456,1,0,0:0:0:0:
224,192,85456,1,0,0:0:0:0:
352,192,85456,1,0,0:0:0:0:
288,192,85456,1,0,0:0:0:0:
32,192,85456,1,0,0:0:0:0:
96,192,85456,1,0,0:0:0:0:
160,192,85456,1,0,0:0:0:0:
480,192,85668,1,0,0:0:0:0:
288,192,85668,1,0,0:0:0:0:
224,192,85669,1,0,0:0:0:0:
416,192,85669,1,0,0:0:0:0:
352,192,85669,1,0,0:0:0:0:
224,192,85881,1,0,0:0:0:0:
416,192,85881,1,0,0:0:0:0:
352,192,85881,1,0,0:0:0:0:
32,192,85881,1,0,0:0:0:0:
288,192,85881,1,0,0:0:0:0:
416,192,86199,1,0,0:0:0:0:
224,192,86200,1,0,0:0:0:0:
480,192,86200,1,0,0:0:0:0:
352,192,86200,1,0,0:0:0:0:
288,192,86200,1,0,0:0:0:0:
224,192,86306,1,0,0:0:0:0:
352,192,86306,1,0,0:0:0:0:
480,192,86306,1,0,0:0:0:0:
32,192,86306,1,0,0:0:0:0:
96,192,86306,1,0,0:0:0:0:
288,192,86518,1,0,0:0:0:0:
224,192,86518,1,0,0:0:0:0:
352,192,86518,1,0,0:0:0:0:
416,192,86518,1,0,0:0:0:0:
480,192,86518,1,0,0:0:0:0:
224,192,86730,1,0,0:0:0:0:
352,192,86730,1,0,0:0:0:0:
32,192,86730,1,0,0:0:0:0:
160,192,86943,1,0,0:0:0:0:
288,192,86943,1,0,0:0:0:0:
480,192,87049,1,0,0:0:0:0:
224,192,87049,1,0,0:0:0:0:
352,192,87049,1,0,0:0:0:0:
96,192,87155,1,0,0:0:0:0:
32,192,87155,1,0,0:0:0:0:
416,192,87155,1,0,0:0:0:0:
224,192,87156,1,0,0:0:0:0:
352,192,87156,1,0,0:0:0:0:
288,192,87156,1,0,0:0:0:0:
480,192,87156,1,0,0:0:0:0:
160,192,87368,1,0,0:0:0:0:
224,192,87368,1,0,0:0:0:0:
352,192,87368,1,0,0:0:0:0:
288,192,87368,1,0,0:0:0:0:
480,192,87368,1,0,0:0:0:0:
352,192,87580,1,0,0:0:0:0:
224,192,87580,1,0,0:0:0:0:
32,192,87580,1,0,0:0:0:0:
160,192,87580,1,0,0:0:0:0:
416,192,87580,1,0,0:0:0:0:
224,192,87899,1,0,0:0:0:0:
480,192,87899,1,0,0:0:0:0:
160,192,87899,1,0,0:0:0:0:
288,192,87899,1,0,0:0:0:0:
352,192,87899,1,0,0:0:0:0:
224,192,88005,1,0,0:0:0:0:
352,192,88005,1,0,0:0:0:0:
480,192,88005,1,0,0:0:0:0:
32,192,88005,1,0,0:0:0:0:
96,192,88005,1,0,0:0:0:0:
480,192,88217,1,0,0:0:0:0:
416,192,88217,1,0,0:0:0:0:
224,192,88218,1,0,0:0:0:0:
288,192,88218,1,0,0:0:0:0:
352,192,88218,1,0,0:0:0:0:
32,192,88429,1,0,0:0:0:0:
96,192,88430,1,0,0:0:0:0:
160,192,88483,1,0,0:0:0:0:
224,192,88536,1,0,0:0:0:0:
288,192,88589,1,0,0:0:0:0:
480,192,88642,1,0,0:0:0:0:
416,192,88642,1,0,0:0:0:0:
352,192,88642,1,0,0:0:0:0:
96,192,88749,1,0,0:0:0:0:
160,192,88749,1,0,0:0:0:0:
224,192,88749,1,0,0:0:0:0:
480,192,88855,1,0,0:0:0:0:
416,192,88855,1,0,0:0:0:0:
352,192,88855,1,0,0:0:0:0:
96,192,88961,1,0,0:0:0:0:
160,192,88961,1,0,0:0:0:0:
224,192,88961,1,0,0:0:0:0:
480,192,89067,1,0,0:0:0:0:
416,192,89067,1,0,0:0:0:0:
352,192,89067,1,0,0:0:0:0:
160,192,89279,1,0,0:0:0:0:
288,192,89279,1,0,0:0:0:0:
224,192,89279,1,0,0:0:0:0:
32,192,89279,1,0,0:0:0:0:
352,192,89279,1,0,0:0:0:0:
480,192,89598,1,0,0:0:0:0:
224,192,89598,1,0,0:0:0:0:
352,192,89598,1,0,0:0:0:0:
480,192,89704,1,0,0:0:0:0:
224,192,89704,1,0,0:0:0:0:
352,192,89704,1,0,0:0:0:0:
160,192,89704,1,0,0:0:0:0:
32,192,89704,1,0,0:0:0:0:
96,192,89704,1,0,0:0:0:0:
416,192,89704,1,0,0:0:0:0:
96,192,89917,1,0,0:0:0:0:
224,192,89917,1,0,0:0:0:0:
416,192,89917,1,0,0:0:0:0:
160,192,89917,1,0,0:0:0:0:
480,192,90023,1,0,0:0:0:0:
352,192,90023,1,0,0:0:0:0:
416,192,90023,1,0,0:0:0:0:
160,192,90023,1,0,0:0:0:0:
352,192,90235,1,0,0:0:0:0:
480,192,90235,1,0,0:0:0:0:
416,192,90235,1,0,0:0:0:0:
160,192,90235,1,0,0:0:0:0:
224,192,90341,1,0,0:0:0:0:
96,192,90341,1,0,0:0:0:0:
416,192,90341,1,0,0:0:0:0:
160,192,90341,1,0,0:0:0:0:
480,192,90448,1,0,0:0:0:0:
352,192,90448,1,0,0:0:0:0:
96,192,90554,1,0,0:0:0:0:
288,192,90554,1,0,0:0:0:0:
416,192,90554,1,0,0:0:0:0:
32,192,90554,1,0,0:0:0:0:
416,192,90766,1,0,0:0:0:0:
224,192,90766,1,0,0:0:0:0:
160,192,90766,1,0,0:0:0:0:
352,192,90766,1,0,0:0:0:0:
480,192,90766,1,0,0:0:0:0:
160,192,90979,1,0,0:0:0:0:
288,192,90979,1,0,0:0:0:0:
224,192,90979,1,0,0:0:0:0:
32,192,90979,1,0,0:0:0:0:
352,192,90979,1,0,0:0:0:0:
480,192,91297,1,0,0:0:0:0:
224,192,91297,1,0,0:0:0:0:
352,192,91298,1,0,0:0:0:0:
352,192,91403,1,0,0:0:0:0:
224,192,91403,1,0,0:0:0:0:
480,192,91403,1,0,0:0:0:0:
416,192,91404,1,0,0:0:0:0:
160,192,91404,1,0,0:0:0:0:
32,192,91404,1,0,0:0:0:0:
96,192,91404,1,0,0:0:0:0:
160,192,91616,1,0,0:0:0:0:
224,192,91616,1,0,0:0:0:0:
416,192,91616,1,0,0:0:0:0:
96,192,91616,1,0,0:0:0:0:
160,192,91722,1,0,0:0:0:0:
352,192,91722,1,0,0:0:0:0:
480,192,91722,1,0,0:0:0:0:
416,192,91722,1,0,0:0:0:0:
416,192,91934,1,0,0:0:0:0:
480,192,91934,1,0,0:0:0:0:
352,192,91934,1,0,0:0:0:0:
160,192,91934,1,0,0:0:0:0:
224,192,92040,1,0,0:0:0:0:
416,192,92040,1,0,0:0:0:0:
160,192,92040,1,0,0:0:0:0:
96,192,92041,1,0,0:0:0:0:
480,192,92147,1,0,0:0:0:0:
352,192,92147,1,0,0:0:0:0:
96,192,92254,1,0,0:0:0:0:
288,192,92254,1,0,0:0:0:0:
416,192,92254,1,0,0:0:0:0:
32,192,92254,1,0,0:0:0:0:
224,192,92465,1,0,0:0:0:0:
160,192,92466,1,0,0:0:0:0:
416,192,92466,1,0,0:0:0:0:
352,192,92466,1,0,0:0:0:0:
480,192,92466,1,0,0:0:0:0:
288,192,92678,1,0,0:0:0:0:
416,192,92678,1,0,0:0:0:0:
32,192,92678,1,0,0:0:0:0:
352,192,92678,1,0,0:0:0:0:
224,192,92678,1,0,0:0:0:0:
480,192,92996,1,0,0:0:0:0:
224,192,92996,1,0,0:0:0:0:
352,192,92997,1,0,0:0:0:0:
480,192,93103,1,0,0:0:0:0:
224,192,93103,1,0,0:0:0:0:
352,192,93103,1,0,0:0:0:0:
96,192,93103,1,0,0:0:0:0:
416,192,93103,1,0,0:0:0:0:
160,192,93103,1,0,0:0:0:0:
32,192,93103,1,0,0:0:0:0:
416,192,93315,1,0,0:0:0:0:
224,192,93315,1,0,0:0:0:0:
160,192,93315,1,0,0:0:0:0:
96,192,93315,1,0,0:0:0:0:
480,192,93421,1,0,0:0:0:0:
352,192,93421,1,0,0:0:0:0:
160,192,93421,1,0,0:0:0:0:
416,192,93421,1,0,0:0:0:0:
352,192,93633,1,0,0:0:0:0:
480,192,93633,1,0,0:0:0:0:
416,192,93633,1,0,0:0:0:0:
160,192,93633,1,0,0:0:0:0:
160,192,93739,1,0,0:0:0:0:
416,192,93739,1,0,0:0:0:0:
224,192,93739,1,0,0:0:0:0:
96,192,93740,1,0,0:0:0:0:
352,192,93847,1,0,0:0:0:0:
480,192,93847,1,0,0:0:0:0:
416,192,93953,1,0,0:0:0:0:
32,192,93953,1,0,0:0:0:0:
96,192,93953,1,0,0:0:0:0:
288,192,93953,1,0,0:0:0:0:
224,192,94164,1,0,0:0:0:0:
416,192,94164,1,0,0:0:0:0:
160,192,94164,1,0,0:0:0:0:
480,192,94165,1,0,0:0:0:0:
352,192,94165,1,0,0:0:0:0:
224,192,94377,1,0,0:0:0:0:
352,192,94377,1,0,0:0:0:0:
32,192,94377,1,0,0:0:0:0:
480,192,94695,1,0,0:0:0:0:
224,192,94695,1,0,0:0:0:0:
352,192,94696,1,0,0:0:0:0:
480,192,94802,1,0,0:0:0:0:
224,192,94802,1,0,0:0:0:0:
352,192,94802,1,0,0:0:0:0:
160,192,94802,1,0,0:0:0:0:
32,192,94802,1,0,0:0:0:0:
96,192,94802,1,0,0:0:0:0:
416,192,94802,1,0,0:0:0:0:
160,192,95014,1,0,0:0:0:0:
224,192,95014,1,0,0:0:0:0:
416,192,95014,1,0,0:0:0:0:
96,192,95014,1,0,0:0:0:0:
160,192,95120,1,0,0:0:0:0:
352,192,95120,1,0,0:0:0:0:
480,192,95120,1,0,0:0:0:0:
416,192,95120,1,0,0:0:0:0:
416,192,95332,1,0,0:0:0:0:
160,192,95332,1,0,0:0:0:0:
352,192,95332,1,0,0:0:0:0:
480,192,95333,1,0,0:0:0:0:
224,192,95438,1,0,0:0:0:0:
416,192,95438,1,0,0:0:0:0:
160,192,95438,1,0,0:0:0:0:
96,192,95439,1,0,0:0:0:0:
480,192,95545,1,0,0:0:0:0:
352,192,95545,1,0,0:0:0:0:
96,192,95651,1,0,0:0:0:0:
416,192,95651,1,0,0:0:0:0:
160,192,95651,1,0,0:0:0:0:
32,192,95652,1,0,0:0:0:0:
224,192,95757,1,0,0:0:0:0:
288,192,95864,1,0,0:0:0:0:
416,192,95864,1,0,0:0:0:0:
352,192,95864,1,0,0:0:0:0:
480,192,95970,1,0,0:0:0:0:
160,192,96076,1,0,0:0:0:0:
288,192,96076,1,0,0:0:0:0:
224,192,96076,1,0,0:0:0:0:
32,192,96076,1,0,0:0:0:0:
352,192,96076,1,0,0:0:0:0:
480,192,96395,1,0,0:0:0:0:
224,192,96395,1,0,0:0:0:0:
352,192,96395,1,0,0:0:0:0:
480,192,96501,1,0,0:0:0:0:
224,192,96501,1,0,0:0:0:0:
352,192,96501,1,0,0:0:0:0:
160,192,96501,1,0,0:0:0:0:
32,192,96501,1,0,0:0:0:0:
96,192,96501,1,0,0:0:0:0:
416,192,96501,1,0,0:0:0:0:
416,192,96713,1,0,0:0:0:0:
224,192,96713,1,0,0:0:0:0:
160,192,96713,1,0,0:0:0:0:
96,192,96713,1,0,0:0:0:0:
480,192,96819,1,0,0:0:0:0:
352,192,96819,1,0,0:0:0:0:
160,192,96819,1,0,0:0:0:0:
416,192,96819,1,0,0:0:0:0:
352,192,97031,1,0,0:0:0:0:
160,192,97031,1,0,0:0:0:0:
416,192,97031,1,0,0:0:0:0:
480,192,97032,1,0,0:0:0:0:
160,192,97137,1,0,0:0:0:0:
416,192,97137,1,0,0:0:0:0:
224,192,97137,1,0,0:0:0:0:
96,192,97138,1,0,0:0:0:0:
480,192,97245,1,0,0:0:0:0:
352,192,97245,1,0,0:0:0:0:
96,192,97351,1,0,0:0:0:0:
288,192,97351,1,0,0:0:0:0:
416,192,97351,1,0,0:0:0:0:
32,192,97351,1,0,0:0:0:0:
416,192,97563,1,0,0:0:0:0:
224,192,97563,1,0,0:0:0:0:
160,192,97563,1,0,0:0:0:0:
352,192,97563,1,0,0:0:0:0:
480,192,97563,1,0,0:0:0:0:
160,192,97776,1,0,0:0:0:0:
288,192,97776,1,0,0:0:0:0:
224,192,97776,1,0,0:0:0:0:
32,192,97776,1,0,0:0:0:0:
352,192,97776,1,0,0:0:0:0:
480,192,98094,1,0,0:0:0:0:
224,192,98094,1,0,0:0:0:0:
352,192,98095,1,0,0:0:0:0:
352,192,98200,1,0,0:0:0:0:
224,192,98200,1,0,0:0:0:0:
480,192,98200,1,0,0:0:0:0:
416,192,98201,1,0,0:0:0:0:
160,192,98201,1,0,0:0:0:0:
32,192,98201,1,0,0:0:0:0:
96,192,98201,1,0,0:0:0:0:
160,192,98412,1,0,0:0:0:0:
224,192,98412,1,0,0:0:0:0:
416,192,98412,1,0,0:0:0:0:
96,192,98412,1,0,0:0:0:0:
160,192,98518,1,0,0:0:0:0:
352,192,98518,1,0,0:0:0:0:
480,192,98518,1,0,0:0:0:0:
416,192,98518,1,0,0:0:0:0:
416,192,98730,1,0,0:0:0:0:
160,192,98730,1,0,0:0:0:0:
352,192,98730,1,0,0:0:0:0:
480,192,98731,1,0,0:0:0:0:
224,192,98836,1,0,0:0:0:0:
416,192,98836,1,0,0:0:0:0:
160,192,98836,1,0,0:0:0:0:
96,192,98837,1,0,0:0:0:0:
480,192,98943,1,0,0:0:0:0:
352,192,98945,1,0,0:0:0:0:
96,192,99051,1,0,0:0:0:0:
288,192,99051,1,0,0:0:0:0:
416,192,99051,1,0,0:0:0:0:
32,192,99051,1,0,0:0:0:0:
224,192,99262,1,0,0:0:0:0:
160,192,99263,1,0,0:0:0:0:
416,192,99263,1,0,0:0:0:0:
352,192,99263,1,0,0:0:0:0:
480,192,99263,1,0,0:0:0:0:
288,192,99475,1,0,0:0:0:0:
416,192,99475,1,0,0:0:0:0:
32,192,99475,1,0,0:0:0:0:
352,192,99475,1,0,0:0:0:0:
224,192,99475,1,0,0:0:0:0:
480,192,99793,1,0,0:0:0:0:
224,192,99793,1,0,0:0:0:0:
352,192,99794,1,0,0:0:0:0:
352,192,99899,1,0,0:0:0:0:
224,192,99899,1,0,0:0:0:0:
480,192,99899,1,0,0:0:0:0:
32,192,99900,1,0,0:0:0:0:
96,192,99900,1,0,0:0:0:0:
416,192,99900,1,0,0:0:0:0:
160,192,99900,1,0,0:0:0:0:
416,192,100111,1,0,0:0:0:0:
224,192,100111,1,0,0:0:0:0:
160,192,100111,1,0,0:0:0:0:
96,192,100111,1,0,0:0:0:0:
480,192,100217,1,0,0:0:0:0:
416,192,100217,1,0,0:0:0:0:
160,192,100217,1,0,0:0:0:0:
352,192,100218,1,0,0:0:0:0:
352,192,100429,1,0,0:0:0:0:
160,192,100429,1,0,0:0:0:0:
416,192,100429,1,0,0:0:0:0:
480,192,100430,1,0,0:0:0:0:
160,192,100535,1,0,0:0:0:0:
416,192,100535,1,0,0:0:0:0:
224,192,100535,1,0,0:0:0:0:
96,192,100536,1,0,0:0:0:0:
352,192,100644,1,0,0:0:0:0:
480,192,100644,1,0,0:0:0:0:
416,192,100750,1,0,0:0:0:0:
32,192,100750,1,0,0:0:0:0:
96,192,100750,1,0,0:0:0:0:
288,192,100750,1,0,0:0:0:0:
224,192,100961,1,0,0:0:0:0:
416,192,100961,1,0,0:0:0:0:
160,192,100961,1,0,0:0:0:0:
480,192,100962,1,0,0:0:0:0:
352,192,100962,1,0,0:0:0:0:
224,192,101174,1,0,0:0:0:0:
352,192,101174,1,0,0:0:0:0:
32,192,101174,1,0,0:0:0:0:
480,192,101492,1,0,0:0:0:0:
224,192,101492,1,0,0:0:0:0:
352,192,101493,1,0,0:0:0:0:
352,192,101598,1,0,0:0:0:0:
224,192,101598,1,0,0:0:0:0:
480,192,101598,1,0,0:0:0:0:
416,192,101599,1,0,0:0:0:0:
160,192,101599,1,0,0:0:0:0:
32,192,101599,1,0,0:0:0:0:
96,192,101599,1,0,0:0:0:0:
160,192,101810,1,0,0:0:0:0:
224,192,101810,1,0,0:0:0:0:
416,192,101810,1,0,0:0:0:0:
96,192,101810,1,0,0:0:0:0:
160,192,101916,1,0,0:0:0:0:
416,192,101916,1,0,0:0:0:0:
480,192,101916,1,0,0:0:0:0:
352,192,101917,1,0,0:0:0:0:
416,192,102128,1,0,0:0:0:0:
160,192,102128,1,0,0:0:0:0:
352,192,102128,1,0,0:0:0:0:
480,192,102129,1,0,0:0:0:0:
224,192,102234,1,0,0:0:0:0:
416,192,102234,1,0,0:0:0:0:
160,192,102234,1,0,0:0:0:0:
96,192,102235,1,0,0:0:0:0:
480,192,102341,1,0,0:0:0:0:
352,192,102341,1,0,0:0:0:0:
160,192,102448,1,0,0:0:0:0:
32,192,102448,1,0,0:0:0:0:
416,192,102448,1,0,0:0:0:0:
96,192,102448,1,0,0:0:0:0:
224,192,102554,1,0,0:0:0:0:
416,192,102660,1,0,0:0:0:0:
288,192,102661,1,0,0:0:0:0:
352,192,102661,1,0,0:0:0:0:
480,192,102766,1,0,0:0:0:0:
32,192,102872,1,0,0:0:0:0:
224,192,103085,1,0,0:0:0:0:
96,192,103085,1,0,0:0:0:0:
288,192,103191,1,0,0:0:0:0:
480,192,103191,1,0,0:0:0:0:
160,192,103191,1,0,0:0:0:0:
32,192,103297,1,0,0:0:0:0:
224,192,103297,1,0,0:0:0:0:
352,192,103297,1,0,0:0:0:0:
416,192,103297,1,0,0:0:0:0:
224,192,103510,1,0,0:0:0:0:
352,192,103510,1,0,0:0:0:0:
416,192,103510,1,0,0:0:0:0:
32,192,103722,1,0,0:0:0:0:
224,192,103934,1,0,0:0:0:0:
96,192,103934,1,0,0:0:0:0:
160,192,104040,1,0,0:0:0:0:
480,192,104040,1,0,0:0:0:0:
288,192,104040,1,0,0:0:0:0:
32,192,104146,1,0,0:0:0:0:
352,192,104146,1,0,0:0:0:0:
416,192,104146,1,0,0:0:0:0:
224,192,104146,1,0,0:0:0:0:
224,192,104359,1,0,0:0:0:0:
352,192,104359,1,0,0:0:0:0:
416,192,104359,1,0,0:0:0:0:
32,192,104571,1,0,0:0:0:0:
352,192,104784,1,0,0:0:0:0:
224,192,104784,1,0,0:0:0:0:
288,192,104890,1,0,0:0:0:0:
160,192,104890,1,0,0:0:0:0:
480,192,104890,1,0,0:0:0:0:
32,192,104996,1,0,0:0:0:0:
224,192,104996,1,0,0:0:0:0:
352,192,104996,1,0,0:0:0:0:
416,192,104996,1,0,0:0:0:0:
352,192,105209,1,0,0:0:0:0:
224,192,105209,1,0,0:0:0:0:
416,192,105209,1,0,0:0:0:0:
32,192,105421,1,0,0:0:0:0:
224,192,105633,1,0,0:0:0:0:
352,192,105633,1,0,0:0:0:0:
288,192,105739,1,0,0:0:0:0:
480,192,105739,1,0,0:0:0:0:
160,192,105739,1,0,0:0:0:0:
416,192,105845,1,0,0:0:0:0:
224,192,105845,1,0,0:0:0:0:
32,192,105845,1,0,0:0:0:0:
352,192,105845,1,0,0:0:0:0:
352,192,106058,1,0,0:0:0:0:
224,192,106058,1,0,0:0:0:0:
416,192,106058,1,0,0:0:0:0:
32,192,106270,1,0,0:0:0:0:
352,192,106483,1,0,0:0:0:0:
480,192,106483,1,0,0:0:0:0:
288,192,106589,1,0,0:0:0:0:
416,192,106589,1,0,0:0:0:0:
224,192,106589,1,0,0:0:0:0:
32,192,106695,1,0,0:0:0:0:
480,192,106695,1,0,0:0:0:0:
352,192,106695,1,0,0:0:0:0:
160,192,106695,1,0,0:0:0:0:
480,192,106908,1,0,0:0:0:0:
160,192,106908,1,0,0:0:0:0:
352,192,106908,1,0,0:0:0:0:
32,192,107120,1,0,0:0:0:0:
480,192,107333,1,0,0:0:0:0:
352,192,107333,1,0,0:0:0:0:
224,192,107439,1,0,0:0:0:0:
416,192,107439,1,0,0:0:0:0:
288,192,107439,1,0,0:0:0:0:
352,192,107545,1,0,0:0:0:0:
32,192,107545,1,0,0:0:0:0:
480,192,107545,1,0,0:0:0:0:
160,192,107545,1,0,0:0:0:0:
160,192,107757,1,0,0:0:0:0:
352,192,107757,1,0,0:0:0:0:
480,192,107758,1,0,0:0:0:0:
32,192,107970,1,0,0:0:0:0:
352,192,108182,1,0,0:0:0:0:
224,192,108182,1,0,0:0:0:0:
288,192,108288,1,0,0:0:0:0:
160,192,108288,1,0,0:0:0:0:
480,192,108288,1,0,0:0:0:0:
32,192,108394,1,0,0:0:0:0:
416,192,108394,1,0,0:0:0:0:
352,192,108394,1,0,0:0:0:0:
224,192,108394,1,0,0:0:0:0:
352,192,108607,1,0,0:0:0:0:
224,192,108607,1,0,0:0:0:0:
416,192,108607,1,0,0:0:0:0:
32,192,108819,1,0,0:0:0:0:
224,192,109031,1,0,0:0:0:0:
352,192,109031,1,0,0:0:0:0:
288,192,109137,1,0,0:0:0:0:
160,192,109137,1,0,0:0:0:0:
480,192,109137,1,0,0:0:0:0:
224,192,109243,1,0,0:0:0:0:
32,192,109243,1,0,0:0:0:0:
352,192,109243,1,0,0:0:0:0:
416,192,109243,1,0,0:0:0:0:
352,192,109456,1,0,0:0:0:0:
224,192,109456,1,0,0:0:0:0:
416,192,109456,1,0,0:0:0:0:
32,192,109669,1,0,0:0:0:0:
96,192,109881,1,0,0:0:0:0:
224,192,109881,1,0,0:0:0:0:
160,192,109987,1,0,0:0:0:0:
480,192,109987,1,0,0:0:0:0:
288,192,109987,1,0,0:0:0:0:
352,192,110093,1,0,0:0:0:0:
416,192,110093,1,0,0:0:0:0:
224,192,110093,1,0,0:0:0:0:
32,192,110093,1,0,0:0:0:0:
96,192,110093,1,0,0:0:0:0:
160,192,110306,1,0,0:0:0:0:
288,192,110306,1,0,0:0:0:0:
96,192,110412,1,0,0:0:0:0:
416,192,110412,1,0,0:0:0:0:
224,192,110412,1,0,0:0:0:0:
288,192,110518,1,0,0:0:0:0:
352,192,110518,1,0,0:0:0:0:
32,192,110518,1,0,0:0:0:0:
160,192,110518,1,0,0:0:0:0:
96,192,110730,1,0,0:0:0:0:
224,192,110730,1,0,0:0:0:0:
288,192,110836,1,0,0:0:0:0:
480,192,110836,1,0,0:0:0:0:
160,192,110836,1,0,0:0:0:0:
416,192,110942,1,0,0:0:0:0:
224,192,110942,1,0,0:0:0:0:
96,192,110942,1,0,0:0:0:0:
32,192,110942,1,0,0:0:0:0:
352,192,110942,1,0,0:0:0:0:
160,192,111155,1,0,0:0:0:0:
288,192,111155,1,0,0:0:0:0:
224,192,111261,1,0,0:0:0:0:
416,192,111261,1,0,0:0:0:0:
96,192,111261,1,0,0:0:0:0:
352,192,111367,1,0,0:0:0:0:
160,192,111367,1,0,0:0:0:0:
32,192,111367,1,0,0:0:0:0:
288,192,111367,1,0,0:0:0:0:
224,192,111580,1,0,0:0:0:0:
352,192,111580,1,0,0:0:0:0:
480,192,111686,1,0,0:0:0:0:
160,192,111686,1,0,0:0:0:0:
288,192,111686,1,0,0:0:0:0:
352,192,111792,1,0,0:0:0:0:
416,192,111792,1,0,0:0:0:0:
224,192,111792,1,0,0:0:0:0:
96,192,111792,1,0,0:0:0:0:
32,192,111792,1,0,0:0:0:0:
160,192,112005,1,0,0:0:0:0:
352,192,112005,1,0,0:0:0:0:
96,192,112111,1,0,0:0:0:0:
416,192,112111,1,0,0:0:0:0:
224,192,112111,1,0,0:0:0:0:
480,192,112217,1,0,0:0:0:0:
288,192,112217,1,0,0:0:0:0:
160,192,112217,1,0,0:0:0:0:
32,192,112217,1,0,0:0:0:0:
352,192,112429,1,0,0:0:0:0:
224,192,112429,1,0,0:0:0:0:
160,192,112535,1,0,0:0:0:0:
480,192,112535,1,0,0:0:0:0:
288,192,112535,1,0,0:0:0:0:
32,192,112641,1,0,0:0:0:0:
352,192,112641,1,0,0:0:0:0:
224,192,112641,1,0,0:0:0:0:
96,192,112641,1,0,0:0:0:0:
416,192,112641,1,0,0:0:0:0:
352,192,112854,1,0,0:0:0:0:
160,192,112854,1,0,0:0:0:0:
96,192,112960,1,0,0:0:0:0:
224,192,112960,1,0,0:0:0:0:
416,192,112960,1,0,0:0:0:0:
160,192,113066,1,0,0:0:0:0:
288,192,113066,1,0,0:0:0:0:
32,192,113066,1,0,0:0:0:0:
480,192,113066,1,0,0:0:0:0:
480,192,113279,1,0,0:0:0:0:
352,192,113279,1,0,0:0:0:0:
224,192,113385,1,0,0:0:0:0:
416,192,113385,1,0,0:0:0:0:
288,192,113385,1,0,0:0:0:0:
352,192,113491,1,0,0:0:0:0:
160,192,113491,1,0,0:0:0:0:
96,192,113491,1,0,0:0:0:0:
32,192,113491,1,0,0:0:0:0:
480,192,113491,1,0,0:0:0:0:
224,192,113704,1,0,0:0:0:0:
480,192,113704,1,0,0:0:0:0:
96,192,113810,1,0,0:0:0:0:
288,192,113810,1,0,0:0:0:0:
416,192,113810,1,0,0:0:0:0:
224,192,113916,1,0,0:0:0:0:
160,192,113916,1,0,0:0:0:0:
352,192,113916,1,0,0:0:0:0:
32,192,113916,1,0,0:0:0:0:
480,192,113916,1,0,0:0:0:0:
352,192,114129,1,0,0:0:0:0:
480,192,114129,1,0,0:0:0:0:
288,192,114235,1,0,0:0:0:0:
416,192,114235,1,0,0:0:0:0:
224,192,114235,1,0,0:0:0:0:
480,192,114341,1,0,0:0:0:0:
160,192,114341,1,0,0:0:0:0:
32,192,114341,1,0,0:0:0:0:
96,192,114341,1,0,0:0:0:0:
352,192,114341,1,0,0:0:0:0:
480,192,114554,1,0,0:0:0:0:
224,192,114554,1,0,0:0:0:0:
288,192,114660,1,0,0:0:0:0:
416,192,114660,1,0,0:0:0:0:
96,192,114660,1,0,0:0:0:0:
32,192,114766,1,0,0:0:0:0:
480,192,114766,1,0,0:0:0:0:
352,192,114766,1,0,0:0:0:0:
224,192,114766,1,0,0:0:0:0:
160,192,114766,1,0,0:0:0:0:
224,192,114978,1,0,0:0:0:0:
352,192,114978,1,0,0:0:0:0:
480,192,115084,1,0,0:0:0:0:
160,192,115084,1,0,0:0:0:0:
288,192,115084,1,0,0:0:0:0:
352,192,115190,1,0,0:0:0:0:
224,192,115190,1,0,0:0:0:0:
416,192,115190,1,0,0:0:0:0:
96,192,115190,1,0,0:0:0:0:
32,192,115190,1,0,0:0:0:0:
160,192,115403,1,0,0:0:0:0:
352,192,115403,1,0,0:0:0:0:
96,192,115509,1,0,0:0:0:0:
224,192,115509,1,0,0:0:0:0:
416,192,115509,1,0,0:0:0:0:
480,192,115615,1,0,0:0:0:0:
160,192,115615,1,0,0:0:0:0:
32,192,115615,1,0,0:0:0:0:
288,192,115615,1,0,0:0:0:0:
352,192,115827,1,0,0:0:0:0:
224,192,115827,1,0,0:0:0:0:
480,192,115933,1,0,0:0:0:0:
160,192,115933,1,0,0:0:0:0:
288,192,115933,1,0,0:0:0:0:
96,192,116039,1,0,0:0:0:0:
416,192,116039,1,0,0:0:0:0:
352,192,116039,1,0,0:0:0:0:
224,192,116039,1,0,0:0:0:0:
32,192,116039,1,0,0:0:0:0:
160,192,116253,1,0,0:0:0:0:
352,192,116253,1,0,0:0:0:0:
96,192,116359,1,0,0:0:0:0:
224,192,116359,1,0,0:0:0:0:
416,192,116359,1,0,0:0:0:0:
160,192,116465,1,0,0:0:0:0:
288,192,116465,1,0,0:0:0:0:
32,192,116465,1,0,0:0:0:0:
480,192,116465,1,0,0:0:0:0:
224,192,116678,1,0,0:0:0:0:
96,192,116678,1,0,0:0:0:0:
288,192,116784,1,0,0:0:0:0:
480,192,116784,1,0,0:0:0:0:
160,192,116784,1,0,0:0:0:0:
32,192,116890,1,0,0:0:0:0:
96,192,116890,1,0,0:0:0:0:
224,192,116890,1,0,0:0:0:0:
352,192,116890,1,0,0:0:0:0:
416,192,116890,1,0,0:0:0:0:
288,192,117103,1,0,0:0:0:0:
160,192,117103,1,0,0:0:0:0:
224,192,117209,1,0,0:0:0:0:
416,192,117209,1,0,0:0:0:0:
96,192,117209,1,0,0:0:0:0:
32,192,117315,1,0,0:0:0:0:
160,192,117315,1,0,0:0:0:0:
288,192,117315,1,0,0:0:0:0:
352,192,117315,1,0,0:0:0:0:
224,192,117527,1,0,0:0:0:0:
96,192,117527,1,0,0:0:0:0:
160,192,117633,1,0,0:0:0:0:
480,192,117633,1,0,0:0:0:0:
288,192,117633,1,0,0:0:0:0:
32,192,117739,1,0,0:0:0:0:
352,192,117739,1,0,0:0:0:0:
96,192,117739,1,0,0:0:0:0:
416,192,117739,1,0,0:0:0:0:
224,192,117739,1,0,0:0:0:0:
288,192,117952,1,0,0:0:0:0:
160,192,117952,1,0,0:0:0:0:
96,192,118058,1,0,0:0:0:0:
416,192,118058,1,0,0:0:0:0:
224,192,118058,1,0,0:0:0:0:
32,192,118164,1,0,0:0:0:0:
288,192,118164,1,0,0:0:0:0:
352,192,118164,1,0,0:0:0:0:
160,192,118164,1,0,0:0:0:0:
32,192,118589,1,0,0:0:0:0:
96,192,118589,1,0,0:0:0:0:
32,192,119014,1,0,0:0:0:0:
160,192,119226,1,0,0:0:0:0:
288,192,119226,1,0,0:0:0:0:
32,192,119439,1,0,0:0:0:0:
96,192,119439,1,0,0:0:0:0:
416,192,119439,1,0,0:0:0:0:
288,192,119439,1,0,0:0:0:0:
160,192,119651,1,0,0:0:0:0:
288,192,119651,1,0,0:0:0:0:
32,192,119864,1,0,0:0:0:0:
96,192,119864,1,0,0:0:0:0:
224,192,119864,1,0,0:0:0:0:
352,192,119864,1,0,0:0:0:0:
416,192,119864,1,0,0:0:0:0:
288,192,119864,1,0,0:0:0:0:
416,192,120182,1,0,0:0:0:0:
352,192,120182,1,0,0:0:0:0:
288,192,120182,1,0,0:0:0:0:
480,192,120182,1,0,0:0:0:0:
224,192,120182,1,0,0:0:0:0:
32,192,120288,1,0,0:0:0:0:
96,192,120288,1,0,0:0:0:0:
480,192,120288,1,0,0:0:0:0:
352,192,120288,1,0,0:0:0:0:
224,192,120288,1,0,0:0:0:0:
160,192,120501,1,0,0:0:0:0:
480,192,120501,1,0,0:0:0:0:
352,192,120501,1,0,0:0:0:0:
288,192,120501,1,0,0:0:0:0:
224,192,120501,1,0,0:0:0:0:
32,192,120713,1,0,0:0:0:0:
224,192,120713,1,0,0:0:0:0:
352,192,120713,1,0,0:0:0:0:
160,192,120926,1,0,0:0:0:0:
288,192,120926,1,0,0:0:0:0:
352,192,121032,1,0,0:0:0:0:
224,192,121032,1,0,0:0:0:0:
480,192,121032,1,0,0:0:0:0:
32,192,121138,1,0,0:0:0:0:
96,192,121138,1,0,0:0:0:0:
416,192,121138,1,0,0:0:0:0:
288,192,121138,1,0,0:0:0:0:
480,192,121138,1,0,0:0:0:0:
224,192,121138,1,0,0:0:0:0:
352,192,121138,1,0,0:0:0:0:
160,192,121350,1,0,0:0:0:0:
288,192,121350,1,0,0:0:0:0:
480,192,121350,1,0,0:0:0:0:
352,192,121350,1,0,0:0:0:0:
224,192,121350,1,0,0:0:0:0:
32,192,121563,1,0,0:0:0:0:
416,192,121563,1,0,0:0:0:0:
352,192,121563,1,0,0:0:0:0:
224,192,121563,1,0,0:0:0:0:
288,192,121563,1,0,0:0:0:0:
288,192,121881,1,0,0:0:0:0:
352,192,121881,1,0,0:0:0:0:
160,192,121881,1,0,0:0:0:0:
224,192,121881,1,0,0:0:0:0:
480,192,121881,1,0,0:0:0:0:
32,192,121987,1,0,0:0:0:0:
96,192,121987,1,0,0:0:0:0:
480,192,121987,1,0,0:0:0:0:
224,192,121987,1,0,0:0:0:0:
352,192,121987,1,0,0:0:0:0:
160,192,122200,1,0,0:0:0:0:
416,192,122200,1,0,0:0:0:0:
480,192,122200,1,0,0:0:0:0:
352,192,122200,1,0,0:0:0:0:
224,192,122200,1,0,0:0:0:0:
32,192,122412,1,0,0:0:0:0:
352,192,122412,1,0,0:0:0:0:
224,192,122412,1,0,0:0:0:0:
288,192,122625,1,0,0:0:0:0:
416,192,122625,1,0,0:0:0:0:
352,192,122731,1,0,0:0:0:0:
224,192,122731,1,0,0:0:0:0:
480,192,122731,1,0,0:0:0:0:
32,192,122837,1,0,0:0:0:0:
96,192,122837,1,0,0:0:0:0:
160,192,122837,1,0,0:0:0:0:
288,192,122837,1,0,0:0:0:0:
480,192,122837,1,0,0:0:0:0:
224,192,122837,1,0,0:0:0:0:
352,192,122837,1,0,0:0:0:0:
288,192,123049,1,0,0:0:0:0:
480,192,123049,1,0,0:0:0:0:
352,192,123049,1,0,0:0:0:0:
416,192,123049,1,0,0:0:0:0:
224,192,123049,1,0,0:0:0:0:
32,192,123262,1,0,0:0:0:0:
288,192,123262,1,0,0:0:0:0:
352,192,123262,1,0,0:0:0:0:
224,192,123262,1,0,0:0:0:0:
416,192,123262,1,0,0:0:0:0:
416,192,123580,1,0,0:0:0:0:
352,192,123580,1,0,0:0:0:0:
288,192,123580,1,0,0:0:0:0:
224,192,123580,1,0,0:0:0:0:
480,192,123580,1,0,0:0:0:0:
32,192,123687,1,0,0:0:0:0:
96,192,123687,1,0,0:0:0:0:
480,192,123687,1,0,0:0:0:0:
224,192,123687,1,0,0:0:0:0:
352,192,123687,1,0,0:0:0:0:
416,192,123899,1,0,0:0:0:0:
480,192,123899,1,0,0:0:0:0:
352,192,123899,1,0,0:0:0:0:
288,192,123899,1,0,0:0:0:0:
224,192,123899,1,0,0:0:0:0:
32,192,124111,1,0,0:0:0:0:
352,192,124111,1,0,0:0:0:0:
224,192,124111,1,0,0:0:0:0:
288,192,124324,1,0,0:0:0:0:
160,192,124324,1,0,0:0:0:0:
352,192,124430,1,0,0:0:0:0:
224,192,124430,1,0,0:0:0:0:
480,192,124430,1,0,0:0:0:0:
416,192,124536,1,0,0:0:0:0:
32,192,124536,1,0,0:0:0:0:
96,192,124536,1,0,0:0:0:0:
288,192,124536,1,0,0:0:0:0:
480,192,124536,1,0,0:0:0:0:
224,192,124536,1,0,0:0:0:0:
352,192,124536,1,0,0:0:0:0:
288,192,124749,1,0,0:0:0:0:
480,192,124749,1,0,0:0:0:0:
352,192,124749,1,0,0:0:0:0:
160,192,124749,1,0,0:0:0:0:
224,192,124749,1,0,0:0:0:0:
160,192,124961,1,0,0:0:0:0:
416,192,124961,1,0,0:0:0:0:
32,192,124961,1,0,0:0:0:0:
352,192,124961,1,0,0:0:0:0:
224,192,124961,1,0,0:0:0:0:
288,192,125280,1,0,0:0:0:0:
352,192,125280,1,0,0:0:0:0:
160,192,125280,1,0,0:0:0:0:
224,192,125280,1,0,0:0:0:0:
480,192,125280,1,0,0:0:0:0:
32,192,125386,1,0,0:0:0:0:
96,192,125386,1,0,0:0:0:0:
480,192,125386,1,0,0:0:0:0:
224,192,125386,1,0,0:0:0:0:
352,192,125386,1,0,0:0:0:0:
416,192,125598,1,0,0:0:0:0:
480,192,125598,1,0,0:0:0:0:
352,192,125598,1,0,0:0:0:0:
288,192,125598,1,0,0:0:0:0:
224,192,125598,1,0,0:0:0:0:
32,192,125810,1,0,0:0:0:0:
352,192,125810,1,0,0:0:0:0:
224,192,125810,1,0,0:0:0:0:
160,192,126023,1,0,0:0:0:0:
288,192,126023,1,0,0:0:0:0:
416,192,126235,1,0,0:0:0:0:
32,192,126235,1,0,0:0:0:0:
96,192,126235,1,0,0:0:0:0:
288,192,126235,1,0,0:0:0:0:
224,192,126341,1,0,0:0:0:0:
480,192,126341,1,0,0:0:0:0:
160,192,126448,1,0,0:0:0:0:
288,192,126448,1,0,0:0:0:0:
352,192,126448,1,0,0:0:0:0:
96,192,126448,1,0,0:0:0:0:
480,192,126554,1,0,0:0:0:0:
32,192,126660,1,0,0:0:0:0:
96,192,126660,1,0,0:0:0:0:
224,192,126660,1,0,0:0:0:0:
352,192,126660,1,0,0:0:0:0:
416,192,126660,1,0,0:0:0:0:
288,192,126660,1,0,0:0:0:0:
416,192,126978,1,0,0:0:0:0:
352,192,126979,1,0,0:0:0:0:
288,192,126979,1,0,0:0:0:0:
224,192,126979,1,0,0:0:0:0:
480,192,126979,1,0,0:0:0:0:
32,192,127084,1,0,0:0:0:0:
96,192,127084,1,0,0:0:0:0:
480,192,127085,1,0,0:0:0:0:
224,192,127085,1,0,0:0:0:0:
352,192,127085,1,0,0:0:0:0:
160,192,127297,1,0,0:0:0:0:
480,192,127297,1,0,0:0:0:0:
352,192,127297,1,0,0:0:0:0:
288,192,127297,1,0,0:0:0:0:
224,192,127297,1,0,0:0:0:0:
32,192,127509,1,0,0:0:0:0:
224,192,127509,1,0,0:0:0:0:
352,192,127509,1,0,0:0:0:0:
160,192,127722,1,0,0:0:0:0:
288,192,127722,1,0,0:0:0:0:
352,192,127828,1,0,0:0:0:0:
224,192,127828,1,0,0:0:0:0:
480,192,127828,1,0,0:0:0:0:
32,192,127934,1,0,0:0:0:0:
96,192,127934,1,0,0:0:0:0:
416,192,127934,1,0,0:0:0:0:
288,192,127934,1,0,0:0:0:0:
480,192,127934,1,0,0:0:0:0:
224,192,127934,1,0,0:0:0:0:
352,192,127934,1,0,0:0:0:0:
160,192,128146,1,0,0:0:0:0:
288,192,128146,1,0,0:0:0:0:
480,192,128146,1,0,0:0:0:0:
352,192,128147,1,0,0:0:0:0:
224,192,128147,1,0,0:0:0:0:
32,192,128359,1,0,0:0:0:0:
416,192,128359,1,0,0:0:0:0:
352,192,128359,1,0,0:0:0:0:
224,192,128359,1,0,0:0:0:0:
288,192,128359,1,0,0:0:0:0:
288,192,128677,1,0,0:0:0:0:
352,192,128678,1,0,0:0:0:0:
160,192,128678,1,0,0:0:0:0:
224,192,128678,1,0,0:0:0:0:
480,192,128678,1,0,0:0:0:0:
32,192,128783,1,0,0:0:0:0:
96,192,128783,1,0,0:0:0:0:
480,192,128784,1,0,0:0:0:0:
224,192,128784,1,0,0:0:0:0:
352,192,128784,1,0,0:0:0:0:
160,192,128996,1,0,0:0:0:0:
416,192,128996,1,0,0:0:0:0:
480,192,128996,1,0,0:0:0:0:
352,192,128996,1,0,0:0:0:0:
224,192,128996,1,0,0:0:0:0:
32,192,129208,1,0,0:0:0:0:
352,192,129208,1,0,0:0:0:0:
224,192,129208,1,0,0:0:0:0:
288,192,129421,1,0,0:0:0:0:
416,192,129421,1,0,0:0:0:0:
352,192,129527,1,0,0:0:0:0:
224,192,129527,1,0,0:0:0:0:
480,192,129527,1,0,0:0:0:0:
32,192,129633,1,0,0:0:0:0:
96,192,129633,1,0,0:0:0:0:
160,192,129633,1,0,0:0:0:0:
288,192,129633,1,0,0:0:0:0:
480,192,129633,1,0,0:0:0:0:
224,192,129633,1,0,0:0:0:0:
352,192,129633,1,0,0:0:0:0:
288,192,129845,1,0,0:0:0:0:
480,192,129845,1,0,0:0:0:0:
352,192,129846,1,0,0:0:0:0:
416,192,129846,1,0,0:0:0:0:
224,192,129846,1,0,0:0:0:0:
32,192,130058,1,0,0:0:0:0:
288,192,130058,1,0,0:0:0:0:
352,192,130058,1,0,0:0:0:0:
224,192,130058,1,0,0:0:0:0:
416,192,130058,1,0,0:0:0:0:
416,192,130376,1,0,0:0:0:0:
352,192,130377,1,0,0:0:0:0:
288,192,130377,1,0,0:0:0:0:
224,192,130377,1,0,0:0:0:0:
480,192,130377,1,0,0:0:0:0:
32,192,130483,1,0,0:0:0:0:
96,192,130483,1,0,0:0:0:0:
480,192,130483,1,0,0:0:0:0:
224,192,130483,1,0,0:0:0:0:
352,192,130483,1,0,0:0:0:0:
416,192,130695,1,0,0:0:0:0:
480,192,130695,1,0,0:0:0:0:
352,192,130695,1,0,0:0:0:0:
288,192,130695,1,0,0:0:0:0:
224,192,130695,1,0,0:0:0:0:
32,192,130907,1,0,0:0:0:0:
352,192,130907,1,0,0:0:0:0:
224,192,130907,1,0,0:0:0:0:
288,192,131120,1,0,0:0:0:0:
160,192,131120,1,0,0:0:0:0:
352,192,131226,1,0,0:0:0:0:
224,192,131226,1,0,0:0:0:0:
480,192,131226,1,0,0:0:0:0:
416,192,131332,1,0,0:0:0:0:
32,192,131332,1,0,0:0:0:0:
96,192,131332,1,0,0:0:0:0:
288,192,131333,1,0,0:0:0:0:
480,192,131333,1,0,0:0:0:0:
224,192,131333,1,0,0:0:0:0:
352,192,131333,1,0,0:0:0:0:
288,192,131545,1,0,0:0:0:0:
480,192,131545,1,0,0:0:0:0:
352,192,131545,1,0,0:0:0:0:
160,192,131545,1,0,0:0:0:0:
224,192,131545,1,0,0:0:0:0:
160,192,131757,1,0,0:0:0:0:
416,192,131757,1,0,0:0:0:0:
32,192,131757,1,0,0:0:0:0:
352,192,131757,1,0,0:0:0:0:
224,192,131757,1,0,0:0:0:0:
288,192,132076,1,0,0:0:0:0:
352,192,132076,1,0,0:0:0:0:
160,192,132076,1,0,0:0:0:0:
224,192,132076,1,0,0:0:0:0:
480,192,132076,1,0,0:0:0:0:
32,192,132182,1,0,0:0:0:0:
96,192,132182,1,0,0:0:0:0:
480,192,132182,1,0,0:0:0:0:
224,192,132182,1,0,0:0:0:0:
352,192,132182,1,0,0:0:0:0:
416,192,132394,1,0,0:0:0:0:
480,192,132394,1,0,0:0:0:0:
352,192,132395,1,0,0:0:0:0:
288,192,132395,1,0,0:0:0:0:
224,192,132395,1,0,0:0:0:0:
32,192,132606,1,0,0:0:0:0:
96,192,132607,1,0,0:0:0:0:
160,192,132660,1,0,0:0:0:0:
224,192,132713,1,0,0:0:0:0:
288,192,132766,1,0,0:0:0:0:
352,192,132819,1,0,0:0:0:0:
416,192,132819,1,0,0:0:0:0:
480,192,132819,1,0,0:0:0:0:
224,192,132926,1,0,0:0:0:0:
160,192,132926,1,0,0:0:0:0:
96,192,132926,1,0,0:0:0:0:
352,192,133032,1,0,0:0:0:0:
416,192,133032,1,0,0:0:0:0:
480,192,133032,1,0,0:0:0:0:
224,192,133138,1,0,0:0:0:0:
160,192,133138,1,0,0:0:0:0:
96,192,133138,1,0,0:0:0:0:
352,192,133244,1,0,0:0:0:0:
416,192,133244,1,0,0:0:0:0:
480,192,133244,1,0,0:0:0:0:
32,192,133456,1,0,0:0:0:0:
352,192,133456,1,0,0:0:0:0:
224,192,133456,1,0,0:0:0:0:
160,192,133456,1,0,0:0:0:0:
288,192,133456,1,0,0:0:0:0:
352,192,133775,1,0,0:0:0:0:
224,192,133775,1,0,0:0:0:0:
480,192,133775,1,0,0:0:0:0:
32,192,133881,1,0,0:0:0:0:
96,192,133881,1,0,0:0:0:0:
416,192,133881,1,0,0:0:0:0:
160,192,133881,1,0,0:0:0:0:
480,192,133881,1,0,0:0:0:0:
224,192,133881,1,0,0:0:0:0:
352,192,133881,1,0,0:0:0:0:
416,192,134094,1,0,0:0:0:0:
160,192,134094,1,0,0:0:0:0:
96,192,134094,1,0,0:0:0:0:
224,192,134094,1,0,0:0:0:0:
416,192,134200,1,0,0:0:0:0:
160,192,134200,1,0,0:0:0:0:
480,192,134200,1,0,0:0:0:0:
352,192,134200,1,0,0:0:0:0:
416,192,134412,1,0,0:0:0:0:
160,192,134412,1,0,0:0:0:0:
352,192,134412,1,0,0:0:0:0:
480,192,134412,1,0,0:0:0:0:
416,192,134518,1,0,0:0:0:0:
160,192,134518,1,0,0:0:0:0:
224,192,134518,1,0,0:0:0:0:
96,192,134518,1,0,0:0:0:0:
352,192,134625,1,0,0:0:0:0:
480,192,134625,1,0,0:0:0:0:
416,192,134731,1,0,0:0:0:0:
32,192,134731,1,0,0:0:0:0:
96,192,134731,1,0,0:0:0:0:
288,192,134731,1,0,0:0:0:0:
352,192,134943,1,0,0:0:0:0:
480,192,134943,1,0,0:0:0:0:
160,192,134943,1,0,0:0:0:0:
416,192,134943,1,0,0:0:0:0:
224,192,134943,1,0,0:0:0:0:
32,192,135156,1,0,0:0:0:0:
352,192,135156,1,0,0:0:0:0:
224,192,135156,1,0,0:0:0:0:
160,192,135156,1,0,0:0:0:0:
288,192,135156,1,0,0:0:0:0:
224,192,135474,1,0,0:0:0:0:
480,192,135474,1,0,0:0:0:0:
352,192,135475,1,0,0:0:0:0:
480,192,135580,1,0,0:0:0:0:
224,192,135580,1,0,0:0:0:0:
352,192,135580,1,0,0:0:0:0:
32,192,135581,1,0,0:0:0:0:
96,192,135581,1,0,0:0:0:0:
416,192,135581,1,0,0:0:0:0:
160,192,135581,1,0,0:0:0:0:
416,192,135793,1,0,0:0:0:0:
96,192,135793,1,0,0:0:0:0:
160,192,135793,1,0,0:0:0:0:
224,192,135793,1,0,0:0:0:0:
480,192,135899,1,0,0:0:0:0:
416,192,135899,1,0,0:0:0:0:
160,192,135899,1,0,0:0:0:0:
352,192,135899,1,0,0:0:0:0:
352,192,136111,1,0,0:0:0:0:
160,192,136111,1,0,0:0:0:0:
416,192,136111,1,0,0:0:0:0:
480,192,136111,1,0,0:0:0:0:
160,192,136217,1,0,0:0:0:0:
416,192,136217,1,0,0:0:0:0:
224,192,136217,1,0,0:0:0:0:
96,192,136218,1,0,0:0:0:0:
352,192,136324,1,0,0:0:0:0:
480,192,136324,1,0,0:0:0:0:
416,192,136431,1,0,0:0:0:0:
32,192,136431,1,0,0:0:0:0:
96,192,136431,1,0,0:0:0:0:
288,192,136431,1,0,0:0:0:0:
224,192,136642,1,0,0:0:0:0:
352,192,136643,1,0,0:0:0:0:
480,192,136643,1,0,0:0:0:0:
160,192,136643,1,0,0:0:0:0:
416,192,136643,1,0,0:0:0:0:
352,192,136855,1,0,0:0:0:0:
224,192,136855,1,0,0:0:0:0:
32,192,136855,1,0,0:0:0:0:
288,192,136855,1,0,0:0:0:0:
416,192,136855,1,0,0:0:0:0:
224,192,137173,1,0,0:0:0:0:
480,192,137173,1,0,0:0:0:0:
352,192,137174,1,0,0:0:0:0:
416,192,137280,1,0,0:0:0:0:
160,192,137280,1,0,0:0:0:0:
32,192,137280,1,0,0:0:0:0:
96,192,137280,1,0,0:0:0:0:
480,192,137280,1,0,0:0:0:0:
224,192,137280,1,0,0:0:0:0:
352,192,137280,1,0,0:0:0:0:
160,192,137492,1,0,0:0:0:0:
96,192,137492,1,0,0:0:0:0:
416,192,137492,1,0,0:0:0:0:
224,192,137492,1,0,0:0:0:0:
160,192,137598,1,0,0:0:0:0:
416,192,137598,1,0,0:0:0:0:
480,192,137598,1,0,0:0:0:0:
352,192,137598,1,0,0:0:0:0:
416,192,137810,1,0,0:0:0:0:
160,192,137810,1,0,0:0:0:0:
352,192,137810,1,0,0:0:0:0:
480,192,137810,1,0,0:0:0:0:
224,192,137916,1,0,0:0:0:0:
416,192,137916,1,0,0:0:0:0:
160,192,137916,1,0,0:0:0:0:
96,192,137917,1,0,0:0:0:0:
480,192,138024,1,0,0:0:0:0:
352,192,138024,1,0,0:0:0:0:
96,192,138130,1,0,0:0:0:0:
288,192,138130,1,0,0:0:0:0:
416,192,138130,1,0,0:0:0:0:
32,192,138130,1,0,0:0:0:0:
160,192,138341,1,0,0:0:0:0:
416,192,138341,1,0,0:0:0:0:
224,192,138341,1,0,0:0:0:0:
352,192,138342,1,0,0:0:0:0:
480,192,138342,1,0,0:0:0:0:
32,192,138554,1,0,0:0:0:0:
352,192,138554,1,0,0:0:0:0:
224,192,138554,1,0,0:0:0:0:
224,192,138872,1,0,0:0:0:0:
480,192,138872,1,0,0:0:0:0:
352,192,138873,1,0,0:0:0:0:
32,192,138979,1,0,0:0:0:0:
96,192,138979,1,0,0:0:0:0:
416,192,138979,1,0,0:0:0:0:
160,192,138979,1,0,0:0:0:0:
480,192,138979,1,0,0:0:0:0:
224,192,138979,1,0,0:0:0:0:
352,192,138979,1,0,0:0:0:0:
416,192,139191,1,0,0:0:0:0:
96,192,139191,1,0,0:0:0:0:
160,192,139191,1,0,0:0:0:0:
224,192,139191,1,0,0:0:0:0:
480,192,139297,1,0,0:0:0:0:
416,192,139297,1,0,0:0:0:0:
160,192,139297,1,0,0:0:0:0:
352,192,139297,1,0,0:0:0:0:
352,192,139509,1,0,0:0:0:0:
160,192,139509,1,0,0:0:0:0:
416,192,139509,1,0,0:0:0:0:
480,192,139510,1,0,0:0:0:0:
160,192,139615,1,0,0:0:0:0:
416,192,139615,1,0,0:0:0:0:
224,192,139615,1,0,0:0:0:0:
96,192,139616,1,0,0:0:0:0:
352,192,139722,1,0,0:0:0:0:
480,192,139722,1,0,0:0:0:0:
160,192,139828,1,0,0:0:0:0:
416,192,139828,1,0,0:0:0:0:
96,192,139828,1,0,0:0:0:0:
32,192,139829,1,0,0:0:0:0:
224,192,139934,1,0,0:0:0:0:
352,192,140041,1,0,0:0:0:0:
416,192,140041,1,0,0:0:0:0:
288,192,140041,1,0,0:0:0:0:
480,192,140147,1,0,0:0:0:0:
32,192,140253,1,0,0:0:0:0:
352,192,140253,1,0,0:0:0:0:
224,192,140253,1,0,0:0:0:0:
160,192,140253,1,0,0:0:0:0:
288,192,140253,1,0,0:0:0:0:
352,192,140572,1,0,0:0:0:0:
224,192,140572,1,0,0:0:0:0:
480,192,140572,1,0,0:0:0:0:
32,192,140678,1,0,0:0:0:0:
96,192,140678,1,0,0:0:0:0:
416,192,140678,1,0,0:0:0:0:
160,192,140678,1,0,0:0:0:0:
480,192,140678,1,0,0:0:0:0:
224,192,140678,1,0,0:0:0:0:
352,192,140678,1,0,0:0:0:0:
160,192,140890,1,0,0:0:0:0:
96,192,140890,1,0,0:0:0:0:
416,192,140890,1,0,0:0:0:0:
224,192,140890,1,0,0:0:0:0:
160,192,140996,1,0,0:0:0:0:
416,192,140996,1,0,0:0:0:0:
480,192,140996,1,0,0:0:0:0:
352,192,140996,1,0,0:0:0:0:
416,192,141208,1,0,0:0:0:0:
160,192,141208,1,0,0:0:0:0:
352,192,141208,1,0,0:0:0:0:
480,192,141209,1,0,0:0:0:0:
224,192,141314,1,0,0:0:0:0:
416,192,141314,1,0,0:0:0:0:
160,192,141314,1,0,0:0:0:0:
96,192,141315,1,0,0:0:0:0:
352,192,141422,1,0,0:0:0:0:
480,192,141422,1,0,0:0:0:0:
416,192,141528,1,0,0:0:0:0:
32,192,141528,1,0,0:0:0:0:
96,192,141528,1,0,0:0:0:0:
288,192,141528,1,0,0:0:0:0:
352,192,141740,1,0,0:0:0:0:
480,192,141740,1,0,0:0:0:0:
160,192,141740,1,0,0:0:0:0:
416,192,141740,1,0,0:0:0:0:
224,192,141740,1,0,0:0:0:0:
32,192,141953,1,0,0:0:0:0:
352,192,141953,1,0,0:0:0:0:
224,192,141953,1,0,0:0:0:0:
160,192,141953,1,0,0:0:0:0:
288,192,141953,1,0,0:0:0:0:
224,192,142271,1,0,0:0:0:0:
480,192,142271,1,0,0:0:0:0:
352,192,142272,1,0,0:0:0:0:
480,192,142377,1,0,0:0:0:0:
224,192,142377,1,0,0:0:0:0:
352,192,142377,1,0,0:0:0:0:
32,192,142378,1,0,0:0:0:0:
96,192,142378,1,0,0:0:0:0:
416,192,142378,1,0,0:0:0:0:
160,192,142378,1,0,0:0:0:0:
416,192,142589,1,0,0:0:0:0:
96,192,142589,1,0,0:0:0:0:
160,192,142589,1,0,0:0:0:0:
224,192,142589,1,0,0:0:0:0:
480,192,142695,1,0,0:0:0:0:
416,192,142695,1,0,0:0:0:0:
160,192,142695,1,0,0:0:0:0:
352,192,142695,1,0,0:0:0:0:
352,192,142907,1,0,0:0:0:0:
160,192,142907,1,0,0:0:0:0:
416,192,142907,1,0,0:0:0:0:
480,192,142908,1,0,0:0:0:0:
160,192,143013,1,0,0:0:0:0:
416,192,143013,1,0,0:0:0:0:
224,192,143013,1,0,0:0:0:0:
96,192,143014,1,0,0:0:0:0:
480,192,143120,1,0,0:0:0:0:
352,192,143122,1,0,0:0:0:0:
416,192,143228,1,0,0:0:0:0:
32,192,143228,1,0,0:0:0:0:
96,192,143228,1,0,0:0:0:0:
288,192,143228,1,0,0:0:0:0:
224,192,143439,1,0,0:0:0:0:
352,192,143440,1,0,0:0:0:0:
480,192,143440,1,0,0:0:0:0:
160,192,143440,1,0,0:0:0:0:
416,192,143440,1,0,0:0:0:0:
352,192,143652,1,0,0:0:0:0:
224,192,143652,1,0,0:0:0:0:
32,192,143652,1,0,0:0:0:0:
288,192,143652,1,0,0:0:0:0:
416,192,143652,1,0,0:0:0:0:
224,192,143970,1,0,0:0:0:0:
480,192,143970,1,0,0:0:0:0:
352,192,143971,1,0,0:0:0:0:
480,192,144076,1,0,0:0:0:0:
224,192,144076,1,0,0:0:0:0:
352,192,144076,1,0,0:0:0:0:
416,192,144077,1,0,0:0:0:0:
160,192,144077,1,0,0:0:0:0:
32,192,144077,1,0,0:0:0:0:
96,192,144077,1,0,0:0:0:0:
160,192,144288,1,0,0:0:0:0:
96,192,144288,1,0,0:0:0:0:
416,192,144288,1,0,0:0:0:0:
224,192,144288,1,0,0:0:0:0:
160,192,144394,1,0,0:0:0:0:
416,192,144394,1,0,0:0:0:0:
480,192,144394,1,0,0:0:0:0:
352,192,144395,1,0,0:0:0:0:
416,192,144606,1,0,0:0:0:0:
160,192,144606,1,0,0:0:0:0:
352,192,144606,1,0,0:0:0:0:
480,192,144607,1,0,0:0:0:0:
224,192,144712,1,0,0:0:0:0:
416,192,144712,1,0,0:0:0:0:
160,192,144712,1,0,0:0:0:0:
96,192,144713,1,0,0:0:0:0:
480,192,144821,1,0,0:0:0:0:
352,192,144821,1,0,0:0:0:0:
96,192,144927,1,0,0:0:0:0:
288,192,144927,1,0,0:0:0:0:
416,192,144927,1,0,0:0:0:0:
32,192,144927,1,0,0:0:0:0:
160,192,145138,1,0,0:0:0:0:
416,192,145138,1,0,0:0:0:0:
224,192,145138,1,0,0:0:0:0:
352,192,145139,1,0,0:0:0:0:
480,192,145139,1,0,0:0:0:0:
32,192,145351,1,0,0:0:0:0:
352,192,145351,1,0,0:0:0:0:
224,192,145351,1,0,0:0:0:0:
224,192,145669,1,0,0:0:0:0:
480,192,145669,1,0,0:0:0:0:
352,192,145670,1,0,0:0:0:0:
480,192,145775,1,0,0:0:0:0:
224,192,145775,1,0,0:0:0:0:
352,192,145775,1,0,0:0:0:0:
32,192,145776,1,0,0:0:0:0:
96,192,145776,1,0,0:0:0:0:
416,192,145776,1,0,0:0:0:0:
160,192,145776,1,0,0:0:0:0:
416,192,145987,1,0,0:0:0:0:
160,192,145987,1,0,0:0:0:0:
416,192,146093,1,0,0:0:0:0:
160,192,146093,1,0,0:0:0:0:
160,192,146305,1,0,0:0:0:0:
416,192,146305,1,0,0:0:0:0:
160,192,146411,1,0,0:0:0:0:
416,192,146411,1,0,0:0:0:0:
416,192,146625,1,0,0:0:0:0:
160,192,146625,1,0,0:0:0:0:
416,192,146837,1,0,0:0:0:0:
288,192,146838,1,0,0:0:0:0:
