osu file format v9

[General]
AudioFilename: Baby Alice - Pina Colada Boy (Nightcore Mix).mp3
AudioLeadIn: 0
PreviewTime: 31257
Countdown: 0
SampleSet: Normal
StackLeniency: 0.7
Mode: 0
LetterboxInBreaks: 0
EpilepsyWarning: 1

[Editor]
DistanceSpacing: 1
BeatDivisor: 2
GridSize: 4

[Metadata]
Title:Pina Colada Boy (Nightcore Mix)
Artist:Baby Alice
Creator:ShadowSoul
Version:Easy
Source:
Tags:jericho2442 Lucifer Louis Cyphre Firce777 BounceBabe

[Difficulty]
HPDrainRate:2
CircleSize:3
OverallDifficulty:2
ApproachRate:2
SliderMultiplier:1
SliderTickRate:1

[Events]
//Background and Video events
0,0,"PinaColada.jpg"
//Break Periods
2,28495,30134
2,89663,94700
2,103256,108718
//Storyboard Layer 0 (Background)
Sprite,Background,Centre,"SB\PinaColada_Dark.png",320,240 S,0,103046,,0.8 F,0,103046,103896,0,1 F,0,103896,118338,1 F,0,118338,118445,1,0.8 F,0,118763,118869,0.8,0.5 F,0,119188,119294,0.5,0
Sprite,Background,Centre,"SB\PinaColada.jpg",320,240 L,1100,1 F,0,0,850,1,0 S,0,0,850,0.8,1
Sprite,Background,Centre,"SB\PinaColada_Bright.jpg",320,240 L,1100,4 F,2,0,850,0.5,0 S,1,0,850,0.8,0.9 S,0,850,3400,0.8 L,14702,17 S,0,0,,0.8 F,0,0,850,1,0 L,31684,17 S,0,0,,0.8 F,0,0,850,1,0 L,59294,16 S,0,0,,0.8 F,0,0,850,1,0 L,75861,17 S,0,0,,0.8 F,0,0,850,1,0 L,104746,8 S,0,0,,0.8 F,0,0,1700,1,0 L,120038,60 S,0,0,,0.8 F,0,0,425,1,0
Sprite,Background,Centre,"SB\PinaColada_Girl.png",320,240 L,31684,17 F,1,0,850,1,0 S,1,0,850,0.8,0.9 L,75861,17 F,1,0,850,1,0 S,1,0,850,0.8,0.9 L,120038,60 F,1,0,425,1,0 S,1,0,425,0.8,0.9 L,147011,1 F,1,0,850,1,0 S,1,0,850,0.8,1
Sprite,Background,Centre,"SB\Effect.jpg",320,240 F,0,-599,1100,1,0 C,0,-599,1100,0,0,0
//Storyboard Layer 1 (Fail)
//Storyboard Layer 2 (Pass)
//Storyboard Layer 3 (Foreground)
//Storyboard Sound Samples
//Background Colour Transformations
3,100,0,0,0

[TimingPoints]
1110,424.778761061947,4,1,2,40,1,0
14702,-100,4,1,2,85,0,0
31694,-100,4,1,2,85,0,1
45286,-100,4,1,2,85,0,0
45711,-100,4,1,1,85,0,0
52083,-100,4,1,2,85,0,0
52508,-100,4,1,1,85,0,0
58879,-100,4,1,2,85,0,0
59304,-100,4,1,1,85,0,0
75871,-100,4,1,2,85,0,1
89463,-100,4,1,2,85,0,0
96685,-100,4,1,1,85,0,0
103056,-100,4,1,2,85,0,0
110278,-100,4,1,2,85,0,0
110702,-100,4,2,2,85,0,0
111127,-100,4,2,1,85,0,0
111977,-100,4,1,2,85,0,0
112402,-100,4,2,1,85,0,0
113676,-100,4,1,2,85,0,0
118348,-100,4,1,2,85,0,0
120048,-100,4,1,2,85,0,1
123021,-100,4,1,1,85,0,1
123233,-100,4,1,2,85,0,1
129817,-100,4,1,1,85,0,1
130242,-100,4,1,2,85,0,1
133640,-100,4,1,2,85,0,0
134065,-100,4,1,1,85,0,0
140437,-100,4,1,2,85,0,0
140862,-100,4,1,1,85,0,0
147021,-100,4,2,2,85,0,0

[Colours]
Combo1 : 255,150,0
Combo2 : 5,240,5
Combo3 : 5,5,240
Combo4 : 240,5,5
Combo5 : 5,240,240

[HitObjects]
368,40,14702,1,0
256,40,15127,1,8
152,40,15552,2,0,B|96:40|56:120|56:120|112:176,1,200,0|0
208,168,16826,5,8
312,168,17251,2,0,B|368:168|408:248|408:248|352:304,1,200,0|4
256,296,18525,5,8
152,296,18950,1,0
48,296,19375,1,8
48,192,19800,2,0,B|48:104|128:104|128:104|168:48,1,200
264,52,21074,1,8
400,192,21924,5,8
400,288,22348,1,0
312,240,22773,1,8
120,192,23623,5,8
120,288,24047,1,0
208,240,24472,1,8
204,40,25322,5,8
304,40,25747,1,0
256,128,26171,1,8
256,192,26596,12,4,28295
264,64,31694,6,0,B|384:64|384:192,1,200,0|0
384,288,32968,1,8
280,288,33393,2,0,B|160:288|160:160,1,200,0|0
164,60,34667,5,8
264,64,35092,2,0,B|368:64|376:128|376:128|448:128,1,200
432,232,36366,1,8
432,336,36791,2,0,B|352:288|296:344|296:344|240:344,1,200
144,344,38065,5,8
144,240,38490,2,0,B|144:120|280:120,1,200
376,120,39764,1,8
480,120,40189,2,0,B|480:320,1,200
376,320,41463,5,8
272,320,41888,1,0
168,320,42313,2,0,B|96:320|96:240,1,100,0|0
96,160,43163,1,8
96,64,43587,2,0,B|192:64|192:64|208:136|272:136,1,200
440,48,45286,5,4
440,152,45711,2,0,B|352:152|352:264|352:264|256:264|256:176,1,300,8|0
256,88,47410,2,0,B|168:88|168:88|220:200|24:192,1,300,8|0
40,296,49110,6,0,B|136:296|200:352|200:352|272:352|312:296,1,300,8|0
408,296,50809,2,0,B|408:224|480:168|480:168|416:112|416:40,1,300,8|4
316,40,52508,5,8
216,40,52933,1,0
116,40,53357,2,0,B|116:144,1,100,8|0
116,240,54207,6,0,B|212:240|260:336|260:336|340:336|340:272,1,300,8|0
340,172,55906,1,8
440,172,56331,1,0
436,272,56756,2,0,B|332:272,1,100
236,272,57605,2,0,B|276:176|164:120|164:120|276:72,1,300,8|4
368,72,59304,6,0,B|416:40|464:72,2,100,0|0|8
264,72,60579,1,0
168,72,61003,2,0,B|96:168|176:256,1,200,0|8
240,328,62278,5,0
336,328,62702,2,0,B|448:328,2,100,0|0|8
240,328,63977,5,0
140,328,64402,1,0
40,328,64826,1,0
40,228,65251,2,0,B|152:228,1,100,8|0
240,228,66101,5,0
336,228,66525,1,0
436,228,66950,2,0,B|468:268|436:324,2,100,8|0|0
436,128,68225,1,0
336,128,68649,1,8
236,128,69074,1,0
136,128,69499,6,0,B|40:128|88:208|88:208|8:208,3,200,0|8|0|8
256,192,72472,12,0,74596
448,64,75871,6,0,B|344:64,1,100
248,64,76720,1,0
144,64,77145,1,8
40,64,77570,2,0,B|40:152|120:144|120:144|120:224,1,200
120,312,78844,5,8
224,312,79269,2,0,B|224:208,2,100
328,312,80543,1,8
432,312,80968,2,0,B|432:240|352:208|352:208|352:136,1,200
352,48,82242,5,8
248,48,82667,2,0,B|120:48|120:176,1,200
120,272,83941,1,8
224,272,84366,2,0,B|352:272|352:144,1,200
252,152,85640,1,8
256,192,86065,12,0,88614
256,192,89463,5,4
64,52,96260,5,4
64,152,96685,2,0,B|144:196|76:260|76:260|72:344|200:344,1,300,8|0
292,344,98384,2,0,B|360:272|232:220|232:220|312:152|372:176,1,300,8|0
448,168,100083,2,0,B|484:52|484:52|380:12|272:104,1,300,8|0
256,192,101782,12,4,103056
168,40,110278,5,8
168,152,110703,2,0,B|104:152|92:208|92:208|104:260|200:260,1,200
256,224,111977,1,8
348,260,112402,2,0,B|412:260|424:204|424:204|412:152|316:152,1,200
348,56,113676,1,8
256,192,114101,12,0,116649
256,192,118348,5,0
256,192,118773,1,0
256,192,119198,1,0
428,92,120048,6,0,B|484:188|428:300,1,200
336,284,121322,1,8
236,284,121747,2,0,B|180:188|236:76,1,200
328,92,123021,1,8
428,96,123446,6,0,B|428:196|488:240|488:240|492:332|384:332,1,300,0|8
304,332,125145,2,0,B|204:332,2,100,0|0|0
404,332,126419,5,8
404,232,126844,2,0,B|404:124|304:124|288:188|288:188|168:188,1,300,0|8
84,188,128543,1,0
84,88,128968,1,0
184,88,129393,1,0
184,188,129817,1,8
256,192,130242,12,4,133216
44,104,134065,2,0,B|132:104|132:216|132:216|228:216|228:128,1,300,8|0
276,52,135764,2,0,B|364:52|364:52|312:164|508:156,1,300,8|0
492,256,137463,2,0,B|404:256|404:368|404:368|308:368|308:280,1,300,8|0
208,288,139163,2,0,B|208:216|136:160|136:160|200:104|200:32,1,300,8|4
300,32,140862,5,8
300,132,141286,1,0
400,132,141711,1,0
400,232,142136,1,0
400,332,142561,6,0,B|280:332,1,100,8|0
200,332,143410,2,0,B|92:332,1,100
104,232,144260,6,0,B|188:232|224:156|224:156|268:232|352:232,1,300,8|0
444,236,145959,6,0,B|488:316|488:316|432:416|356:340,1,250,8|4
