osu file format v4

[General]
AudioFilename: Rockman EXE Stream - Doobee Doowop Communication.mp3
AudioLeadIn: 0
AudioHash: a1e65f33be162f5762e844c930121baa
PreviewTime: -1
SampleSet: Normal

[Metadata]
Title:Doobee Doowop Communication
Artist:Babamania
Creator:GuardianHX
Version:Osu! Newbie!

[Difficulty]
HPDrainRate:3
CircleSize:4
OverallDifficulty:5
SliderMultiplier: 2
SliderTickRate: 1

[Events]
2,25474,31100
3,0,163,162,255

[TimingPoints]
4980,588.235294117647,4,1,0
32790,587.084148727984,4,2,0
43450,587.084148727984,4,1,0
48500,587.084148727984,4,1,0

[HitObjects]
256,256,4980,1,0,
236,238,5128,1,0,
253,210,5275,1,0,
285,176,5422,1,0,
267,155,5569,1,0,
160,160,5862,5,0,
192,96,6156,1,0,
256,64,6450,1,0,
320,96,6744,1,0,
352,160,7038,1,0,
320,224,7332,1,0,
256,256,7627,1,0,
196,192,8215,6,0,B|196:192|96:192,2,100
256,192,9097,1,0,
316,192,9391,2,0,B|316:192|416:192,2,100
256,32,10568,5,0,
256,96,10862,1,0,
256,160,11156,1,0,
256,224,11450,1,0,
256,288,11744,1,0,
256,352,12038,1,0,
256,288,12332,5,0,
256,224,12627,1,0,
256,160,12921,1,0,
256,96,13215,1,0,
256,32,13509,1,0,
256,32,13803,6,0,B|256:32|256:288,1,200
256,192,15274,5,0,
192,128,15568,1,0,
256,64,15862,1,0,
320,128,16156,1,0,
256,128,16450,5,0,
256,192,16744,1,0,
256,256,17038,1,0,
256,192,17627,5,0,
224,160,17921,1,0,
192,128,18215,1,0,
160,96,18509,1,0,
128,64,18803,1,0,
128,128,19097,1,0,
128,192,19391,1,0,
256,192,19980,5,0,
288,224,20274,1,0,
320,256,20568,1,0,
352,288,20862,1,0,
384,320,21156,1,0,
384,256,21450,1,0,
384,192,21744,1,0,
384,128,22038,6,0,B|384:128|288:128,1,100
320,192,22627,2,0,B|320:192|256:192,1,100
256,256,23215,2,0,B|256:256|160:256,1,100
192,320,23803,2,0,B|192:320|128:320,1,100
256,192,24391,12,0,24685
256,192,24980,12,0,25274
256,128,32332,5,2,
256,192,32774,5,2,
175,189,33068,1,0,
175,189,33215,1,2,
175,189,33362,1,2,
175,229,33509,1,2,
175,229,33656,1,0,
175,229,33803,1,2,
256,256,34097,6,2,B|256:256|256:306,1,50
255,346,34391,1,2,
255,346,34538,1,2,
255,346,34685,1,2,
295,345,34832,1,0,
295,345,34980,1,2,
320,256,35127,6,6,B|320:256|320:224,1,50
322,166,35421,1,2,
322,166,35568,1,2,
322,166,35715,1,2,
319,125,35862,1,6,
319,125,36009,1,0,
319,125,36156,1,2,
256,128,36312,6,4,B|256:128|256:224,1,50
256,192,36606,1,0,
256,256,36752,1,6,
128,256,37185,6,0,B|128:256|128:192,1,50
127,165,37480,5,0,
127,165,37627,1,0,
127,165,37774,1,0,
127,165,37921,1,0,
127,124,38068,1,0,
127,124,38215,1,0,
127,124,38362,1,0,
127,124,38509,1,0,
127,83,38656,5,2,
127,83,38803,1,0,
127,83,38950,1,0,
127,83,39097,1,0,
167,81,39244,1,0,
167,81,39391,1,0,
167,81,39538,1,2,
246,84,39832,5,0,
246,84,39980,1,0,
246,84,40127,1,0,
246,84,40274,1,0,
285,84,40421,1,0,
285,84,40568,1,0,
285,84,40715,1,0,
285,84,40862,1,0,
324,85,41009,5,2,
324,85,41156,1,2,
324,85,41303,1,2,
324,85,41450,1,2,
364,85,41597,1,2,
364,85,41744,1,2,
364,85,41891,1,2,
364,85,42038,1,2,
366,125,42185,5,2,
366,125,42332,1,2,
366,125,42480,1,2,
366,125,42627,1,2,
366,165,42774,5,2,
366,165,42921,1,2,
366,165,43068,1,2,
366,165,43215,1,2,
384,256,43509,6,2,B|384:256|288:256,1,100
128,256,44391,1,2,
128,256,44538,1,2,
128,192,44832,1,2,
256,192,45274,6,2,B|256:192|256:64,1,100
256,192,45862,1,2,
256,192,46009,1,2,
256,256,46450,6,2,B|256:256|256:352,2,50
256,128,47185,1,2,
256,128,47332,1,0,
256,0,47774,1,4,
256,256,48500,5,0,
236,238,48646,1,0,
262,207,48793,1,0,
293,181,48940,1,0,
266,151,49087,1,0,
160,160,49391,5,0,
192,96,49685,1,0,
256,64,49980,1,0,
320,96,50274,1,0,
352,160,50568,1,0,
320,224,50862,1,0,
251,266,51156,1,0,
196,192,51744,6,0,B|196:192|96:192,2,100
256,192,52627,1,0,
316,192,52921,2,0,B|316:192|416:192,2,100
256,32,54097,5,0,
256,96,54391,1,0,
256,160,54685,1,0,
256,224,54980,1,0,
256,288,55274,1,0,
256,352,55568,1,0,
256,288,55862,5,0,
256,224,56156,1,0,
256,160,56450,1,0,
256,96,56744,1,0,
256,32,57038,1,0,
256,32,57332,6,0,B|256:32|256:288,1,200
256,64,58803,5,0,
320,128,59097,1,0,
256,192,59391,1,0,
192,128,59685,1,0,
256,128,59980,5,0,
256,192,60274,1,0,
256,256,60568,1,0,
256,320,61156,5,0,
192,256,61450,1,0,
256,192,61744,1,0,
320,256,62038,1,0,
256,256,62332,1,0,
256,256,62627,1,0,
256,192,62921,1,0,
256,192,63509,5,0,
192,128,63803,1,0,
256,64,64097,1,0,
320,128,64391,1,0,
256,128,64685,1,0,
256,128,64980,1,0,
256,192,65274,1,0,
192,256,65568,6,2,B|192:256|288:256,1,100
256,192,66156,2,2,B|256:192|320:192,1,100
320,128,66744,2,2,B|320:128|416:128,1,100
384,64,67332,2,2,B|384:64|448:64,1,100
160,160,68215,5,0,
192,96,68509,1,0,
256,64,68803,1,0,
320,96,69097,1,0,
352,160,69391,1,0,
320,224,69685,1,0,
256,256,69980,1,0,
196,192,70568,6,0,B|196:192|96:192,2,100
256,192,71450,1,0,
316,192,71744,2,0,B|316:192|416:192,2,100
256,32,72921,5,0,
256,96,73215,1,0,
256,160,73509,1,0,
256,224,73803,1,0,
256,288,74097,1,0,
256,352,74391,1,0,
256,352,74685,1,0,
191,304,74980,5,4,
163,228,75274,1,4,
184,151,75568,1,4,
243,97,75862,1,4,
322,88,76156,1,4,
387,133,76450,1,4,
403,211,76744,1,4,
256,64,77627,5,0,
320,128,77921,1,0,
256,192,78215,1,0,
192,128,78509,1,0,
256,128,78803,5,0,
256,192,79097,1,0,
256,256,79391,1,4,
256,320,79980,5,0,
192,256,80274,1,0,
192,192,80568,1,0,
256,128,80862,1,0,
320,192,81156,1,0,
320,256,81303,1,0,
256,256,81597,1,4,
256,64,82185,5,0,
192,128,82480,1,0,
192,192,82774,1,0,
256,256,83068,1,0,
320,192,83362,1,0,
320,128,83656,1,0,
256,128,83950,1,4,
256,64,84244,5,6,
256,64,84538,1,4,
256,128,84832,2,6,B|256:128|256:192,1,100
256,300,85421,1,6,
256,300,85715,1,4,
256,192,86009,5,2,
256,192,86303,12,4,89244
