osu file format v12

[General]
AudioFilename: Baauer - Harlem Shake.mp3
AudioLeadIn: 0
PreviewTime: 19069
Countdown: 0
SampleSet: Soft
StackLeniency: 0.7
Mode: 0
LetterboxInBreaks: 0
EpilepsyWarning: 1
WidescreenStoryboard: 1

[Editor]
DistanceSpacing: 2
BeatDivisor: 8
GridSize: 4
TimelineZoom: 1

[Metadata]
Title:Harlem Shake
TitleUnicode:Harlem Shake
Artist:Baauer
ArtistUnicode:Baauer
Creator:pimpG
Version:Insane
Source:
Tags:meme terrorista durarara Tur00 newtoniorock8 Stefan YunoFanatic _Gezo_ Techno
BeatmapID:279558
BeatmapSetID:105186

[Difficulty]
HPDrainRate:7
CircleSize:4
OverallDifficulty:8
ApproachRate:8
SliderMultiplier:1.92
SliderTickRate:1

[Events]
//Background and Video events
0,0,"BG.jpg",0,0
//Break Periods
//Storyboard Layer 0 (Background)
//Storyboard Layer 1 (Fail)
//Storyboard Layer 2 (Pass)
//Storyboard Layer 3 (Foreground)
//Storyboard Sound Samples
//Background Colour Transformations
3,100,0,0,0

[TimingPoints]
1819.86697396971,428.571428571429,4,2,1,60,1,0
10177,-100,4,2,3,60,0,0
10391,-100,4,2,1,60,0,0
11784,-100,4,2,3,60,0,0
11891,-100,4,2,1,60,0,0
11998,-100,4,2,3,60,0,0
12105,-100,4,2,0,60,0,0
15534,-100,4,2,1,65,0,1
15748,-100,4,2,1,60,0,1
16177,-100,4,2,1,65,0,1
16391,-100,4,2,1,60,0,1
17034,-100,4,2,1,65,0,1
17248,-100,4,2,1,60,0,1
17462,-100,4,2,3,60,0,1
17677,-100,4,2,1,60,0,1
17891,-100,4,2,1,65,0,1
18105,-100,4,2,1,60,0,1
18962,-100,4,2,1,65,0,1
19177,-100,4,2,1,60,0,1
19605,-100,4,2,1,65,0,1
19819,-100,4,2,1,60,0,1
20462,-100,4,2,1,65,0,1
20569,-100,4,2,1,60,0,1
20891,-100,4,2,3,60,0,1
21105,-100,4,2,1,60,0,1
21319,-100,4,2,1,65,0,1
21534,-100,4,2,1,60,0,1
21962,-100,4,2,1,60,0,0
22177,-100,4,2,3,60,0,0
22391,-100,4,2,1,65,0,1
22605,-100,4,2,1,60,0,1
23034,-100,4,2,1,65,0,1
23248,-100,4,2,1,60,0,1
23891,-100,4,2,1,65,0,1
24105,-100,4,2,1,60,0,1
24319,-100,4,2,3,60,0,1
24534,-100,4,2,1,60,0,1
24748,-100,4,2,1,65,0,1
24962,-100,4,2,1,60,0,1
25819,-100,4,2,2,65,0,1
26248,-100,4,2,1,60,0,1
26462,-100,4,2,2,65,0,1
26677,-100,4,2,1,60,0,1
27105,-100,4,2,2,65,0,1
27534,-100,4,2,1,60,0,1
27748,-100,4,2,3,60,0,1
27962,-100,4,2,1,60,0,1
28177,-100,4,2,2,65,0,1
28391,-100,4,2,1,65,0,0
30748,-100,4,2,1,65,0,0
30962,-100,4,2,1,60,0,0
31177,-100,4,2,3,60,0,0
31391,-100,4,2,1,60,0,0
31605,-100,4,2,1,65,0,0
31819,-100,4,2,1,60,0,0
32677,-100,4,2,1,65,0,0
32891,-100,4,2,1,60,0,0
33319,-100,4,2,1,65,0,0
33534,-100,4,2,1,60,0,0
34177,-100,4,2,1,65,0,0
34284,-100,4,2,1,60,0,0
34605,-100,4,2,3,60,0,0
34819,-100,4,2,1,60,0,0
35034,-100,4,2,1,65,0,0
35248,-100,4,2,1,60,0,0
35891,-100,4,2,3,60,0,0
36105,-100,4,2,1,65,0,0
36319,-100,4,2,1,60,0,0
36748,-100,4,2,1,65,0,0
36962,-100,4,2,1,60,0,0
38034,-100,4,2,3,60,0,0
38248,-100,4,2,1,60,0,0
38462,-100,4,2,1,65,0,0
38677,-100,4,2,1,60,0,0
39534,-100,4,2,2,65,0,0
39748,-100,4,2,1,60,0,0
40177,-100,4,2,2,65,0,0
40391,-100,4,2,1,60,0,0

[Colours]
Combo1 : 82,38,121
Combo2 : 214,214,214
Combo3 : 0,70,113
Combo4 : 218,223,0

[HitObjects]
256,192,1819,5,8,0:0:0:0:
332,236,2034,2,0,P|348:192|332:148,1,96,0|0,0:0|0:0,0:0:0:0:
180,148,2462,2,0,P|164:192|180:236,2,96,0|0|0,0:0|0:0|0:0,0:0:0:0:
348,48,3105,5,0,0:0:0:0:
164,48,3319,1,0,0:0:0:0:
340,148,3534,2,0,P|384:140|428:108,1,96,8|0,0:0|0:0,0:0:0:0:
172,148,3962,2,0,P|128:140|84:108,1,96,0|0,0:0|0:0,0:0:0:0:
312,240,4391,2,0,P|336:284|376:316,1,96,0|0,0:0|0:0,0:0:0:0:
200,240,4819,2,0,P|176:284|136:316,1,96,0|0,0:0|0:0,0:0:0:0:
256,148,5248,5,8,0:0:0:0:
356,116,5462,2,0,P|328:68|292:48,2,96,0|0|0,0:0|0:0|0:0,0:0:0:0:
218,247,6105,2,0,P|184:228|156:180,1,96,0|0,0:0|0:0,0:0:0:0:
343,240,6534,5,0,0:0:0:0:
343,240,6748,1,0,0:0:0:0:
208,316,6962,2,0,P|168:360|120:372,1,96,8|0,0:2|0:0,0:0:0:0:
304,316,7391,2,0,P|344:360|392:372,1,96,0|0,0:0|0:0,0:0:0:0:
169,240,7819,1,0,0:0:0:0:
256,108,8034,2,0,L|256:-8,2,96,0|2|0,0:0|0:0|0:0,0:0:0:0:
256,108,8677,5,8,0:2:0:0:
432,176,8891,2,0,L|368:248,2,96,0|0|0,0:0|0:0|0:0,0:0:0:0:
256,124,9534,5,8,0:2:0:0:
80,80,9962,2,0,L|144:8,1,96,0|8,0:0|0:0,0:0:0:0:
256,140,10391,5,8,0:0:0:0:
408,240,10605,2,0,P|380:280|332:296,2,96,0|0|0,0:0|0:0|0:0,0:0:0:0:
256,156,11248,5,8,0:0:0:0:
182,295,11462,2,0,P|140:280|112:240,1,96,0|0,0:0|0:0,0:0:0:0:
112,228,11784,1,8,0:0:0:0:
112,216,11891,1,0,0:0:0:0:
112,204,11998,1,8,0:0:0:0:
256,192,12105,12,4,13819,0:0:0:0:
0,160,15534,5,4,0:0:0:0:
52,68,15748,2,0,L|140:120,1,96,0|2,0:0|0:0,0:0:0:0:
224,16,16177,1,4,0:0:0:0:
244,188,16391,2,0,P|336:184|408:120,1,192,8|2,0:0|0:0,0:0:0:0:
264,16,17034,1,4,0:0:0:0:
412,116,17248,6,0,L|496:68,1,96,0|8,0:0|0:0,0:0:0:0:
304,92,17677,1,2,0:0:0:0:
262,116,17784,1,0,0:0:0:0:
220,140,17891,1,4,0:0:0:0:
220,140,18105,6,0,L|204:240,1,96,8|0,0:0|0:0,0:0:0:0:
300,296,18534,1,2,0:0:0:0:
132,320,18748,1,0,0:0:0:0:
352,384,18962,5,4,0:0:0:0:
412,288,19177,2,0,B|376:256|376:256|364:208,1,96,0|2,0:0|0:0,0:0:0:0:
440,136,19605,1,4,0:0:0:0:
284,280,19819,1,8,0:0:0:0:
0,136,20248,6,0,L|96:168,1,96,2|4,0:0|0:0,0:0:0:0:
136,180,20569,1,0,0:0:0:0:
136,180,20677,1,0,0:0:0:0:
72,328,20891,6,0,L|88:356,1,24,8|8,0:0|0:0,0:0:0:0:
56,332,20998,2,0,L|56:360,1,24,8|8,0:0|0:0,0:0:0:0:
40,336,21105,2,0,L|4:384,2,48,2|0|4,0:0|0:0|0:0,0:0:0:0:
196,344,21534,2,0,P|236:356|292:352,1,96,8|0,0:0|0:0,0:0:0:0:
104,216,21962,5,2,0:0:0:0:
224,92,22177,6,8,L|200:80,3,24
252,100,22391,2,0,P|304:80|328:40,1,96,4|0,0:0|0:0,0:0:0:0:
136,20,22819,1,0,0:0:0:0:
207,198,23034,1,4,0:0:0:0:
326,47,23248,2,0,P|420:40|502:91,1,192,8|0,0:0|0:0,0:0:0:0:
385,190,23891,1,4,0:0:0:0:
307,322,24105,6,0,P|348:345|396:343,1,96,0|8,0:0|0:0,0:0:0:0:
262,209,24534,1,0,0:0:0:0:
221,186,24641,1,0,0:0:0:0:
173,187,24748,1,4,0:0:0:0:
17,77,24962,6,0,L|37:173,1,96,8|0,0:0|0:0,0:0:0:0:
193,281,25391,2,0,L|173:185,1,96
293,41,25819,6,0,P|373:65|413:109,1,144,4|2,0:0|0:0,0:0:0:0:
416,112,26248,1,2,0:0:0:0:
352,284,26462,1,4,0:0:0:0:
352,148,26677,1,8,0:0:0:0:
416,320,26891,1,0,0:0:0:0:
316,68,27105,2,0,P|212:76|140:128,1,192,6|0,0:0|0:0,0:0:0:0:
142,260,27748,5,8,0:0:0:0:
258,193,27962,1,2,0:0:0:0:
143,125,28177,1,4,0:0:0:0:
259,327,28391,5,4,0:0:0:0:
64,36,30105,5,8,0:0:0:0:
64,36,30534,6,0,P|64:88|80:128,1,96,2|4,0:0|0:0,0:0:0:0:
160,68,30962,1,0,0:0:0:0:
0,188,31177,1,8,0:0:0:0:
156,212,31391,1,2,0:0:0:0:
156,212,31498,2,0,L|208:220,1,48,0|4,0:0|0:0,0:0:0:0:
316,312,31819,6,0,P|340:276|344:224,1,96,8|0,0:0|0:0,0:0:0:0:
264,48,32248,1,2,0:0:0:0:
200,144,32462,1,0,0:0:0:0:
344,224,32677,6,0,L|440:224,1,96,4|0,0:0|0:0,0:0:0:0:
512,100,33105,1,2,0:0:0:0:
368,100,33319,1,4,0:0:0:0:
440,224,33534,6,0,P|416:320|336:328,1,192,8|2,0:0|0:0,0:0:0:0:
164,304,34177,1,4,0:0:0:0:
152,324,34284,1,0,0:0:0:0:
140,344,34391,1,0,0:0:0:0:
52,196,34605,6,8,L|24:208,3,24
48,172,34819,2,0,L|0:148,2,48,2|0|4,0:0|0:0|0:0,0:0:0:0:
227,255,35248,2,0,L|283:338,1,96,8|0,0:0|0:0,0:0:0:0:
160,159,35677,5,2,0:0:0:0:
267,36,35891,6,8,L|260:11,1,24
287,32,35998,2,8,L|284:8,1,24
307,29,36105,2,0,P|356:28|400:48,1,96,4|0,0:0|0:0,0:0:0:0:
472,188,36534,1,0,0:0:0:0:
400,328,36748,1,4,0:0:0:0:
288,184,36962,2,0,L|192:184,1,96,8|0,0:0|0:0,0:0:0:0:
408,188,37391,6,0,P|408:272|380:324,1,144
380,324,37819,1,0,0:0:0:0:
268,192,38034,1,8,0:0:0:0:
164,328,38248,1,0,0:0:0:0:
164,328,38355,1,0,0:0:0:0:
164,328,38462,1,4,0:0:0:0:
269,290,38677,6,0,P|297:330|293:382,1,96,8|0,0:0|0:0,0:0:0:0:
181,218,39105,2,0,P|153:178|157:126,1,96
256,74,39534,5,4,0:0:0:0:
256,309,39748,1,0,0:0:0:0:
357,133,39962,1,2,0:0:0:0:
154,250,40176,1,4,0:0:0:0:
357,250,40391,1,8,0:0:0:0:
154,133,40605,1,0,0:0:0:0:
256,192,40819,12,4,42105,0:0:0:0:
