osu file format v12

[General]
AudioFilename: Baauer - Harlem Shake.mp3
AudioLeadIn: 0
PreviewTime: 19069
Countdown: 0
SampleSet: Soft
StackLeniency: 0.7
Mode: 0
LetterboxInBreaks: 0
EpilepsyWarning: 1
WidescreenStoryboard: 1

[Editor]
DistanceSpacing: 1.5
BeatDivisor: 8
GridSize: 4
TimelineZoom: 1

[Metadata]
Title:Harlem Shake
TitleUnicode:Harlem Shake
Artist:Baauer
ArtistUnicode:Baauer
Creator:pimpG
Version:Hard
Source:
Tags:meme terrorista durarara Tur00 newtoniorock8 Stefan YunoFanatic _Gezo_ Techno
BeatmapID:276226
BeatmapSetID:105186

[Difficulty]
HPDrainRate:6
CircleSize:4
OverallDifficulty:6
ApproachRate:7
SliderMultiplier:1.6
SliderTickRate:1

[Events]
//Background and Video events
0,0,"BG.jpg",0,0
//Break Periods
//Storyboard Layer 0 (Background)
//Storyboard Layer 1 (Fail)
//Storyboard Layer 2 (Pass)
//Storyboard Layer 3 (Foreground)
//Storyboard Sound Samples
//Background Colour Transformations
3,100,0,0,0

[TimingPoints]
1819.86697396971,428.571428571429,4,2,1,60,1,0
10177,-100,4,2,3,60,0,0
10391,-100,4,2,1,60,0,0
11248,-100,4,2,0,60,0,0
15534,-100,4,2,1,65,0,1
15748,-100,4,2,1,60,0,1
16177,-100,4,2,1,65,0,1
16391,-100,4,2,1,60,0,1
16605,-100,4,2,1,60,0,1
17034,-100,4,2,1,65,0,1
17248,-100,4,2,1,60,0,1
17462,-100,4,2,3,60,0,1
17677,-100,4,2,1,60,0,1
17891,-100,4,2,1,65,0,1
18105,-100,4,2,0,60,0,1
18319,-100,4,2,1,60,0,1
18962,-100,4,2,1,65,0,1
19177,-100,4,2,1,60,0,1
19605,-100,4,2,1,65,0,1
19819,-100,4,2,0,60,0,1
20248,-100,4,2,1,60,0,1
20462,-100,4,2,1,65,0,1
20677,-100,4,2,1,60,0,1
20891,-100,4,2,3,60,0,1
21105,-100,4,2,1,60,0,1
21534,-100,4,2,0,60,0,1
21748,-100,4,2,1,60,0,1
21962,-100,4,2,1,60,0,0
22391,-100,4,2,1,65,0,1
22605,-100,4,2,1,60,0,1
23034,-100,4,2,1,65,0,1
23248,-100,4,2,1,60,0,1
23891,-100,4,2,1,65,0,1
24105,-100,4,2,1,60,0,1
24319,-100,4,2,3,60,0,1
24534,-100,4,2,1,60,0,1
24748,-100,4,2,1,65,0,1
24962,-100,4,2,1,60,0,1
25819,-100,4,2,2,65,0,1
26248,-100,4,2,1,60,0,1
26462,-100,4,2,2,65,0,1
26677,-100,4,2,0,60,0,1
27105,-100,4,2,2,66,0,1
27534,-100,4,2,1,60,0,1
27748,-100,4,2,3,60,0,1
27962,-100,4,2,1,60,0,1
28177,-100,4,2,2,65,0,1
28391,-100,4,2,1,65,0,0
30105,-100,4,2,1,60,0,0
30748,-100,4,2,1,65,0,0
30962,-100,4,2,1,60,0,0
31177,-100,4,2,3,60,0,0
31391,-100,4,2,1,60,0,0
31605,-100,4,2,1,65,0,0
31819,-100,4,2,1,60,0,0
32677,-100,4,2,1,65,0,0
32891,-100,4,2,1,60,0,0
33319,-100,4,2,1,65,0,0
33534,-100,4,2,1,60,0,0
34177,-100,4,2,1,65,0,0
34391,-100,4,2,1,60,0,0
34605,-100,4,2,3,60,0,0
34819,-100,4,2,1,60,0,0
36105,-100,4,2,1,65,0,0
36319,-100,4,2,1,60,0,0
36748,-100,4,2,1,65,0,0
36962,-100,4,2,1,60,0,0
37605,-100,4,2,1,65,0,0
37819,-100,4,2,1,60,0,0
38034,-100,4,2,3,60,0,0
38248,-100,4,2,1,60,0,0
38462,-100,4,2,1,65,0,0
38677,-100,4,2,1,60,0,0
39534,-100,4,2,2,65,0,0
39748,-100,4,2,1,60,0,0
40177,-100,4,2,2,65,0,0
40391,-100,4,2,1,60,0,0

[Colours]
Combo1 : 82,38,121
Combo2 : 214,214,214
Combo3 : 0,70,113
Combo4 : 218,223,0

[HitObjects]
256,16,1819,5,8,0:0:0:0:
200,72,2034,2,0,L|120:64,1,80
88,136,2462,2,0,L|8:128,1,80
0,264,3105,5,0,0:0:0:0:
4,260,3319,1,0,0:0:0:0:
8,256,3534,2,0,L|88:248,1,80,8|0,0:0|0:0,0:0:0:0:
120,320,3962,2,0,L|200:312,1,80
252,372,4391,1,0,0:0:0:0:
256,368,4605,1,0,0:0:0:0:
312,312,4819,2,0,L|392:320,1,80,0|0,0:0|0:0,0:0:0:0:
186,152,5462,6,0,L|117:112,1,80
186,231,5891,2,0,L|117:272,1,80
256,192,6534,5,0,0:0:0:0:
256,192,6748,1,0,0:0:0:0:
325,231,6962,2,0,L|394:272,1,80,8|0,0:0|0:0,0:0:0:0:
325,152,7391,2,0,L|394:112,1,80
256,112,7819,2,0,L|256:32,1,80
256,272,8248,2,0,L|256:352,1,80,0|0,0:0|0:0,0:0:0:0:
352,188,8891,5,0,0:0:0:0:
368,200,9105,1,0,0:0:0:0:
160,188,9319,1,0,0:0:0:0:
144,200,9534,1,8,0:0:0:0:
256,88,9962,6,0,L|256:8,1,80,0|8,0:0|0:0,0:0:0:0:
352,60,10391,1,8,0:0:0:0:
368,48,10605,1,0,0:0:0:0:
160,60,10819,1,0,0:0:0:0:
144,48,11034,1,0,0:0:0:0:
256,224,11248,1,8,0:0:0:0:
256,244,11462,1,0,0:0:0:0:
256,264,11677,2,0,L|256:344,1,80,0|0,0:0|0:0,0:0:0:0:
256,192,12105,12,4,13819,0:0:0:0:
504,40,15534,5,4,0:0:0:0:
436,108,15748,2,0,L|348:88,1,80,0|2,0:0|0:0,0:0:0:0:
380,184,16177,1,4,0:0:0:0:
428,296,16391,2,0,P|364:312|288:264,1,160,8|2,0:0|0:0,0:0:0:0:
284,169,17034,1,4,0:0:0:0:
132,140,17248,6,0,L|56:180,1,80,0|8,0:0|0:0,0:0:0:0:
188,56,17677,1,2,0:0:0:0:
188,56,17784,2,0,L|248:28,1,40,0|4,0:0|0:0,0:0:0:0:
212,136,18105,2,0,P|256:164|316:164,1,80,8|0,0:0|0:0,0:0:0:0:
104,60,18534,2,0,P|60:32|0:32,1,80,2|0,0:0|0:0,0:0:0:0:
33,27,18962,5,4,0:0:0:0:
8,120,19177,2,0,P|12:172|36:200,1,80,0|2,0:0|0:0,0:0:0:0:
112,240,19605,1,4,0:0:0:0:
12,336,19819,1,8,0:0:0:0:
12,336,20248,6,0,L|92:352,1,80,2|4,0:0|0:0,0:0:0:0:
188,360,20677,1,0,0:0:0:0:
320,340,20891,2,0,L|336:352,4,20,8|8|8|8|2,0:0|0:0|0:0|0:0|0:0,0:0:0:0:
280,312,21212,2,0,P|244:260|252:192,1,120,0|8,0:0|0:0,0:0:0:0:
316,128,21748,1,0,0:0:0:0:
204,52,21962,5,2,0:0:0:0:
204,52,22391,6,0,L|112:52,1,80,4|0,0:0|0:0,0:0:0:0:
32,80,22819,1,0,0:0:0:0:
0,172,23034,1,4,0:0:0:0:
100,240,23248,2,0,P|180:244|252:212,1,160,8|0,0:0|0:0,0:0:0:0:
152,144,23891,1,4,0:0:0:0:
256,84,24105,6,0,P|316:96|348:116,1,80,0|8,0:0|0:0,0:0:0:0:
452,96,24534,2,0,L|480:56,2,40,0|0|4,0:0|0:0|0:0,0:0:0:0:
388,196,24962,1,8,0:0:0:0:
340,308,25177,1,0,0:0:0:0:
313,191,25391,1,0,0:0:0:0:
404,269,25605,1,0,0:0:0:0:
284,259,25819,6,0,P|208:263|124:235,1,160,4|2,0:0|0:0,0:0:0:0:
96,204,26462,1,4,0:0:0:0:
96,204,26677,2,0,L|64:280,1,80,8|0,0:0|0:0,0:0:0:0:
48,120,27105,2,0,P|116:76|196:72,1,160,6|0,0:0|0:0,0:0:0:0:
256,144,27748,5,8,0:0:0:0:
268,148,27962,1,2,0:0:0:0:
280,152,28177,2,0,L|384:152,1,80,4|4,0:0|0:0,0:0:0:0:
88,184,30105,5,8,0:0:0:0:
88,184,30534,6,0,P|88:236|116:272,1,80,2|4,0:0|0:0,0:0:0:0:
156,124,30962,2,0,L|148:40,1,80,0|8,0:0|0:0,0:0:0:0:
172,208,31391,1,2,0:0:0:0:
188,220,31498,1,0,0:0:0:0:
204,232,31605,2,0,L|284:232,1,80,4|8,0:0|0:0,0:0:0:0:
330,342,32034,1,0,0:0:0:0:
382,232,32248,1,2,0:0:0:0:
432,342,32462,1,0,0:0:0:0:
475,232,32677,6,0,P|467:184|447:156,1,80,4|0,0:0|0:0,0:0:0:0:
340,112,33105,1,2,0:0:0:0:
310,229,33319,1,4,0:0:0:0:
340,112,33534,2,0,P|242:129|202:177,1,160,8|2,0:0|0:0,0:0:0:0:
159,283,34177,2,0,P|123:263|103:227,1,80,4|0,0:0|0:0,0:0:0:0:
16,149,34605,6,8,L|5:166,4,20,8|8|8|8|2,0:0|0:0|0:0|0:0|0:0,0:0:0:0:
20,112,34927,2,0,P|60:64|120:40,1,120,0|8,0:0|0:0,0:0:0:0:
212,108,35462,1,0,0:0:0:0:
320,24,35677,5,2,0:0:0:0:
320,24,36105,5,4,0:0:0:0:
368,108,36319,2,0,L|456:96,1,80
499,178,36748,1,4,0:0:0:0:
418,277,36962,1,8,0:0:0:0:
418,277,37391,6,0,L|338:293,1,80,0|4,0:0|0:0,0:0:0:0:
226,332,37819,2,0,P|254:368|310:384,2,80,0|8|0,0:0|0:0|0:0,0:0:0:0:
214,316,38355,1,0,0:0:0:0:
210,296,38462,1,4,0:0:0:0:
246,181,38677,2,0,P|210:165|170:161,1,80,8|0,0:0|0:0,0:0:0:0:
302,265,39105,2,0,P|338:281|378:285,1,80
451,189,39534,5,4,0:0:0:0:
364,108,39748,2,0,L|364:24,1,80,0|2,0:0|0:0,0:0:0:0:
256,160,40177,1,4,0:0:0:0:
148,108,40391,2,0,L|148:24,1,80,8|0,0:0|0:0,0:0:0:0:
256,192,40819,12,4,42105,0:0:0:0:
