osu file format v9

[General]
AudioFilename: By2 - Mesona Honey Drink.mp3
AudioLeadIn: 0
PreviewTime: 77586
Countdown: 0
SampleSet: Normal
StackLeniency: 0.7
Mode: 0
LetterboxInBreaks: 0
EpilepsyWarning: 1

[Editor]
DistanceSpacing: 0.9
BeatDivisor: 4
GridSize: 8

[Metadata]
Title:Mesona Honey Drink
Artist:BY2
Creator:yzhbxiang
Version:Challenge
Source:
Tags:16-Immaturity xiancaomi

[Difficulty]
HPDrainRate:6
CircleSize:4
OverallDifficulty:6
ApproachRate:8
SliderMultiplier:1.4
SliderTickRate:2

[Events]
//Background and Video events
0,0,"background.jpg"
//Break Periods
2,66387,75593
2,118888,128094
//Storyboard Layer 0 (Background)
//Storyboard Layer 1 (Fail)
//Storyboard Layer 2 (Pass)
//Storyboard Layer 3 (Foreground)
Sprite,Foreground,Centre,"white.jpg",320,240 F,0,46656,46734,0.5,0 F,0,46812,46890,0.5,0 F,0,99156,99234,0.5,0 F,0,99312,99390,0.5,0 F,0,136344,136383,0,0.5 F,0,136422,136461,0,0.5 F,0,136500,136539,0,0.5 F,0,136578,136617,0,0.5 F,0,136656,136695,0,0.5 F,0,136734,136773,0,0.5 F,0,136812,136851,0,0.5 F,0,136890,136929,0,0.5 F,0,136969,137008,0,0.5 F,0,137047,137086,0,0.5 F,0,137125,137164,0,0.5 F,0,137203,137281,0,0.5 F,0,137281,137437,0.5,0 F,0,139625,139703,0.5,0 F,0,139781,139859,0.5,0 F,0,139937,140015,0.5,0 F,0,150094,150172,0.5,0 F,0,150250,150328,0.5,0 F,0,160094,160172,0.5,0 F,0,160250,160328,0.5,0
//Storyboard Sound Samples
//Background Colour Transformations
3,100,163,162,255

[TimingPoints]
5094,312.5,4,1,0,70,1,0
6031,-100,4,2,0,70,0,0
6422,-100,4,1,0,70,0,0
8531,-133.333333333333,4,2,0,70,0,0
8922,-100,4,1,0,70,0,0
11031,-133.333333333333,4,2,0,70,0,0
11422,-100,4,1,0,70,0,0
13531,-133.333333333333,4,2,0,70,0,0
13922,-100,4,1,0,70,0,0
14156,-100,4,1,0,45,0,0
14312,-100,4,1,0,50,0,0
14469,-100,4,1,0,55,0,0
14625,-100,4,1,0,60,0,0
14781,-100,4,1,0,65,0,0
14937,-100,4,1,0,70,0,0
23844,-100,4,2,0,100,0,0
24078,-100,4,1,0,70,0,0
27281,-100,4,2,0,70,0,0
27672,-100,4,1,0,70,0,0
29781,-100,4,2,0,70,0,0
30172,-100,4,1,0,70,0,0
32281,-100,4,2,0,70,0,0
32594,-133.333333333333,4,1,0,70,0,0
33531,-100,4,1,0,70,0,0
35406,-100,4,2,0,70,0,0
35797,-100,4,1,0,70,0,0
36656,-100,4,2,0,70,0,0
37047,-100,4,1,0,70,0,0
38844,-133.333333333333,4,1,0,70,0,0
39156,-100,4,1,0,70,0,0
40406,-100,4,2,0,70,0,0
40797,-100,4,1,0,70,0,0
41656,-100,4,2,0,70,0,0
42047,-100,4,1,0,70,0,0
42594,-133.333333333333,4,1,0,70,0,0
43531,-100,4,1,0,70,0,0
45094,-100,4,1,0,45,0,0
46031,-100,4,2,0,55,0,0
46422,-100,4,1,0,70,0,0
46656,-100,4,1,0,100,0,0
46890,-100,4,1,0,70,0,0
46969,-133.333333333333,4,1,0,70,0,0
47281,-100,4,1,0,70,0,0
47594,-100,4,1,0,70,0,1
56969,-133.333333333333,4,1,0,70,0,1
57594,-100,4,1,0,70,0,1
66344,-100,4,1,0,70,0,0
76344,-100,4,2,0,100,0,0
76578,-100,4,1,0,45,0,0
76890,-100,4,1,0,55,0,0
79781,-100,4,2,0,70,0,0
80172,-100,4,1,0,70,0,0
82281,-100,4,2,0,70,0,0
82672,-100,4,1,0,70,0,0
84781,-100,4,2,0,70,0,0
85094,-133.333333333333,4,1,0,70,0,0
86031,-100,4,1,0,70,0,0
87906,-100,4,2,0,70,0,0
88297,-100,4,1,0,70,0,0
89156,-100,4,2,0,70,0,0
89547,-100,4,1,0,70,0,0
91344,-133.333333333333,4,1,0,70,0,0
91656,-100,4,1,0,70,0,0
92906,-100,4,2,0,70,0,0
93297,-100,4,1,0,70,0,0
94156,-100,4,2,0,70,0,0
94547,-100,4,1,0,70,0,0
95094,-133.333333333333,4,1,0,70,0,0
96031,-100,4,1,0,70,0,0
97594,-100,4,1,0,35,0,0
98531,-100,4,2,0,45,0,0
98922,-100,4,1,0,70,0,0
99156,-100,4,1,0,100,0,0
99390,-100,4,1,0,70,0,0
99469,-133.333333333333,4,1,0,70,0,0
99781,-100,4,1,0,70,0,0
100094,-100,4,1,0,70,0,1
109469,-133.333333333333,4,1,0,70,0,1
110094,-100,4,1,0,70,0,1
118844,-100,4,1,0,70,0,0
128844,-100,4,2,0,100,0,0
130094,-133.333333333333,4,1,0,70,0,0
134625,-100,4,1,0,70,0,0
136344,-100,4,1,0,55,0,0
137359,-100,4,1,0,70,0,0
140719,-133.333333333333,4,1,0,35,0,0
141031,-100,4,1,0,35,0,0
150094,-100,4,2,0,70,0,0
150328,-100,4,1,0,45,0,0
150719,-133.333333333333,4,1,0,100,0,0
151031,-133.333333333333,4,1,0,70,0,0
151344,-100,4,1,0,70,0,1
160094,-100,4,2,0,100,0,0
160328,-100,4,1,0,70,0,0
170094,-100,4,2,0,100,0,0
170328,-100,4,1,0,70,0,0
171344,-100,4,1,0,35,0,0

[Colours]
Combo1 : 0,255,255
Combo2 : 255,0,255
Combo3 : 255,255,0
Combo4 : 128,255,0

[HitObjects]
256,192,5093,1,0
256,72,5406,2,0,B|216:72|216:72|184:104,2,70
256,192,6031,1,2
376,192,6343,1,2
136,192,6812,1,0
376,192,7281,1,0
256,192,7593,5,0
256,312,7906,2,0,B|296:312|296:312|328:280,2,70
112,240,8531,2,0,B|88:192|112:136,1,104.999996870756,2|2
256,192,9312,1,0
200,72,9781,2,0,B|224:16|288:16|312:80,1,140
256,192,10406,5,0
256,192,10562,1,0
256,192,10718,1,0
400,144,11031,2,0,B|432:192|400:248,1,104.999996870756,2|2
256,192,11812,1,0
312,312,12281,2,0,B|288:368|224:368|200:304,1,140
256,192,12906,5,0
256,192,13062,1,0
256,192,13218,1,0
208,64,13531,2,0,B|256:40|312:64,1,104.999996870756
344,192,14156,5,0
296,272,14312,1,0
216,272,14469,1,0
168,192,14625,1,0
216,112,14781,1,0
296,112,14937,1,0
344,192,15093,5,0
464,192,15406,1,0
464,192,15562,1,0
256,192,16031,1,0
256,72,16343,2,0,B|288:56|288:56|352:56,1,70,2|2
344,192,16812,1,0
256,312,17125,2,0,B|224:328|224:328|160:328,1,70,0|0
168,192,17593,5,0
48,192,17906,1,0
48,192,18062,1,0
256,192,18531,1,0
64,56,18843,1,2
128,56,19000,1,2
256,192,19312,1,0
384,328,19625,1,0
448,328,19781,1,0
344,192,20093,5,0
176,192,20406,1,0
176,192,20562,1,0
344,192,21031,1,0
256,56,21343,2,0,B|240:88|240:88|256:120,1,70,2|2
344,192,21812,1,0
256,328,22125,2,0,B|272:296|272:296|256:264,1,70,0|0
128,320,22593,5,0
256,192,23062,1,0
128,320,23531,1,0
80,192,23843,2,0,B|80:96,3,70,2|2|2|2
168,120,24468,2,0,B|168:208,3,70,0|0|2|6
472,192,25406,5,0
424,152,25562,1,0
376,192,25718,1,0
256,192,26031,1,0
192,104,26343,2,0,B|192:64|256:32,1,70
320,280,26812,2,0,B|320:320|256:352,1,70
120,192,27281,1,2
120,192,27593,1,2
392,192,27906,6,0,B|464:192,2,70
256,192,28531,1,0
256,72,28843,1,0
320,72,29000,1,0
448,312,29312,1,0
384,312,29468,1,0
384,192,29781,1,2
384,192,29937,1,8
384,192,30093,1,2
216,152,30406,6,0,B|176:152|152:96,2,70
288,232,31031,1,0
152,280,31343,2,0,B|224:352,1,70
360,104,31812,2,0,B|288:32,1,70
256,192,32281,1,2
144,192,32594,6,0,B|176:240|144:296,3,104.999996870756
256,192,33843,2,0,B|392:192,1,105
256,264,34312,2,0,B|328:264,1,70,0|2
256,192,34781,1,0
152,192,35093,5,0
256,40,35406,2,0,B|208:40|192:96,2,70,2|0|2
312,192,36031,1,0
200,192,36343,1,0
256,344,36656,2,0,B|304:344|320:288,2,70,2|0|2
128,344,37281,1,0
104,224,37594,6,0,B|32:224|32:224|32:160|32:160|104:160,2,210
200,192,38844,2,0,B|304:192,1,104.999996870756
416,128,39469,2,0,B|464:192|408:272,1,140
200,192,40093,5,0
104,88,40406,1,2
40,40,40562,1,0
104,88,40718,1,2
200,192,41031,1,0
312,192,41343,1,0
408,296,41656,1,2
472,344,41812,1,0
408,296,41968,1,2
256,192,42281,5,0
328,296,42594,2,0,B|288:344|224:344|176:288,2,157.499995306134
160,192,43843,1,0
184,160,43999,1,0
216,136,44156,1,0
256,128,44312,1,0
296,136,44468,1,0
328,160,44625,1,0
352,192,44781,1,0
480,144,45093,5,2
440,32,45406,2,2,B|480:32|480:32|480:64,2,70
480,144,46031,1,2
440,32,46343,1,2
256,192,46656,6,0,B|224:176|184:192,1,70
168,256,46969,2,0,B|224:280|272:256,1,104.999996870756
400,256,47593,1,0
400,256,47749,2,0,B|432:240|432:240|480:264,2,70
400,256,48218,1,0
256,192,48531,1,0
400,128,48843,1,0
184,48,49156,2,2,B|120:112,1,70
72,160,49468,5,0
72,288,49781,1,0
176,160,50093,1,0
232,192,50249,1,0
288,224,50406,1,0
232,256,50562,1,0
176,288,50718,1,0
72,160,51031,1,0
72,288,51343,1,0
216,160,51656,2,2,B|280:96,1,70
328,48,51968,5,0
456,48,52281,1,0
392,144,52593,1,0
328,112,52749,1,0
392,144,52906,1,0
456,112,53062,1,0
392,144,53219,2,0,B|424:216|392:288,2,140
256,192,54156,2,2,B|216:192|216:192|176:224,1,70
128,264,54468,5,0
256,192,54781,1,0
256,80,55093,1,0
320,80,55249,1,0
256,304,55562,1,0
192,304,55718,1,0
256,192,56031,1,0
256,192,56343,1,0
256,80,56656,2,2,B|296:80|296:80|336:112,1,70
384,160,56969,6,0,B|416:208|376:264,2,104.999996870756
384,160,57749,1,0
320,176,57906,1,0
256,192,58062,1,0
256,256,58218,1,0
128,32,58531,1,0
384,32,58843,1,0
416,192,59156,2,2,B|416:280,1,70
344,304,59468,5,0
216,304,59781,1,0
96,240,60093,1,0
104,176,60249,1,0
112,112,60406,1,0
168,152,60562,1,0
160,216,60718,1,0
272,200,61031,2,0,B|312:144|312:144|360:200,1,140
320,312,61656,2,2,B|288:336|232:304,1,70
168,296,61968,5,0
80,192,62281,1,0
144,64,62593,1,0
208,64,62749,1,0
208,176,63062,1,0
272,176,63218,1,0
136,176,63531,1,0
208,64,63843,5,0
272,64,63999,1,0
272,176,64312,1,0
336,176,64468,1,0
208,176,64781,1,0
288,56,65093,6,2,B|256:40|256:40|224:56,1,70
40,296,65562,6,2,B|42:331|42:331|72:351,1,70
440,352,66031,6,2,B|469:332|469:332|472:296,1,70,2|6
160,232,76343,5,2
160,152,76499,1,2
216,96,76655,1,0
296,96,76812,1,0
352,152,76968,1,0
352,232,77124,1,0
296,288,77280,1,0
216,288,77437,1,0
40,192,77905,5,0
88,232,78062,1,0
136,192,78218,1,0
256,192,78530,1,0
336,272,78843,2,0,B|336:312|272:344,1,70
336,112,79312,2,0,B|336:72|400:40,1,70
256,192,79780,1,2
256,192,80093,1,2
120,192,80405,6,0,B|120:152|120:152|160:112,2,70
256,192,81030,1,0
120,312,81343,1,0
168,264,81499,1,0
288,312,81812,1,0
336,264,81968,1,0
448,192,82280,1,2
448,192,82593,1,2
304,192,82905,6,0,B|344:192|376:128,2,70
248,72,83530,1,0
144,136,83843,2,0,B|80:72,1,70
144,248,84312,2,0,B|208:312,1,70
256,192,84780,1,2
368,192,85094,6,0,B|336:240|368:296,3,104.999996870756
256,192,86343,2,0,B|128:192,1,105
256,120,86812,2,0,B|344:120,1,70,0|2
256,192,87280,1,0
360,192,87593,5,0
256,344,87905,2,0,B|296:344|320:280,2,70,2|2|2
200,192,88530,1,0
312,192,88843,1,0
256,40,89156,2,0,B|216:40|192:104,2,70,2|2|2
384,40,89780,1,0
408,160,90094,6,0,B|480:160|480:160|480:224|480:224|408:224,2,210
312,192,91344,2,0,B|208:192,1,104.999996870756
96,256,91969,2,0,B|48:192|104:112,1,140
312,192,92593,5,0
408,344,92905,1,2
472,344,93062,1,2
472,280,93218,1,2
312,192,93530,1,0
200,192,93843,1,0
40,104,94155,1,2
40,40,94312,1,2
104,40,94468,1,2
256,192,94780,5,0
264,72,95094,2,0,B|304:104|304:104|328:88|328:88|352:104|352:104|392:64,2,157.499995306134
232,192,96343,2,0,B|136:192,1,70
256,216,96655,2,0,B|256:288,1,70
280,192,96968,2,0,B|352:192,1,70
256,160,97280,1,0
480,240,97593,5,2
440,352,97905,2,2,B|480:352|480:352|480:312,2,70
480,240,98530,1,2
440,352,98843,1,2
256,192,99156,6,0,B|288:208|328:192,1,70
344,128,99469,2,0,B|288:104|240:128,1,104.999996870756
112,128,100093,1,0
112,128,100250,2,0,B|56:72,2,70
112,128,100718,1,0
256,192,101030,1,0
256,192,101343,1,0
328,336,101655,2,2,B|384:280,1,70
440,224,101968,5,0
336,160,102280,1,0
440,96,102593,2,0,B|408:72|360:104,4,70
440,96,103530,1,0
440,224,103843,1,0
296,224,104155,2,2,B|240:280,1,70
184,336,104468,5,0
56,336,104780,1,0
120,232,105093,2,0,B|152:232|152:232|208:200,2,70
120,232,105561,1,0
120,232,105719,2,0,B|88:160|120:88,2,140
256,192,106655,2,2,B|288:192|288:192|344:152,1,70
384,120,106968,5,0
256,192,107280,1,0
256,304,107593,1,0
192,304,107749,1,0
256,80,108061,1,0
320,80,108218,1,0
256,192,108530,1,0
256,192,108843,1,0
256,304,109155,2,2,B|224:304|224:304|176:272,1,70
128,224,109469,6,0,B|96:176|128:120,2,104.999996870756
128,224,110249,1,0
192,208,110405,1,0
256,192,110561,1,0
256,128,110719,1,0
384,352,111032,1,0
128,352,111344,1,0
96,192,111655,2,2,B|96:104,1,70
168,80,111968,5,0
296,80,112280,1,0
400,176,112593,1,0
376,240,112749,1,0
336,184,112905,1,0
312,248,113061,1,0
272,192,113218,1,0
136,192,113531,2,0,B|96:248|96:248|48:192,1,140
48,88,114156,2,0,B|80:64|128:96,1,70,2|2
184,96,114468,5,0
368,160,114780,1,0
368,320,115093,1,0
304,320,115249,1,0
304,208,115561,1,0
240,208,115718,1,0
376,208,116030,1,0
304,320,116343,5,0
240,320,116499,1,0
240,208,116811,1,0
176,208,116968,1,0
304,208,117280,1,0
288,328,117594,6,2,B|256:344|256:344|224:328,1,70
40,88,118063,6,2,B|42:52|42:52|72:32,1,70
440,32,118532,6,2,B|469:51|469:51|472:87,1,70,2|6
288,192,128844,6,0,B|328:184|328:184|360:192,1,70,2|2
256,224,129156,2,0,B|264:264|264:264|256:296,1,70,0|0
224,192,129469,2,0,B|184:200|184:200|152:192,1,70
256,160,129781,2,0,B|248:120|248:120|256:88,1,70,0|0
288,192,130094,6,0,B|368:304|256:368|144:304|232:184,1,314.999990612269,4|0
368,192,131344,1,0
368,192,131499,1,0
368,192,131655,1,0
368,192,131811,2,0,B|472:192,1,104.999996870756
224,192,132594,6,0,B|144:80|256:16|368:80|280:200,1,314.999990612269,4|0
144,192,133844,1,2
144,192,133999,1,2
144,192,134155,1,2
144,192,134311,2,0,B|40:192,1,104.999996870756
328,144,135094,6,0,B|408:144,3,70
184,144,135874,2,0,B|96:144,3,70
120,112,136421,5,0
136,80,136499,1,0
160,56,136577,1,0
192,40,136655,1,0
224,32,136733,1,0
256,28,136811,1,0
288,32,136889,1,0
320,40,136969,1,0
352,56,137046,1,0
376,80,137124,1,0
392,112,137202,1,0
400,144,137280,1,4
328,152,137436,6,0,B|344:184|328:224,1,70
184,216,137906,2,0,B|168:184|184:144,1,70
256,80,138374,1,0
352,312,138844,5,0
288,312,138999,1,0
224,312,139155,1,2
160,312,139311,1,2
256,80,139624,5,0
184,192,139780,1,2
320,192,139936,1,6
352,272,140719,6,0,B|304:304|248:272,1,104.999996870756
144,272,141344,2,0,B|128:240|128:240|144:192,1,70
136,144,141656,2,0,B|56:144,2,70
256,192,142280,1,0
256,192,142594,1,0
328,336,142905,2,2,B|392:272,1,70
440,224,143219,5,0
336,160,143530,1,0
192,160,143844,2,0,B|160:152|160:152|120:160,1,70
160,224,144155,1,0
128,288,144312,2,0,B|160:296|160:296|200:288,1,70
288,192,144780,1,0
288,192,145094,1,0
288,72,145405,2,2,B|192:72,1,70
128,72,145719,5,0
48,152,146030,1,0
128,232,146344,2,0,B|88:232|88:232|48:264,2,70
128,232,146811,1,0
128,232,146969,2,0,B|200:200|272:232,2,140
112,96,147905,2,2,B|152:96|152:96|200:56,1,70
256,72,148219,5,0
256,192,148530,1,0
256,304,148844,1,0
192,304,148999,1,0
256,80,149311,1,0
320,80,149469,1,0
256,192,149780,1,0
256,192,150094,1,2
256,256,150249,1,2
256,320,150405,2,2,B|224:320|224:320|176:288,1,70
128,240,150719,6,0,B|96:192|128:136,2,104.999996870756
128,240,151499,1,0
192,240,151655,1,0
256,240,151811,1,0
256,304,151969,1,0
256,40,152280,1,0
256,304,152594,1,0
112,216,152905,2,2,B|112:120,1,70
168,80,153219,5,0
296,80,153530,1,0
328,192,153844,1,0
304,272,153999,1,0
208,272,154155,1,0
184,192,154311,1,0
256,136,154469,1,0
184,192,154781,2,0,B|144:248|144:248|96:192,1,140
72,96,155406,2,0,B|104:72|152:104,1,70,2|2
224,96,155719,5,0
360,168,156030,1,0
224,248,156344,1,0
160,248,156499,1,0
288,248,156811,1,0
352,248,156969,1,0
224,248,157280,1,0
224,120,157594,5,0
160,120,157749,1,0
288,120,158062,1,0
352,120,158219,1,0
224,120,158530,1,0
224,328,158844,6,2,B|256:344|256:344|288:328,1,70
472,88,159313,6,2,B|469:52|469:52|440:32,1,70
72,32,159782,6,2,B|42:51|42:51|40:87,1,70,2|6
64,152,160094,5,2
64,152,160250,1,2
192,152,160561,1,0
64,152,160875,1,0
64,152,161030,1,0
256,40,161344,5,0
440,96,161656,1,0
440,96,161811,1,0
376,280,162280,1,0
256,312,162594,2,0,B|224:328|224:328|192:312,1,70,2|2
208,192,163061,1,0
256,72,163375,2,0,B|288:56|288:56|320:72,1,70,0|0
304,192,163844,5,0
128,192,164156,1,0
128,192,164311,1,0
304,192,164780,1,0
384,328,165094,1,2
448,328,165250,1,2
256,328,165561,1,0
64,328,165875,1,0
128,328,166031,1,0
168,192,166344,5,0
336,192,166656,1,0
336,192,166811,1,0
168,192,167280,1,0
256,328,167594,2,0,B|272:296|272:296|256:264,1,70,2|2
168,192,168061,1,0
254,49,168375,2,0,B|240:80|240:80|256:112,1,70
384,64,168844,5,0
256,192,169311,1,0
72,192,169780,1,0
176,152,170094,2,0,B|176:112|176:112|224:112,1,70,2|2
304,112,170405,2,0,B|336:112|336:112|336:152,1,70,2|2
336,248,170719,2,0,B|336:280|336:280|296:280,1,70
208,280,171030,2,0,B|176:280|176:280|176:224,1,70,2|6
256,192,171344,12,4,173844
