osu file format v9

[General]
AudioFilename: By2 - Mesona Honey Drink.mp3
AudioLeadIn: 0
PreviewTime: 77586
Countdown: 0
SampleSet: Normal
StackLeniency: 0.7
Mode: 0
LetterboxInBreaks: 0
EpilepsyWarning: 1

[Editor]
Bookmarks: 76024
DistanceSpacing: 1.4
BeatDivisor: 2
GridSize: 8

[Metadata]
Title:Mesona Honey Drink
Artist:BY2
Creator:yzhbxiang
Version:Beginner
Source:
Tags:16-Immaturity xiancaomi

[Difficulty]
HPDrainRate:2
CircleSize:3
OverallDifficulty:2
ApproachRate:3
SliderMultiplier:0.8
SliderTickRate:1

[Events]
//Background and Video events
0,0,"background.jpg"
//Break Periods
2,66231,76466
2,118731,127404
//Storyboard Layer 0 (Background)
//Storyboard Layer 1 (Fail)
//Storyboard Layer 2 (Pass)
//Storyboard Layer 3 (Foreground)
//Storyboard Sound Samples
//Background Colour Transformations
3,100,163,162,255

[TimingPoints]
5094,312.5,4,1,0,70,1,0
6031,-100,4,2,0,70,0,0
7281,-100,4,1,0,70,0,0
8531,-100,4,2,0,70,0,0
9781,-100,4,1,0,70,0,0
11031,-100,4,2,0,70,0,0
11500,-100,4,1,0,70,0,0
13531,-100,4,2,0,70,0,0
14000,-100,4,1,0,70,0,0
23844,-100,4,2,0,100,0,0
24000,-100,4,1,0,70,0,0
47594,-100,4,1,0,70,0,1
66344,-100,4,1,0,70,0,0
100094,-100,4,1,0,70,0,1
118844,-100,4,1,0,70,0,0
128844,-100,4,2,0,100,0,0
129156,-100,4,1,0,70,0,0
139937,-100,4,1,0,5,0,0
140719,-100,4,1,0,35,0,0
150719,-100,4,1,0,70,0,0
151344,-100,4,1,0,70,0,1
160094,-100,4,1,0,70,0,0
171344,-100,4,1,0,35,0,0

[Colours]
Combo1 : 0,255,255
Combo2 : 255,0,255
Combo3 : 255,255,0
Combo4 : 128,255,0

[HitObjects]
200,192,5094,2,0,B|168:192|168:192|136:232,2,80,0|0|8
312,192,6031,1,2
320,80,6344,2,0,B|176:80,2,120,2|0|8
312,192,7594,6,0,B|344:192|344:192|376:152,2,80,0|0|0
200,192,8531,1,2
200,304,8844,2,0,B|344:304,2,120,2|0|0
88,304,10094,5,0
88,192,10406,2,0,B|131:177|152:128,1,80
136,32,11031,2,0,B|93:47|72:96,1,80,2|2
240,32,11812,1,0
400,80,12281,6,0,B|384:43|341:28,1,80
344,144,12906,2,0,B|359:180|402:195,1,80,0|0
392,304,13531,2,0,B|280:304,1,80,2|2
200,304,14156,2,0,B|120:304,1,80
88,192,14781,5,0
200,192,15094,2,0,B|240:216|280:216|320:184,2,120
200,80,16344,2,0,B|240:56|280:56|320:88,1,120
472,136,17281,1,0
472,248,17594,6,0,B|432:272|392:272|352:240,2,120
472,136,18844,2,0,B|432:112|392:112|352:144,1,120
256,272,19781,1,0
256,160,20094,1,0
96,96,20562,6,0,B|120:96|120:96|144:48|176:96|176:96|200:96,1,120
312,96,21344,2,0,B|336:96|336:96|360:48|392:96|392:96|416:96,2,120
304,208,22594,6,0,B|280:208|280:208|256:256|224:208|224:208|200:208,1,120
312,336,23531,1,0
200,336,23844,1,2
200,192,25094,5,0
256,96,25406,2,0,B|216:120|176:96|136:72|96:96,1,160
88,208,26344,2,0,B|80:256|24:280,2,80
200,192,27281,1,0
312,192,27594,6,0,B|344:192|344:192|392:232|392:232|424:232,2,120
256,288,28844,2,0,B|256:384,2,80
312,192,29781,1,0
200,192,30094,6,0,B|168:192|168:192|120:152|120:152|88:152,2,120,0|0|0
256,96,31344,2,0,B|296:120|336:96|376:72|416:96,1,160
408,208,32281,1,0
296,208,32594,6,0,B|296:304,3,80
184,288,33844,2,0,B|133:271|104:224,1,80
120,128,34469,2,0,B|135:99|185:83,1,80
200,192,35094,5,2
480,352,36031,1,0
368,352,36343,1,0
32,352,37281,5,0
144,352,37594,2,0,B|272:352,2,120
176,248,38844,2,0,B|352:248,1,160
176,96,40093,5,2
480,248,41031,1,0
480,136,41343,1,0
176,288,42281,5,0
240,192,42594,2,0,B|360:192,2,120
256,192,43844,12,0,45094
256,104,46968,6,0,B|256:184,1,80
256,296,47594,2,0,B|208:296|208:296|168:336,2,80,0|0|2
368,296,48531,1,0
368,192,48843,1,2
144,192,49468,5,0
144,80,49781,1,0
256,80,50094,2,0,B|304:80|304:80|344:40,2,80,0|0|2
256,192,51031,1,0
144,192,51343,1,2
368,192,51969,6,0,B|416:168|416:112,1,80
312,88,52594,1,0
200,88,52906,1,0
144,192,53219,2,0,B|96:168|96:112,2,80,2|0|2
368,192,54469,6,0,B|416:216|416:272,1,80
304,256,55094,2,0,B|256:232|256:176,2,80,0|0|2
192,256,56031,2,0,B|144:232|144:176,1,80,0|2
336,72,56969,5,0
448,72,57281,1,0
392,168,57594,2,0,B|352:248,1,80
256,280,58219,2,0,B|256:368,2,80,2|0|2
176,72,59469,5,0
64,72,59782,1,0
120,168,60094,2,0,B|160:248,2,80,0|0|2
176,72,61031,2,0,B|272:72,1,80,0|2
448,192,61968,5,0
448,304,62281,1,0
352,248,62594,2,0,B|328:272|328:272|280:272|280:272|240:312,2,120
352,136,63844,2,0,B|328:112|328:112|280:112|280:112|240:72,2,120
256,192,65094,6,0,B|112:192,2,120,2|2|6
256,288,77906,6,0,B|296:264|336:288|376:312|416:288,1,160
424,176,78844,2,0,B|432:128|488:104,2,80
312,192,79781,1,0
200,192,80094,6,0,B|168:192|168:192|120:152|120:152|88:152,2,120
256,96,81344,2,0,B|256:0,2,80
200,192,82281,1,0
312,192,82594,6,0,B|344:192|344:192|392:232|392:232|424:232,2,120,0|0|0
256,288,83844,2,0,B|216:264|176:288|136:312|96:288,1,160
104,176,84781,1,0
216,176,85094,6,0,B|216:80,3,80
328,96,86344,2,0,B|379:113|408:160,1,80
392,256,86969,2,0,B|377:285|327:301,1,80
312,192,87594,5,2
32,32,88531,1,0
144,32,88843,1,0
480,32,89781,5,0
368,32,90094,2,0,B|240:32,2,120
336,136,91344,2,0,B|160:136,1,160
336,288,92593,5,2
32,136,93531,1,0
32,248,93843,1,0
336,96,94781,5,0
272,192,95094,2,0,B|152:192,2,120
256,192,96344,12,0,97594
256,280,99468,6,0,B|256:200,1,80
256,88,100094,2,0,B|304:88|304:88|344:48,2,80,0|0|2
144,88,101031,1,0
144,192,101343,1,2
368,192,101968,5,0
368,304,102281,1,0
256,304,102594,2,0,B|208:304|208:304|168:344,2,80,0|0|2
256,192,103531,1,0
368,192,103843,1,2
144,192,104469,6,0,B|96:216|96:272,1,80
200,296,105094,1,0
312,296,105406,1,0
368,192,105719,2,0,B|416:216|416:272,2,80,2|0|2
144,192,106969,6,0,B|96:168|96:112,1,80
208,128,107594,2,0,B|256:152|256:208,2,80,0|0|2
320,128,108531,2,0,B|368:152|368:208,1,80,0|2
176,312,109469,5,0
64,312,109781,1,0
120,216,110094,2,0,B|160:136,1,80
256,104,110719,2,0,B|256:16,2,80,2|0|2
336,312,111969,5,0
448,312,112282,1,0
392,216,112594,2,0,B|352:136,2,80,0|0|2
336,312,113531,2,0,B|240:312,1,80,0|2
64,192,114468,5,0
64,80,114781,1,0
160,136,115094,2,0,B|184:112|184:112|232:112|232:112|272:72,2,120
160,248,116344,2,0,B|184:272|184:272|232:272|232:272|272:312,2,120
256,192,117594,6,0,B|400:192,2,120,2|2|6
32,144,128844,6,0,B|32:40,1,80,2|0
104,144,129469,2,0,B|104:248,1,80
176,144,130094,2,0,B|272:184|304:104|256:72|208:104|240:184|344:144,1,240
440,192,131344,2,0,B|488:136|432:72,2,120
336,240,132594,6,0,B|240:200|208:280|256:312|304:280|272:200|168:240,1,240
72,192,133844,2,0,B|24:248|80:312,2,120
184,192,135094,6,0,B|272:192,1,80
264,136,135562,2,0,B|328:136|328:136|328:192,1,120
256,192,136344,12,0,140094
256,104,140719,6,0,B|256:184,1,80
256,296,141345,2,0,B|208:296|208:296|168:336,2,80,0|0|2
368,296,142282,1,0
368,192,142594,1,2
144,192,143219,5,0
144,80,143532,1,0
256,80,143845,2,0,B|304:80|304:80|344:40,2,80,0|0|2
256,192,144782,1,0
144,192,145094,1,2
368,192,145720,6,0,B|416:168|416:112,1,80
312,88,146345,1,0
200,88,146657,1,0
144,192,146970,2,0,B|96:168|96:112,2,80,2|0|2
368,192,148220,6,0,B|416:216|416:272,1,80
304,256,148845,2,0,B|256:232|256:176,2,80,0|0|2
192,256,149782,2,0,B|144:232|144:176,1,80,0|2
336,72,150720,5,0
448,72,151032,1,0
392,168,151345,2,0,B|352:248,1,80
256,280,151970,2,0,B|256:368,2,80,2|0|2
176,72,153220,5,0
64,72,153531,1,0
120,168,153845,2,0,B|160:248,2,80,0|0|2
176,72,154782,2,0,B|272:72,1,80,0|2
448,192,155719,5,0
448,304,156032,1,0
352,248,156345,2,0,B|328:272|328:272|280:272|280:272|240:312,2,120
352,136,157595,2,0,B|328:112|328:112|280:112|280:112|240:72,2,120
256,192,158845,6,0,B|112:192,2,120,2|2|6
256,80,160094,6,0,B|328:64|328:64|408:112|408:112|432:208|432:208,1,240
312,192,161344,6,0,B|272:168|232:168|192:200,2,120
312,304,162594,2,0,B|272:328|232:328|192:296,1,120
40,240,163531,1,0
40,128,163844,6,0,B|80:104|120:104|160:136,2,120
40,240,165094,2,0,B|80:264|120:264|160:232,1,120
280,128,166031,2,0,B|384:128,1,80
416,288,166812,6,0,B|392:288|392:288|368:336|336:288|336:288|312:288,1,120
200,288,167594,2,0,B|176:288|176:288|152:336|120:288|120:288|96:288,2,120
208,176,168844,6,0,B|232:176|232:176|256:128|288:176|288:176|312:176,2,120
256,192,170094,12,4,171344
