osu file format v12

[General]
AudioFilename: CD 1 06 Shinonomegiku.mp3
AudioLeadIn: 0
PreviewTime: 86225
Countdown: 0
SampleSet: Soft
StackLeniency: 0.7
Mode: 0
LetterboxInBreaks: 0

[Editor]
DistanceSpacing: 1
BeatDivisor: 4
GridSize: 4

[Metadata]
Title:Shinonomegiku
TitleUnicode:東雲菊
Artist:BURTON
ArtistUnicode:BURTON
Creator:- t e n n y a -
Version:Lally
Source:Mashiro-iro Symphony -Love is pure white-
Tags:palette Lally original soundtrack ost visual novel eroge ましろ色シンフォニー mashifoni
BeatmapID:226861
BeatmapSetID:79207

[Difficulty]
HPDrainRate:4
CircleSize:3
OverallDifficulty:4
ApproachRate:4
SliderMultiplier:1.2
SliderTickRate:1

[Events]
//Background and Video events
0,0,"BGi.jpg",0,0
//Break Periods
//Storyboard Layer 0 (Background)
//Storyboard Layer 1 (Fail)
//Storyboard Layer 2 (Pass)
//Storyboard Layer 3 (Foreground)
//Storyboard Sound Samples
//Background Colour Transformations
3,100,163,162,255

[TimingPoints]
225,666.666666666667,3,2,1,50,1,0
86225,666.666666666667,4,2,1,50,1,0
97391,-100,4,2,2,50,0,0
97725,-100,4,2,1,50,0,0
107558,-100,4,2,1,50,0,1
118725,-100,4,2,2,50,0,1
119058,-100,4,2,1,50,0,1
121391,-100,4,2,2,50,0,1
121725,-100,4,2,1,50,0,1
134225,-100,4,2,1,50,0,0
134725,-100,4,2,2,50,0,0
135058,-100,4,2,1,50,0,0
136058,-100,4,2,2,50,0,0
136391,-100,4,2,1,50,0,0
145891,-100,4,2,1,40,0,0
146891,-100,4,2,1,30,0,0
148225,-100,4,2,1,20,0,0
148891,-100,4,2,1,10,0,0

[Colours]
Combo1 : 209,224,148
Combo2 : 241,174,249
Combo3 : 180,129,248

[HitObjects]
168,248,22225,6,0,P|266:230|315:106,1,240,6|8,0:0|0:0,0:0:0:0:
198,114,24225,2,0,P|203:174|352:246,1,240,2|8,0:0|0:0,0:0:0:0:
412,148,26225,2,0,P|436:88|500:68,2,120,2|0|8,0:0|0:0|0:0,0:0:0:0:
396,204,27891,5,0,0:0:0:0:
376,260,28225,2,0,P|352:296|316:312,1,60,2|0,0:0|0:0,0:0:0:0:
284,328,28891,2,0,P|228:340|168:300,1,120,0|8,0:0|0:0,0:0:0:0:
88,228,30225,6,0,P|56:188|76:120,1,120,2|0,0:0|0:0,0:0:0:0:
175,73,31558,2,0,P|228:44|284:56,1,120,8|2,0:0|0:0,0:0:0:0:
324,100,32558,1,0,0:0:0:0:
360,148,32891,2,0,P|396:200|460:208,2,120,2|8|2,0:0|0:0|0:0,0:0:0:0:
312,40,34891,6,0,P|248:48|220:96,1,120,0|8,0:0|0:0,0:0:0:0:
192,148,35891,1,0,0:0:0:0:
196,208,36225,2,0,P|144:232|76:204,2,120,0|0|8,0:0|0:0|0:0,0:0:0:0:
300,148,38225,6,0,P|305:90|363:46,2,120,4|0|8,0:0|0:0|0:0,0:0:0:0:
304,268,40224,2,0,P|350:301|360:373,1,120,2|0,0:0|0:0,0:0:0:0:
424,368,41224,2,0,P|480:364|504:348,1,60,0|8,0:0|0:0,0:0:0:0:
492,240,42224,6,0,P|508:192|468:124,1,120,2|2,0:0|0:0,0:0:0:0:
436,88,43224,1,0,0:0:0:0:
392,48,43558,2,0,P|320:28|272:56,1,120,8|2,0:0|0:0,0:0:0:0:
196,128,44891,2,0,P|164:160|152:180,1,60
144,232,45558,2,0,P|160:272|176:296,1,60,8|0,0:0|0:0,0:0:0:0:
208,332,46224,6,0,P|268:360|324:336,1,120,2|0,0:0|0:0,0:0:0:0:
400,260,47558,1,8,0:0:0:0:
440,216,47891,1,2,0:0:0:0:
468,164,48224,2,0,P|484:108|484:92,2,60,2|0|0,0:0|0:0|0:0,0:0:0:0:
368,224,49558,6,0,P|320:256|304:264,1,60,8|0,0:0|0:0,0:0:0:0:
264,284,50224,2,0,P|208:304|148:264,1,120,2|0,0:0|0:0,0:0:0:0:
112,168,51558,2,0,P|108:128|180:76,1,120,8|0,0:0|0:0,0:0:0:0:
256,152,52891,1,0,0:0:0:0:
350,76,53558,2,0,P|404:128|400:168,1,120,8|4,0:0|0:0,0:0:0:0:
332,268,54891,6,0,P|296:308|280:316,1,60,2|0,0:0|0:0,0:0:0:0:
240,340,55558,2,0,P|164:368|116:340,1,120,8|2,0:0|0:0,0:0:0:0:
28,292,56891,2,0,P|80:252|80:192,1,120,2|8,0:0|0:0,0:0:0:0:
4,112,58224,6,0,P|72:80|124:88,1,120,2|2,0:0|0:0,0:0:0:0:
200,168,59558,2,0,P|244:212|316:212,1,120,8|2,0:0|0:0,0:0:0:0:
416,192,60891,2,0,P|452:160|464:136,1,60
484,96,61558,2,0,P|456:40|396:32,1,120,8|2,0:0|0:0,0:0:0:0:
340,131,62891,6,0,B|346:155|331:187|331:187|314:220|321:247,1,120,2|8,0:0|0:0,0:0:0:0:
256,352,64224,1,2,0:0:0:0:
190,247,64891,2,0,B|198:220|181:187|181:187|166:155|172:131,1,120,2|8,0:0|0:0,0:0:0:0:
88,52,66224,6,0,P|40:52|28:128,1,120,2|0,0:0|0:0,0:0:0:0:
36,172,67224,1,0,0:0:0:0:
64,224,67558,2,0,P|108:272|180:260,1,120,8|2,0:0|0:0,0:0:0:0:
272,232,68891,2,0,P|304:220|344:200,1,60,0|8,0:0|0:0,0:0:0:0:
380,184,69558,2,0,P|416:156|432:132,1,60,8|0,0:0|0:0,0:0:0:0:
436,84,70224,6,0,P|400:40|332:60,1,120,4|0,0:0|0:0,0:0:0:0:
288,156,71558,2,0,P|244:228|192:232,1,120,8|0,0:0|0:0,0:0:0:0:
105,180,72891,1,0,0:0:0:0:
149,68,73558,2,0,P|197:96|205:164,1,120,8|0,0:0|0:0,0:0:0:0:
176,272,74891,6,0,P|148:308|128:320,1,60
80,340,75558,2,0,P|44:336|24:256,1,120,8|0,0:0|0:0,0:0:0:0:
56,152,76891,1,0,0:0:0:0:
140,68,77558,2,0,L|208:60,1,60,8|0,0:0|0:0,0:0:0:0:
260,64,78225,6,0,P|308:80|348:156,1,120
360,196,79225,2,0,P|364:236|352:272,1,60,0|8,0:0|0:0,0:0:0:0:
260,320,80225,2,0,P|216:332|192:332,1,60
144,328,80891,2,0,P|72:308|52:244,1,120,0|8,0:0|0:0,0:0:0:0:
24,156,82225,6,0,L|4:100,2,60
124,224,83558,1,8,0:0:0:0:
220,296,84225,2,0,L|240:352,2,60
200,240,85225,1,8,0:0:0:0:
196,180,85558,2,0,P|196:136|208:108,1,60,8|0,0:0|0:0,0:0:0:0:
232,72,86225,6,0,P|284:36|352:52,1,120,4|8,0:0|0:0,0:0:0:0:
388,76,87225,2,0,P|424:108|432:124,1,60
464,232,88225,2,0,P|448:276|432:296,1,60,8|0,0:0|0:0,0:0:0:0:
408,336,88891,2,0,P|360:368|300:348,2,120,0|8|0,0:0|0:0|0:0,0:0:0:0:
464,232,90891,6,0,L|512:176,2,60,8|0|0,0:0|0:0|0:0,0:0:0:0:
360,292,92225,2,0,P|296:320|248:296,1,120,8|0,0:0|0:0,0:0:0:0:
172,212,93558,2,0,P|148:172|140:140,1,60,8|0,0:0|0:0,0:0:0:0:
144,100,94225,2,0,P|204:48|256:60,2,120,0|8|0,0:0|0:0|0:0,0:0:0:0:
64,192,96225,1,8,0:0:0:0:
96,244,96558,1,8,0:0:0:0:
146,279,96891,6,0,B|202:343|258:151|310:343|370:279,1,240,4|0,0:0|0:0,0:0:0:0:
440,188,98891,2,0,L|476:124,2,60,8|0|0,0:0|0:0|0:0,0:0:0:0:
364,280,100225,2,0,P|304:228|316:180,1,120,8|0,0:0|0:0,0:0:0:0:
344,80,101558,6,0,L|384:28,2,60,8|0|0,0:0|0:0|0:0,0:0:0:0:
264,168,102891,2,0,P|224:224|160:228,1,120,8|0,0:0|0:0,0:0:0:0:
68,180,104225,2,0,P|108:124|172:120,1,120,8|4,0:0|0:0,0:0:0:0:
256,192,105058,12,8,106891,0:0:0:0:
324,204,107558,6,0,B|380:176|380:176|436:176|452:148,2,120,4|8|0,0:0|0:0|0:0,0:0:0:0:
256,300,109558,2,0,L|256:364,2,60,8|0|0,0:0|0:0|0:0,0:0:0:0:
188,204,110891,2,0,B|132:176|132:176|76:176|60:148,1,120,8|0,0:0|0:0,0:0:0:0:
116,52,112225,6,0,P|148:56|180:72,1,60,8|0,0:0|0:0,0:0:0:0:
216,108,112891,2,0,P|260:156|328:164,1,120,0|8,0:0|0:0,0:0:0:0:
380,68,114225,2,0,P|440:52|484:92,1,120,0|8,0:0|0:0,0:0:0:0:
504,140,115225,1,0,0:0:0:0:
508,200,115558,6,0,P|472:264|420:272,1,120,0|8,0:0|0:0,0:0:0:0:
372,272,116558,2,0,P|328:264|312:256,1,60
252,152,117558,1,8,0:0:0:0:
252,152,117891,1,8,0:0:0:0:
252,152,118225,6,0,P|192:108|104:228,1,240,4|0,0:0|0:0,0:0:0:0:
108,328,120225,1,8,0:0:0:0:
108,328,120558,1,0,0:0:0:0:
108,328,120891,2,0,P|172:336|174:198,1,240
64,172,122891,6,0,P|84:132|108:116,1,60,8|0,0:0|0:0,0:0:0:0:
140,84,123558,2,0,P|204:68|268:100,1,120,0|8,0:0|0:0,0:0:0:0:
196,192,124891,1,0,0:0:0:0:
304,244,125558,2,0,P|340:284|324:348,2,120,8|0|8,0:0|0:0|0:0,0:0:0:0:
196,192,127558,1,0,0:0:0:0:
224,76,128225,6,0,P|264:52|292:44,1,60
336,44,128891,2,0,P|376:48|428:124,1,120,4|8,0:0|0:0,0:0:0:0:
440,224,130225,2,0,P|400:292|344:308,1,120,0|8,0:0|0:0,0:0:0:0:
288,216,131558,6,0,P|256:164|184:136,1,120,0|8,0:0|0:0,0:0:0:0:
84,124,132891,2,0,P|52:184|52:244,1,120,0|8,0:0|0:0,0:0:0:0:
160,284,134225,6,0,B|292:260|344:208|324:148|256:92|188:148|168:208|220:260|356:284,1,480,4|0,0:0|0:0,0:0:0:0:
472,312,137558,6,0,L|496:256,1,60,8|0,0:0|0:0,0:0:0:0:
500,196,138225,2,0,P|488:148|424:92,2,120,0|8|0,0:0|0:0|0:0,0:0:0:0:
496,256,139891,2,0,L|472:312,1,60,0|8,0:0|0:0,0:0:0:0:
364,360,140891,1,0,0:0:0:0:
304,256,141558,6,0,P|268:200|204:184,2,120,8|0|8,0:0|0:0|0:0,0:0:0:0:
192,300,143558,2,0,P|144:328|124:332,2,60,0|0|8,0:0|0:0|0:0,0:0:0:0:
264,216,144891,1,4,0:0:0:0:
256,192,145225,12,2,148891,0:0:0:0:
