osu file format v12

[General]
AudioFilename: 10..mp3
AudioLeadIn: 2000
PreviewTime: 19930
Countdown: 0
SampleSet: Soft
StackLeniency: 0.7
Mode: 0
LetterboxInBreaks: 0

[Editor]
DistanceSpacing: 1
BeatDivisor: 4
GridSize: 4

[Metadata]
Title:Junsuina Aijou
TitleUnicode:純粋な愛情
Artist:BURTON
ArtistUnicode:BURTON
Creator:Gloria Guard
Version:Hard
Source:Mashiro-iro Symphony -Love is pure white-
Tags:- t e n n y a - original soundtrack ost visual novel eroge
BeatmapID:227365
BeatmapSetID:82079

[Difficulty]
HPDrainRate:6
CircleSize:4
OverallDifficulty:6
ApproachRate:7
SliderMultiplier:1.6
SliderTickRate:1

[Events]
//Background and Video events
0,0,"sana.jpg",1,1
//Break Periods
2,16804,19030
//Storyboard Layer 0 (Background)
//Storyboard Layer 1 (Fail)
//Storyboard Layer 2 (Pass)
//Storyboard Layer 3 (Foreground)
//Storyboard Sound Samples
//Background Colour Transformations
3,100,163,162,255

[TimingPoints]
220,666.666666666667,4,2,1,50,1,0
4886,-100,4,2,1,5,0,0
5053,-100,4,2,1,50,0,0
10220,-100,4,2,1,5,0,0
10386,-100,4,2,1,50,0,0
16220,769.230769230769,4,2,1,30,1,0
16412,-100,4,2,1,40,0,0
16604,-100,4,2,1,50,0,0
19930,666.666666666667,4,2,1,60,1,0
105263,-100,4,2,1,30,0,0
146596,-100,4,2,1,20,0,0

[Colours]
Combo1 : 168,138,255
Combo2 : 138,255,197

[HitObjects]
360,48,220,1,2,0:0:0:0:
436,68,553,1,2,0:0:0:0:
468,140,886,1,2,0:0:0:0:
436,216,1220,1,2,0:0:0:0:
360,248,1553,2,0,P|320:248|264:224,1,80,2|2,0:0|0:0,0:0:0:0:
164,232,2220,2,0,P|168:192|192:160,1,80,2|2,0:0|0:0,0:0:0:0:
324,72,2886,6,0,B|256:88|224:48|224:48|168:48,1,160,2|2,0:0|0:0,0:0:0:0:
92,48,3886,1,2,0:0:0:0:
36,104,4220,2,0,P|36:184|92:236,1,160,2|0,0:0|0:0,0:0:0:0:
244,288,5553,5,2,0:0:0:0:
324,288,5886,1,2,0:0:0:0:
376,228,6220,1,2,0:0:0:0:
364,148,6553,1,2,0:0:0:0:
296,108,6886,2,0,L|224:152,1,80,2|2,0:0|0:0,0:0:0:0:
268,220,7553,2,0,L|196:264,1,80,2|2,0:0|0:0,0:0:0:0:
64,348,8220,6,0,B|64:312|40:272|40:272|64:232|64:196,1,160,2|2,0:0|0:0,0:0:0:0:
112,136,9220,1,2,0:0:0:0:
188,156,9553,2,0,P|268:156|324:104,1,160,2|0,0:0|0:0,0:0:0:0:
420,36,10886,6,0,P|448:64|456:112,1,80,2|2,0:0|0:0,0:0:0:0:
376,104,11553,2,0,P|368:144|336:176,1,80,2|2,0:0|0:0,0:0:0:0:
268,204,12219,1,2,0:0:0:0:
192,184,12553,1,2,0:0:0:0:
168,108,12886,1,2,0:0:0:0:
220,48,13219,1,2,0:0:0:0:
297,70,13553,6,0,P|317:142|265:206,1,160,2|2,0:0|0:0,0:0:0:0:
192,232,14553,1,2,0:0:0:0:
208,312,14886,2,0,P|280:352|368:348,1,160,2|2,0:0|0:0,0:0:0:0:
424,208,16220,2,0,L|424:232,4,20,2|0|0|0|0,0:0|0:0|0:0|0:0|0:0,0:0:0:0:
40,112,19930,6,0,L|120:160,1,80,12|0,0:0|0:0,0:0:0:0:
136,272,20596,1,8,0:0:0:0:
136,272,20763,2,0,P|180:272|212:288,1,80,0|8,0:0|0:0,0:0:0:0:
244,312,21263,2,0,P|284:304|316:276,2,80,2|2|2,0:0|0:0|0:0,0:0:0:0:
224,192,22596,6,0,L|184:116,1,80,8|0,0:0|0:0,0:0:0:0:
268,32,23263,1,8,0:0:0:0:
268,32,23430,2,0,L|308:108,1,80,0|8,0:0|0:0,0:0:0:0:
320,140,23930,2,0,P|364:132|392:108,2,80,2|2|2,0:0|0:0|0:0,0:0:0:0:
256,244,25263,5,8,0:0:0:0:
256,324,25596,1,0,0:0:0:0:
332,344,25930,1,8,0:0:0:0:
332,344,26096,2,0,P|376:344|416:328,1,80,0|8,0:0|0:0,0:0:0:0:
436,300,26596,1,2,0:0:0:0:
480,192,26930,1,2,0:0:0:0:
400,108,27263,1,2,0:0:0:0:
264,192,27930,6,0,P|224:192|184:172,1,80,8|0,0:0|0:0,0:0:0:0:
88,112,28596,1,8,0:0:0:0:
88,112,28763,2,0,P|60:144|52:184,1,80,0|8,0:0|0:0,0:0:0:0:
52,220,29263,1,2,0:0:0:0:
120,320,29596,1,2,0:0:0:0:
240,328,29930,2,0,P|320:308|356:244,1,160,2|8,0:0|0:0,0:0:0:0:
292,144,30930,5,0,0:0:0:0:
364,48,31263,1,8,0:0:0:0:
364,48,31430,2,0,P|404:48|448:68,1,80,0|8,0:0|0:0,0:0:0:0:
468,92,31930,2,0,P|484:136|480:172,2,80,2|2|2,0:0|0:0|0:0,0:0:0:0:
328,172,33263,6,0,L|328:252,1,80,8|0,0:0|0:0,0:0:0:0:
208,356,33930,1,8,0:0:0:0:
208,356,34096,2,0,L|208:276,1,80,0|8,0:0|0:0,0:0:0:0:
208,236,34596,2,0,P|168:228|128:236,2,80,2|2|2,0:0|0:0|0:0,0:0:0:0:
256,84,35930,5,8,0:0:0:0:
328,48,36263,1,0,0:0:0:0:
408,64,36596,1,8,0:0:0:0:
408,64,36763,2,0,P|432:104|432:148,1,80,0|8,0:0|0:0,0:0:0:0:
420,172,37263,1,2,0:0:0:0:
324,244,37596,1,2,0:0:0:0:
216,192,37930,1,2,0:0:0:0:
148,48,38596,6,0,L|92:104,1,80,8|0,0:0|0:0,0:0:0:0:
12,108,39263,1,8,0:0:0:0:
12,108,39430,2,0,L|40:192,1,80,0|8,0:0|0:0,0:0:0:0:
52,220,39929,1,2,0:0:0:0:
128,312,40263,1,2,0:0:0:0:
228,248,40596,2,0,P|308:240|356:296,1,160,2|12,0:0|0:0,0:0:0:0:
276,312,41596,5,0,0:0:0:0:
228,248,41929,1,8,0:0:0:0:
228,248,42096,2,0,P|228:204|252:172,1,80,0|8,0:0|0:0,0:0:0:0:
288,172,42596,2,0,P|328:172|372:148,1,80,2|2,0:0|0:0,0:0:0:0:
308,96,43263,2,0,P|336:68|352:24,1,80,2|2,0:0|0:0,0:0:0:0:
192,40,43930,6,0,P|164:68|148:112,1,80,8|0,0:0|0:0,0:0:0:0:
80,144,44596,1,8,0:0:0:0:
80,144,44763,2,0,P|108:172|148:184,1,80,0|8,0:0|0:0,0:0:0:0:
184,184,45263,1,2,0:0:0:0:
300,220,45596,1,2,0:0:0:0:
244,328,45930,2,0,P|180:360|92:344,1,160,2|8,0:0|0:0,0:0:0:0:
36,240,46930,5,0,0:0:0:0:
96,136,47263,1,8,0:0:0:0:
96,136,47429,2,0,P|140:136|176:120,1,80,0|8,0:0|0:0,0:0:0:0:
212,112,47929,2,0,P|244:140|252:180,1,80,2|2,0:0|0:0,0:0:0:0:
192,280,48596,1,2,0:0:0:0:
288,352,48930,1,2,0:0:0:0:
408,352,49263,6,0,L|488:320,1,80,8|0,0:0|0:0,0:0:0:0:
428,264,49929,1,8,0:0:0:0:
428,264,50096,2,0,L|484:204,1,80,0|8,0:0|0:0,0:0:0:0:
508,172,50596,2,0,P|488:136|452:116,1,80,2|2,0:0|0:0,0:0:0:0:
384,152,51263,2,0,P|304:152|260:92,1,160,2|8,0:0|0:0,0:0:0:0:
340,84,52263,5,0,0:0:0:0:
384,152,52596,1,8,0:0:0:0:
384,152,52763,2,0,P|384:192|364:228,1,80,0|8,0:0|0:0,0:0:0:0:
332,248,53263,1,2,0:0:0:0:
256,156,53596,1,2,0:0:0:0:
180,248,53930,2,0,P|161:213|161:173,1,80,2|0,0:0|0:0,0:0:0:0:
216,68,54596,6,0,P|172:56|136:60,1,80,8|0,0:0|0:0,0:0:0:0:
68,100,55263,1,8,0:0:0:0:
68,100,55429,2,0,P|48:140|48:196,1,80,0|8,0:0|0:0,0:0:0:0:
52,216,55929,1,2,0:0:0:0:
140,296,56263,1,2,0:0:0:0:
260,296,56596,2,0,P|336:264|352:192,1,160,2|8,0:0|0:0,0:0:0:0:
284,96,57596,5,0,0:0:0:0:
388,32,57930,1,8,0:0:0:0:
388,32,58097,2,0,L|468:68,1,80,0|8,0:0|0:0,0:0:0:0:
496,80,58596,2,0,P|492:120|468:156,1,80,2|2,0:0|0:0,0:0:0:0:
364,208,59263,1,2,0:0:0:0:
256,156,59596,1,0,0:0:0:0:
148,204,59930,6,0,P|116:236|104:272,1,80,8|0,0:0|0:0,0:0:0:0:
184,276,60596,1,8,0:0:0:0:
184,276,60763,2,0,P|200:320|240:348,1,80,0|8,0:0|0:0,0:0:0:0:
260,356,61263,2,0,P|300:356|344:340,2,80,2|2|2,0:0|0:0|0:0,0:0:0:0:
256,196,62596,6,0,P|296:196|336:168,1,80,8|0,0:0|0:0,0:0:0:0:
272,120,63263,1,8,0:0:0:0:
196,140,63596,1,0,0:0:0:0:
196,140,63763,1,0,0:0:0:0:
196,140,63930,2,0,P|188:228|244:272,1,160,2|2,3:0|0:0,0:0:0:0:
308,172,64930,1,0,0:0:0:0:
400,96,65263,6,0,P|428:132|432:168,1,80,8|0,0:0|0:0,0:0:0:0:
436,244,65930,1,8,0:0:0:0:
412,320,66263,1,0,0:0:0:0:
412,320,66430,1,0,0:0:0:0:
412,320,66596,2,0,P|344:360|268:340,1,160,2|2,3:0|0:0,0:0:0:0:
256,220,67596,1,0,0:0:0:0:
148,168,67930,6,0,L|80:116,1,80,8|0,0:0|0:0,0:0:0:0:
124,52,68596,1,8,0:0:0:0:
204,36,68930,1,0,0:0:0:0:
240,52,69096,1,0,0:0:0:0:
276,36,69263,2,0,P|344:80|380:148,1,160,2|2,3:0|0:0,0:0:0:0:
380,268,70263,1,0,0:0:0:0:
272,216,70596,6,0,P|228:216|188:236,1,80,8|0,0:0|0:0,0:0:0:0:
244,292,71263,2,0,L|244:332,2,40,8|0|0,0:0|0:0|0:0,0:0:0:0:
324,280,71930,2,0,P|364:280|404:268,2,80,2|0|2,3:0|0:0|0:0,0:0:0:0:
456,192,73263,6,0,P|412:192|380:172,1,80,8|0,0:0|0:0,0:0:0:0:
320,72,73930,1,8,0:0:0:0:
200,60,74263,1,0,0:0:0:0:
200,60,74430,1,0,0:0:0:0:
200,60,74596,2,0,P|152:116|144:200,1,160,2|2,3:0|0:0,0:0:0:0:
188,312,75596,1,0,0:0:0:0:
256,220,75930,6,0,B|216:144|280:132|244:60,2,160,8|8|2,0:0|0:0|3:0,0:0:0:0:
256,220,77430,1,0,0:0:0:0:
256,220,77596,1,0,0:0:0:0:
152,160,77930,2,0,P|152:112|168:80,1,80,2|0,0:0|0:0,0:0:0:0:
268,28,78596,6,0,P|308:28|344:48,1,80,8|0,0:0|0:0,0:0:0:0:
452,76,79263,2,0,P|452:120|436:152,1,80,8|0,0:0|0:0,0:0:0:0:
408,228,79930,2,0,L|408:272,2,40,2|0|0,3:3|0:0|0:0,0:0:0:0:
328,224,80596,1,2,0:0:0:0:
256,256,80930,1,0,0:0:0:0:
204,316,81263,6,0,P|160:316|128:300,1,80,8|0,0:0|0:0,0:0:0:0:
60,256,81930,2,0,P|72:216|64:180,1,80,8|0,0:0|0:0,0:0:0:0:
84,96,82596,1,2,3:0:0:0:
84,96,82763,1,8,0:0:0:0:
84,96,82930,2,0,P|124:96|164:76,2,80,0|2|0,0:0|0:0|0:0,0:0:0:0:
188,156,83930,6,0,P|268:156|328:208,1,160,8|2,0:0|0:0,0:0:0:0:
316,284,84930,1,0,0:0:0:0:
272,348,85263,2,0,P|192:348|132:296,1,160,2|2,3:0|0:0,0:0:0:0:
136,220,86263,1,0,0:0:0:0:
160,144,86596,6,0,P|120:144|80:160,1,80,8|0,0:0|0:0,0:0:0:0:
32,220,87263,1,8,0:0:0:0:
60,296,87596,1,0,0:0:0:0:
60,296,87763,1,0,0:0:0:0:
60,296,87929,2,0,P|136:308|208:268,1,160,2|2,3:0|0:0,0:0:0:0:
368,272,89263,6,0,P|336:300|328:336,1,80,8|0,0:0|0:0,0:0:0:0:
408,340,89930,2,0,L|452:340,2,40,8|0|0,0:0|0:0|0:0,0:0:0:0:
444,268,90596,2,0,P|444:188|388:128,1,160,2|2,3:0|0:0,0:0:0:0:
348,64,91596,1,0,0:0:0:0:
304,128,91930,6,0,P|260:128|216:108,1,80,8|0,0:0|0:0,0:0:0:0:
160,72,92596,2,0,P|120:72|80:88,2,80,8|0|2,0:0|0:0|3:0,0:0:0:0:
160,72,93430,1,0,0:0:0:0:
160,72,93596,1,0,0:0:0:0:
188,188,93930,1,2,0:0:0:0:
304,216,94263,1,0,0:0:0:0:
412,160,94596,6,0,P|460:232|444:304,1,160,8|2,0:0|0:0,0:0:0:0:
388,352,95596,1,2,0:0:0:0:
320,312,95930,1,2,3:0:0:0:
320,312,96263,2,0,P|276:312|240:336,2,80,2|0|2,0:0|0:0|0:0,0:0:0:0:
388,272,97263,6,0,P|388:192|328:140,1,160,8|2,0:0|0:0,0:0:0:0:
256,172,98263,1,0,0:0:0:0:
196,228,98596,2,0,P|116:228|60:176,1,160,2|2,3:0|0:0,0:0:0:0:
256,192,99930,12,2,104596,0:0:0:0:
144,40,105263,5,6,0:0:0:0:
68,64,105596,1,0,0:0:0:0:
44,140,105930,1,2,0:0:0:0:
84,208,106263,1,0,0:0:0:0:
164,224,106596,2,0,L|248:224,1,80,2|0,0:0|0:0,0:0:0:0:
208,152,107263,2,0,L|280:112,1,80,2|0,0:0|0:0,0:0:0:0:
284,32,107930,6,0,P|344:72|344:156,1,160,2|2,0:0|0:0,0:0:0:0:
280,200,108930,1,0,0:0:0:0:
252,276,109263,2,0,P|304:336|384:336,1,160,2|4,0:0|0:0,0:0:0:0:
480,224,110596,5,2,0:0:0:0:
480,144,110930,1,0,0:0:0:0:
416,96,111263,1,2,0:0:0:0:
336,112,111596,1,0,0:0:0:0:
288,176,111930,2,0,P|288:216|316:252,1,80,2|0,0:0|0:0,0:0:0:0:
380,288,112596,2,0,P|348:316|312:328,1,80,2|0,0:0|0:0,0:0:0:0:
232,328,113263,6,0,P|176:272|176:192,1,160,2|2,0:0|0:0,0:0:0:0:
136,124,114263,1,0,0:0:0:0:
168,52,114596,2,0,P|248:52|320:92,1,160,2|4,0:0|0:0,0:0:0:0:
440,192,115930,5,2,0:0:0:0:
372,232,116263,1,0,0:0:0:0:
364,312,116596,1,2,0:0:0:0:
288,340,116930,1,0,0:0:0:0:
212,364,117263,2,0,L|140:324,1,80,2|0,0:0|0:0,0:0:0:0:
200,272,117930,2,0,L|128:232,1,80,2|0,0:0|0:0,0:0:0:0:
36,160,118596,6,0,P|52:92|128:56,1,160,2|2,0:0|0:0,0:0:0:0:
116,136,119596,1,0,0:0:0:0:
196,116,119930,2,0,P|180:184|104:220,1,160,2|4,0:0|0:0,0:0:0:0:
144,344,121263,5,6,0:0:0:0:
256,192,121430,12,4,123263,0:0:0:0:
256,36,123930,6,0,L|256:132,1,80,6|0,0:0|0:0,0:0:0:0:
164,192,124596,2,0,L|108:248,1,80,2|0,0:0|0:0,0:0:0:0:
348,192,125263,2,0,L|404:248,1,80,2|0,0:0|0:0,0:0:0:0:
256,304,125930,2,0,L|256:388,1,80,2|0,0:0|0:0,0:0:0:0:
372,340,126596,6,0,P|412:340|448:324,1,80,2|0,0:0|0:0,0:0:0:0:
396,264,127263,2,0,P|424:236|436:192,1,80,2|0,0:0|0:0,0:0:0:0:
356,196,127930,2,0,P|336:128|256:92,1,160,2|4,0:0|0:0,0:0:0:0:
100,96,129263,5,2,0:0:0:0:
60,220,129596,1,0,0:0:0:0:
164,144,129930,1,2,0:0:0:0:
36,144,130263,1,0,0:0:0:0:
140,220,130596,2,0,P|168:248|216:260,1,80,2|0,0:0|0:0,0:0:0:0:
276,224,131263,2,0,P|284:260|272:304,1,80,2|0,0:0|0:0,0:0:0:0:
204,344,131930,5,2,0:0:0:0:
124,344,132263,1,0,0:0:0:0:
64,292,132596,1,2,0:0:0:0:
56,212,132930,1,0,0:0:0:0:
92,140,133263,2,0,P|164:104|244:112,1,160,2|4,0:0|0:0,0:0:0:0:
348,164,134596,5,2,0:0:0:0:
468,164,134930,1,0,0:0:0:0:
408,60,135263,2,0,L|408:144,1,80,2|0,0:0|0:0,0:0:0:0:
408,260,135930,2,0,P|408:300|388:336,1,80,2|0,0:0|0:0,0:0:0:0:
332,280,136596,2,0,P|292:308|236:316,1,80,2|0,0:0|0:0,0:0:0:0:
184,312,137263,5,2,0:0:0:0:
120,264,137596,1,0,0:0:0:0:
112,184,137930,1,2,0:0:0:0:
164,124,138263,1,0,0:0:0:0:
244,108,138596,2,0,P|320:116|376:176,1,160,2|4,0:0|0:0,0:0:0:0:
256,192,139930,12,2,146596,0:0:0:0:
