osu file format v11

[General]
AudioFilename: Like a sunflower.mp3
AudioLeadIn: 2500
PreviewTime: 136382
Countdown: 0
SampleSet: Soft
StackLeniency: 0.7
Mode: 0
LetterboxInBreaks: 0

[Editor]
DistanceSpacing: 0.8
BeatDivisor: 4
GridSize: 4

[Metadata]
Title:Himawari no Youni
TitleUnicode:向日葵のように
Artist:BURTON
ArtistUnicode:BURTON
Creator:Gloria Guard
Version:Hard
Source:Mashiro-iro Symphony -Love is pure white-
Tags:zejky Palette Sena Airi Sakuno Sakura
BeatmapID:201461
BeatmapSetID:69991

[Difficulty]
HPDrainRate:5
CircleSize:4
OverallDifficulty:6
ApproachRate:6
SliderMultiplier:1.4
SliderTickRate:1

[Events]
//Background and Video events
0,0,"bg.jpg"
//Break Periods
//Storyboard Layer 0 (Background)
//Storyboard Layer 1 (Fail)
//Storyboard Layer 2 (Pass)
//Storyboard Layer 3 (Foreground)
//Storyboard Sound Samples
//Background Colour Transformations
3,100,163,162,255

[TimingPoints]
853,705.882352941176,4,2,1,40,1,0
136382,-100,4,2,1,40,0,1
156147,-100,4,2,1,40,0,0
157911,-100,4,2,1,5,0,0
158264,-100,4,2,1,40,0,0
158970,-100,4,2,1,40,0,1
178735,-100,4,2,1,40,0,0
181558,800,4,2,1,40,1,0
186358,-100,4,2,1,5,0,0

[Colours]
Combo1 : 234,234,234
Combo2 : 255,168,125
Combo3 : 181,106,255

[HitObjects]
76,228,22735,1,2,0:0:0
32,300,23088,1,2,0:0:0
116,304,23441,2,0,P|152:340|196:352|248:344,1,140,4|8,0:0|0:0,0:0:0
328,344,24500,1,2,0:0:0
288,272,24852,2,0,P|288:220|328:180|376:180,1,140,2|8,0:0|0:0,0:0:0
372,264,25911,1,2,0:0:0
456,256,26264,6,0,P|456:308|416:348|369:347,1,140,2|8,0:0|0:0,0:0:0
288,336,27323,1,2,0:0:0
256,256,27676,1,2,0:0:0
372,192,28382,1,8,0:0:0
432,252,28735,1,2,0:0:0
456,172,29088,6,0,P|412:120|340:112,1,140,2|8,0:0|0:0,0:0:0
264,80,30147,1,2,0:0:0
256,164,30500,2,0,P|216:164|184:148,2,70,2|2|8,0:0|0:0|0:0,0:0:0
340,164,31558,1,2,0:0:0
324,248,31911,2,0,P|264:296|184:288,1,140,2|8,0:0|0:0,0:0:0
204,296,32970,1,8,0:0:0
124,268,33323,1,2,0:0:0
100,256,33500,1,8,0:0:0
84,232,33676,1,2,0:0:0
36,100,34029,5,8,0:0:0
92,36,34382,1,2,0:0:0
120,116,34735,2,0,P|160:140|212:144|256:132,1,140,4|8,0:0|0:0,0:0:0
304,64,35794,1,2,0:0:0
388,64,36147,2,0,P|464:64,2,70,2|2|8,0:0|0:0|0:0,0:0:0
388,148,37205,1,2,0:0:0
472,148,37558,2,0,P|460:204|412:224|412:224|432:268,1,140,2|8,0:0|0:0,0:0:0
392,336,38617,2,0,P|356:336|316:324,1,70,2|2,0:0|0:0,0:0:0
256,212,39676,5,8,0:0:0
256,128,40029,1,2,0:0:0
192,72,40382,2,0,P|256:48|320:76,1,140,2|8,0:0|0:0,0:0:0
400,192,41794,1,2,0:0:0
476,228,42147,1,2,0:0:0
436,304,42500,1,8,0:0:0
360,268,42852,1,2,0:0:0
256,192,43205,12,8,45323,0:0:0
120,264,45676,5,2,0:0:0
44,232,46029,2,0,P|20:172|32:100,1,140,4|8,0:0|0:0,0:0:0
88,36,47088,1,8,0:0:0
88,36,47264,1,2,0:0:0
88,36,47441,2,0,P|160:36|236:60,1,140,2|8,0:0|0:0,0:0:0
252,136,48500,1,2,0:0:0
188,192,48852,6,0,P|152:184|116:192,1,70,2|2,0:0|0:0,0:0:0
36,188,49558,2,0,P|96:272|148:288,1,140,8|2,0:0|0:0,0:0:0
208,264,50617,1,2,0:0:0
256,196,50970,2,0,P|256:124,1,70,8|2,0:0|0:0,0:0:0
364,40,51676,6,0,P|404:40|440:48,1,70,2|2,0:0|0:0,0:0:0
456,128,52382,2,0,P|416:128|380:120,1,70,8|2,0:0|0:0,0:0:0
304,108,53088,2,0,P|260:136|260:188,1,105,2|2,0:0|0:0,0:0:0
260,212,53794,2,0,P|258:260|214:288,1,105,8|2,0:0|0:0,0:0:0
212,288,54500,5,2,0:0:0
172,216,54852,1,2,0:0:0
84,192,55205,2,0,P|84:228|100:260,1,70,8|2,0:0|0:0,0:0:0
20,292,55911,2,0,P|36:324|64:344,1,70,2|8,0:0|0:0,0:0:0
88,352,56441,1,8,0:0:0
116,348,56617,1,2,0:0:0
188,304,56970,1,2,0:0:0
256,356,57323,6,4,P|304:356|348:312|348:268,1,140,4|8,0:0|0:0,0:0:0
312,192,58382,1,2,0:0:0
312,192,58558,1,2,0:0:0
312,192,58735,2,0,P|268:192|236:176,1,70,2|2,0:0|0:0,0:0:0
164,208,59441,2,0,P|160:168|172:132,1,70,8|2,0:0|0:0,0:0:0
256,32,60147,6,0,P|216:32|180:28,1,70,2|2,0:0|0:0,0:0:0
104,28,60852,2,0,P|56:44|36:100|60:144,1,140,8|2,0:0|0:0,0:0:0
128,192,61911,1,2,0:0:0
212,192,62264,2,0,P|248:208|264:232,1,70,8|2,0:0|0:0,0:0:0
332,280,62970,2,0,P|392:244|404:180,2,140,2|8|2,0:0|0:0|0:0,0:0:0
264,316,64735,5,2,0:0:0
264,316,64911,2,0,P|212:280|164:288,1,105,2|2,0:0|0:0,0:0:0
96,316,65794,2,0,P|56:276|56:276|56:232|24:200,1,140,2|8,0:0|0:0,0:0:0
60,124,66852,1,8,0:0:0
128,76,67205,2,0,P|168:76|204:84,1,70,2|8,0:0|0:0,0:0:0
220,100,67734,1,8,0:0:0
248,108,67911,2,0,P|288:108|324:92,1,70,2|2,0:0|0:0,0:0:0
384,48,68617,6,0,P|436:64|476:136,1,140,4|8,0:0|0:0,0:0:0
388,128,69676,1,2,0:0:0
396,212,70029,2,0,P|344:196|304:124,1,140,2|8,0:0|0:0,0:0:0
256,56,71088,1,2,0:0:0
208,124,71441,2,0,P|168:196|116:212,1,140,2|8,0:0|0:0,0:0:0
120,128,72500,1,2,0:0:0
120,128,72853,2,0,P|224:232,1,140,2|8,0:0|0:0,0:0:0
288,176,73911,1,2,0:0:0
256,96,74264,6,0,P|256:20,2,70,2|2|8,0:0|0:0|0:0,0:0:0
256,236,75323,1,2,0:0:0
152,332,75676,2,0,P|232:360,1,70,0|2,0:0|0:0,0:0:0
360,332,76382,2,0,P|280:360,1,70,8|0,0:0|0:0,0:0:0
256,280,77088,6,0,P|256:208,1,70,2|2,0:0|0:0,0:0:0
256,124,77794,2,0,P|256:52,2,70,8|2|2,0:0|0:0|0:0,0:0:0
340,108,78853,1,2,0:0:0
340,108,79205,2,0,P|380:108|412:116,1,70,8|8,0:0|0:0,0:0:0
432,132,79735,1,8,0:0:0
448,156,79911,6,0,P|464:188|464:224,1,70,4|2,0:0|0:0,0:0:0
480,304,80617,1,8,0:0:0
480,304,80794,2,0,P|436:332|380:332,1,105,2|2,0:0|0:0,0:0:0
324,276,81676,1,2,0:0:0
300,264,81853,1,2,0:0:0
272,260,82029,2,0,P|232:260|200:268,1,70,8|2,0:0|0:0,0:0:0
84,196,82735,6,0,P|56:168|44:140,1,70,2|2,0:0|0:0,0:0:0
12,64,83441,1,8,0:0:0
12,64,83617,2,0,P|68:48|116:48,1,105,2|2,0:0|0:0,0:0:0
184,96,84500,1,2,0:0:0
208,108,84676,1,2,0:0:0
236,112,84853,2,0,P|276:112|320:96,1,70,8|2,0:0|0:0,0:0:0
412,36,85558,6,0,P|476:56|496:124,1,140,4|8,0:0|0:0,0:0:0
412,120,86617,1,2,0:0:0
412,204,86970,2,0,P|348:184|328:116,1,140,2|8,0:0|0:0,0:0:0
256,72,88029,1,2,0:0:0
172,60,88382,6,0,P|132:60|104:72,1,70,4|2,0:0|0:0,0:0:0
56,140,89088,1,8,0:0:0
124,192,89441,1,8,0:0:0
56,244,89794,2,0,P|20:244,2,35,2|8|2,0:0|0:0|0:0,0:0:0
76,324,90500,2,0,P|116:324|148:312,1,70,10|2,0:0|0:0,0:0:0
284,328,91205,5,4,0:0:0
296,296,91382,1,2,0:0:0
324,276,91558,2,0,P|352:252|364:220,1,70,2|8,0:0|0:0,0:0:0
324,88,92264,1,2,0:0:0
324,88,92441,2,0,P|288:84|252:92,1,70,2|2,0:0|0:0,0:0:0
180,128,92970,5,2,0:0:0
180,267,93323,1,8,0:0:0
308,328,93676,1,2,0:0:0
336,196,94029,2,0,P|376:196|408:208,1,70
484,184,94735,2,0,P|484:228|472:256,1,70,8|2,0:0|0:0,0:0:0
388,324,95441,5,2,0:0:0
364,312,95617,1,2,0:0:0
336,308,95794,1,0,0:0:0
308,312,95970,1,2,0:0:0
280,320,96147,1,8,0:0:0
252,320,96323,1,2,0:0:0
224,312,96500,1,2,0:0:0
204,292,96676,1,2,0:0:0
188,264,96853,6,0,P|192:224|208:196,1,70,2|2,0:0|0:0,0:0:0
280,148,97558,1,8,0:0:0
364,148,97911,2,0,P|404:148|432:140,2,70,2|2|2,0:0|0:0|0:0,0:0:0
336,68,98970,1,8,0:0:0
252,68,99323,1,2,0:0:0
172,100,99676,2,0,P|124:100|96:72|96:72|40:72,1,140,2|8,0:0|0:0,0:0:0
40,156,100735,1,2,0:0:0
152,192,101088,5,2,0:0:0
176,204,101264,1,2,0:0:0
196,224,101441,1,2,0:0:0
204,252,101617,1,2,0:0:0
204,280,101794,1,8,0:0:0
204,308,101970,1,2,0:0:0
220,332,102147,1,2,0:0:0
244,344,102323,1,0,0:0:0
272,348,102500,6,0,P|312:348|344:340,1,70,4|2,0:0|0:0,0:0:0
416,304,103205,1,8,0:0:0
464,236,103558,2,0,P|472:200|468:160,2,70,2|2|2,0:0|0:0|0:0,0:0:0
392,192,104617,1,8,0:0:0
336,132,104970,1,2,0:0:0
280,192,105323,6,0,P|280:248|216:296,1,140,2|8,0:0|0:0,0:0:0
136,284,106382,1,2,0:0:0
84,220,106735,2,0,P|84:164|148:116,1,140,2|8,0:0|0:0,0:0:0
224,148,107794,1,2,0:0:0
256,284,108147,5,2,0:0:0
280,300,108323,1,2,0:0:0
308,304,108500,1,2,0:0:0
336,300,108676,1,2,0:0:0
360,284,108853,2,0,P|388:256|392:224,1,70,8|2,0:0|0:0,0:0:0
416,88,109558,5,2,0:0:0
392,72,109735,1,2,0:0:0
364,68,109911,1,2,0:0:0
336,72,110088,1,2,0:0:0
312,88,110264,2,0,P|284:116|280:148,1,70,8|2,0:0|0:0,0:0:0
248,224,110970,5,4,0:0:0
224,304,111323,1,2,0:0:0
224,304,111500,2,0,P|180:324|124:324,1,105,2|8,0:0|0:0,0:0:0
96,316,112205,1,2,0:0:0
72,296,112382,2,0,P|48:264|44:228,1,70,2|2,0:0|0:0,0:0:0
48,208,112911,1,2,0:0:0
60,184,113088,1,8,0:0:0
36,32,113441,5,2,0:0:0
60,44,113617,1,2,0:0:0
88,48,113794,2,0,P|124:48|160:36,1,70,4|2,0:0|0:0,0:0:0
236,68,114500,1,8,0:0:0
316,48,114853,2,0,P|352:48|388:60,2,70,2|2|2,0:0|0:0|0:0,0:0:0
340,128,115911,2,0,P|340:168|332:196,1,70,8|2,0:0|0:0,0:0:0
368,332,116617,6,0,P|297:339|245:299,1,140,2|8,0:0|0:0,0:0:0
192,236,117676,1,2,0:0:0
116,196,118029,2,0,P|168:156|238:163,1,140,2|8,0:0|0:0,0:0:0
312,208,119088,1,2,0:0:0
336,288,119441,2,0,P|388:244|392:176,1,140,2|8,0:0|0:0,0:0:0
344,108,120500,1,2,0:0:0
416,60,120853,6,0,P|460:60|496:48,2,70,2|2|8,0:0|0:0|0:0,0:0:0
344,108,121911,1,2,0:0:0
280,56,122264,2,0,P|216:40|140:60,1,140,2|8,0:0|0:0,0:0:0
64,76,123323,1,2,0:0:0
48,156,123676,5,2,0:0:0
72,168,123853,1,2,0:0:0
92,188,124029,1,2,0:0:0
104,212,124205,1,2,0:0:0
104,240,124382,1,10,0:0:0
96,268,124558,1,2,0:0:0
80,292,124735,1,10,0:0:0
56,312,124911,1,10,0:0:0
28,320,125088,6,0,P|4:268|16:188,1,140,4|8,0:0|0:0,0:0:0
64,116,126147,1,2,0:0:0
148,112,126500,2,0,P|188:112|224:104,2,70,2|2|8,0:0|0:0|0:0,0:0:0
120,192,127558,1,2,0:0:0
204,192,127911,2,0,P|264:204|288:168|288:168|344:168,1,140,2|8,0:0|0:0,0:0:0
334,168,128970,1,2,0:0:0
392,108,129323,2,0,P|420:176|388:232,1,140,2|8,0:0|0:0,0:0:0
480,300,130382,5,2,0:0:0
468,324,130558,1,2,0:0:0
448,344,130735,2,0,P|412:352|368:352,1,70,4|2,0:0|0:0,0:0:0
316,296,131441,1,8,0:0:0
252,352,131794,1,2,0:0:0
188,296,132147,2,0,P|148:296|112:308,2,70,2|2|8,0:0|0:0|0:0,0:0:0
256,240,133205,1,2,0:0:0
256,192,133558,12,0,135323,0:0:0
256,280,135676,5,8,0:0:0
328,236,136029,1,2,0:0:0
364,160,136382,2,0,P|364:88|300:52,1,140,4|8,0:0|0:0,0:0:0
256,116,137441,1,2,0:0:0
217,189,137794,2,0,P|148:180|100:132,1,140,2|8,0:0|0:0,0:0:0
32,180,138853,1,2,0:0:0
24,264,139205,2,0,P|64:264|100:276,1,70,2|2,0:0|0:0,0:0:0
152,332,139911,2,0,P|192:336|232:332,2,70,8|2|2,0:0|0:0|0:0,0:0:0
260,240,141323,6,0,P|316:252|348:236|348:236|396:216,1,140,8|2,0:0|0:0,0:0:0
480,216,142382,1,2,0:0:0
472,132,142735,2,0,P|396:132,1,70,8|2,0:0|0:0,0:0:0
316,132,143441,5,2,0:0:0
196,64,143794,1,2,0:0:0
124,184,144147,1,8,0:0:0
244,256,144500,1,2,0:0:0
348,344,144853,6,0,P|388:344|420:336,1,70
472,208,145558,1,8,0:0:0
472,180,145735,1,2,0:0:0
460,156,145911,1,8,0:0:0
436,144,146088,1,2,0:0:0
408,140,146264,2,0,P|368:140,2,35,2|8|2,0:0|0:0|0:0,0:0:0
256,60,146970,6,0,P|220:60|188:48,1,70,8|2,0:0|0:0,0:0:0
104,40,147676,2,0,P|52:80|52:160,1,140,4|8,0:0|0:0,0:0:0
128,124,148735,1,2,0:0:0
128,124,149088,2,0,P|192:156,1,70
384,124,149794,2,0,P|320:156,1,70,8|2,0:0|0:0,0:0:0
256,100,150500,2,0,P|256:240,1,140,2|8,0:0|0:0,0:0:0
256,324,151558,1,2,0:0:0
176,344,151911,2,0,P|140:332|100:296,1,70,2|2,0:0|0:0,0:0:0
120,228,152617,5,8,0:0:0
40,200,152970,1,2,0:0:0
104,148,153323,2,0,P|124:92|124:92|172:92|204:56,1,140,2|8,0:0|0:0,0:0:0
256,124,154382,1,2,0:0:0
314,63,154735,2,0,P|340:92|388:92|388:92|408:148,1,140,2|8,0:0|0:0,0:0:0
407,147,155794,1,2,0:0:0
256,192,156147,12,0,157911,0:0:0
256,136,158264,5,8,0:0:0
192,192,158617,1,2,0:0:0
168,272,158970,2,0,P|120:292,2,35,4|2|2,0:0|0:0|0:0,0:0:0
232,320,159676,2,0,P|268:344|300:352,1,70,8|2,0:0|0:0,0:0:0
320,352,160205,1,2,0:0:0
348,352,160382,2,0,P|373:344|409:320,1,70,2|2,0:0|0:0,0:0:0
428,236,161088,2,0,P|428:192|440:168,1,70,8|2,0:0|0:0,0:0:0
476,36,161794,5,2,0:0:0
448,32,161970,1,2,0:0:0
420,32,162147,1,8,0:0:0
392,40,162323,1,2,0:0:0
368,56,162500,2,0,P|344:92|344:120,1,70,8|2,0:0|0:0,0:0:0
220,184,163205,2,0,P|244:148|244:120,1,70,2|2,0:0|0:0,0:0:0
140,160,163911,6,0,P|140:200|152:232,1,70,8|2,0:0|0:0,0:0:0
88,284,164617,1,2,0:0:0
96,312,164794,1,2,0:0:0
112,336,164970,1,2,0:0:0
140,348,165147,1,2,0:0:0
168,352,165323,2,0,P|208:352|248:340,1,70,8|2,0:0|0:0,0:0:0
280,272,166029,5,2,0:0:0
356,156,166382,1,2,0:0:0
480,220,166735,1,8,0:0:0
404,336,167088,1,2,0:0:0
280,272,167441,6,0,P|240:272|208:284,1,70
144,328,168147,1,8,0:0:0
116,336,168323,1,2,0:0:0
88,336,168500,1,8,0:0:0
60,328,168676,1,2,0:0:0
40,308,168853,2,0,P|28:272,2,35,2|8|2,0:0|0:0|0:0,0:0:0
116,188,169558,5,8,0:0:0
44,144,169911,1,2,0:0:0
116,104,170264,2,0,P|144:76|156:44,1,70,4|2,0:0|0:0,0:0:0
240,32,170970,2,0,P|240:92|296:148,1,140,8|2,0:0|0:0,0:0:0
368,180,172029,1,2,0:0:0
428,124,172382,2,0,P|460:140|476:172,1,70,8|2,0:0|0:0,0:0:0
472,304,173088,6,0,P|432:304|400:292,1,70
380,280,173617,1,2,0:0:0
352,276,173794,2,0,P|312:276|284:288,1,70,8|2,0:0|0:0,0:0:0
220,340,174500,2,0,P|192:364,2,35
128,232,175205,6,0,P|168:232|196:220,1,70,8|2,0:0|0:0,0:0:0
148,148,175911,2,0,P|108:148|80:160,2,70,2|2|8,0:0|0:0|0:0,0:0:0
224,108,176970,1,2,0:0:0
252,100,177147,1,2,0:0:0
280,108,177323,5,2,0:0:0
392,192,177676,1,2,0:0:0
304,300,178029,1,8,0:0:0
188,216,178382,1,2,0:0:0
256,192,178735,12,0,181205,0:0:0
88,192,181558,5,2,0:0:0
172,192,181958,1,2,0:0:0
172,192,182158,1,2,0:0:0
288,268,182558,1,2,0:0:0
288,268,182758,2,0,P|328:268|372:252,1,70
256,192,183358,12,0,186358,0:0:0
