osu file format v12

[General]
AudioFilename: 03 ray.mp3
AudioLeadIn: 0
PreviewTime: 210680
Countdown: 0
SampleSet: Normal
StackLeniency: 0.7
Mode: 1
LetterboxInBreaks: 0
WidescreenStoryboard: 0

[Editor]
DistanceSpacing: 1
BeatDivisor: 12
GridSize: 32
TimelineZoom: 2.2

[Metadata]
Title:ray
TitleUnicode:ray
Artist:BUMP OF CHICKEN
ArtistUnicode:BUMP OF CHICKEN
Creator:TKS
Version:Muzukashii
Source:
Tags:
BeatmapID:386809
BeatmapSetID:158058

[Difficulty]
HPDrainRate:5
CircleSize:5
OverallDifficulty:5
ApproachRate:5
SliderMultiplier:1.4
SliderTickRate:1

[Events]
//Background and Video events
0,0,"maxresdefault.jpg",0,-60
//Break Periods
//Storyboard Layer 0 (Background)
//Storyboard Layer 1 (Fail)
//Storyboard Layer 2 (Pass)
//Storyboard Layer 3 (Foreground)
//Storyboard Sound Samples
//Background Colour Transformations
3,100,163,162,255

[TimingPoints]
403,453.892124971632,4,1,0,100,1,0
403,-125,4,1,0,60,0,0
3958,-125,4,1,0,30,0,0
4488,-125,4,1,0,50,0,0
4714,-125,4,1,0,60,0,0
4941,-125,4,1,0,70,0,0
7665,-100,4,1,0,85,0,0
65763,-100,4,1,0,95,0,1
94699,-100,4,1,0,70,0,1
94812,-125,4,1,0,70,0,0
107975,-121.951219512195,4,1,0,70,0,0
108429,-116.279069767442,4,1,0,75,0,0
108656,-113.636363636364,4,1,0,78,0,0
108883,-111.111111111111,4,1,0,81,0,0
109110,-105.263157894737,4,1,0,83,0,0
109337,-100,4,1,0,85,0,0
138386,-100,4,1,0,95,0,1
167435,-100,4,1,0,85,0,0
210895,-111.111111111111,4,1,0,70,0,0
217817,-105.263157894737,4,1,0,80,0,0
223717,-100,4,1,0,90,0,0
225533,-100,4,1,0,95,0,1
250951,-100,4,1,0,85,0,0

[HitObjects]
256,192,403,5,8,0:0:0:0:
256,192,856,1,8,0:0:0:0:
256,192,1310,1,8,0:0:0:0:
256,192,1764,1,8,0:0:0:0:
256,192,2218,1,8,0:0:0:0:
256,192,2672,1,8,0:0:0:0:
256,192,3126,1,8,0:0:0:0:
256,192,3580,1,8,0:0:0:0:
256,192,4034,12,0,5622,0:0:0:0:
256,192,6076,5,0,0:0:0:0:
256,192,6303,1,0,0:0:0:0:
256,192,6530,1,8,0:0:0:0:
256,192,6984,1,8,0:0:0:0:
256,192,7211,1,0,0:0:0:0:
256,192,7665,1,4,0:0:0:0:
256,192,8119,1,8,0:0:0:0:
256,192,8573,1,0,0:0:0:0:
256,192,8800,1,8,0:0:0:0:
256,192,9026,1,0,0:0:0:0:
256,192,9253,1,8,0:0:0:0:
256,192,9707,1,0,0:0:0:0:
256,192,9934,1,8,0:0:0:0:
256,192,10161,1,8,0:0:0:0:
256,192,10388,1,0,0:0:0:0:
256,192,10615,1,0,0:0:0:0:
256,192,10842,1,8,0:0:0:0:
256,192,11296,1,0,0:0:0:0:
256,192,11750,1,8,0:0:0:0:
256,192,12204,1,0,0:0:0:0:
256,192,12431,1,8,0:0:0:0:
256,192,12658,1,0,0:0:0:0:
256,192,12885,1,8,0:0:0:0:
256,192,13338,1,8,0:0:0:0:
256,192,13565,1,8,0:0:0:0:
256,192,13792,1,0,0:0:0:0:
256,192,14019,1,8,0:0:0:0:
256,192,14473,1,8,0:0:0:0:
256,192,14587,1,8,0:0:0:0:
256,192,14700,1,8,0:0:0:0:
256,192,14927,1,4,0:0:0:0:
256,192,15381,1,8,0:0:0:0:
256,192,15835,1,0,0:0:0:0:
256,192,16062,1,8,0:0:0:0:
256,192,16289,1,0,0:0:0:0:
256,192,16516,1,8,0:0:0:0:
256,192,16970,1,0,0:0:0:0:
256,192,17197,1,8,0:0:0:0:
256,192,17423,1,8,0:0:0:0:
256,192,17650,1,0,0:0:0:0:
256,192,17877,1,0,0:0:0:0:
256,192,18104,1,8,0:0:0:0:
256,192,18558,1,4,0:0:0:0:
256,192,19012,1,8,0:0:0:0:
256,192,19239,1,0,0:0:0:0:
256,192,19693,1,8,0:0:0:0:
256,192,19920,1,0,0:0:0:0:
256,192,20147,1,0,0:0:0:0:
256,192,20374,1,12,0:0:0:0:
256,192,20828,1,12,0:0:0:0:
256,192,21282,1,0,0:0:0:0:
256,192,21735,1,0,0:0:0:0:
256,192,21962,1,0,0:0:0:0:
256,192,22189,1,4,0:0:0:0:
256,192,22643,1,0,0:0:0:0:
256,192,23097,1,8,0:0:0:0:
256,192,23551,1,8,0:0:0:0:
256,192,23778,1,0,0:0:0:0:
256,192,24232,1,0,0:0:0:0:
256,192,24459,1,8,0:0:0:0:
256,192,24686,1,0,0:0:0:0:
256,192,25140,1,8,0:0:0:0:
256,192,25594,1,0,0:0:0:0:
256,192,25820,1,0,0:0:0:0:
256,192,26274,1,8,0:0:0:0:
256,192,26501,1,0,0:0:0:0:
256,192,26955,1,0,0:0:0:0:
256,192,27182,1,8,0:0:0:0:
256,192,27636,1,8,0:0:0:0:
256,192,27863,1,0,0:0:0:0:
256,192,28090,1,0,0:0:0:0:
256,192,28317,1,8,0:0:0:0:
256,192,28771,1,0,0:0:0:0:
256,192,28998,1,0,0:0:0:0:
256,192,29225,1,8,0:0:0:0:
256,192,29452,1,0,0:0:0:0:
256,192,29905,1,8,0:0:0:0:
256,192,30132,1,0,0:0:0:0:
256,192,30359,1,0,0:0:0:0:
256,192,30813,1,8,0:0:0:0:
256,192,31267,1,0,0:0:0:0:
256,192,31494,1,0,0:0:0:0:
256,192,31721,1,8,0:0:0:0:
256,192,31948,1,8,0:0:0:0:
256,192,32175,1,0,0:0:0:0:
256,192,32629,1,0,0:0:0:0:
256,192,32856,1,0,0:0:0:0:
256,192,33083,1,0,0:0:0:0:
256,192,33537,1,8,0:0:0:0:
256,192,33764,1,8,0:0:0:0:
256,192,34217,1,0,0:0:0:0:
256,192,34444,1,0,0:0:0:0:
256,192,34898,1,8,0:0:0:0:
256,192,35352,1,0,0:0:0:0:
256,192,35579,1,8,0:0:0:0:
256,192,36033,1,0,0:0:0:0:
256,192,36260,1,8,0:0:0:0:
256,192,36487,1,0,0:0:0:0:
256,192,36714,1,4,0:0:0:0:
256,192,37168,1,8,0:0:0:0:
256,192,37622,1,0,0:0:0:0:
256,192,37849,1,0,0:0:0:0:
256,192,38076,1,8,0:0:0:0:
256,192,38302,1,0,0:0:0:0:
256,192,38756,1,0,0:0:0:0:
256,192,38983,1,8,0:0:0:0:
256,192,39210,1,0,0:0:0:0:
256,192,39437,1,0,0:0:0:0:
256,192,39664,1,8,0:0:0:0:
256,192,40118,1,0,0:0:0:0:
256,192,40345,1,0,0:0:0:0:
256,192,40799,1,8,0:0:0:0:
256,192,41253,1,0,0:0:0:0:
256,192,41480,1,0,0:0:0:0:
256,192,41707,1,8,0:0:0:0:
256,192,41934,1,0,0:0:0:0:
256,192,42388,1,0,0:0:0:0:
256,192,42614,1,8,0:0:0:0:
256,192,42841,1,8,0:0:0:0:
256,192,43068,1,0,0:0:0:0:
256,192,43522,1,8,0:0:0:0:
256,192,43749,1,0,0:0:0:0:
256,192,43976,1,0,0:0:0:0:
256,192,44430,1,8,0:0:0:0:
256,192,44884,1,0,0:0:0:0:
256,192,45111,1,0,0:0:0:0:
256,192,45338,1,8,0:0:0:0:
256,192,45792,1,0,0:0:0:0:
256,192,46019,1,0,0:0:0:0:
256,192,46246,1,8,0:0:0:0:
256,192,46473,1,8,0:0:0:0:
256,192,46699,1,0,0:0:0:0:
256,192,47153,1,8,0:0:0:0:
256,192,47380,1,0,0:0:0:0:
256,192,47607,1,0,0:0:0:0:
256,192,48061,1,8,0:0:0:0:
256,192,48288,1,0,0:0:0:0:
256,192,48742,1,8,0:0:0:0:
256,192,48969,1,0,0:0:0:0:
256,192,49196,1,8,0:0:0:0:
256,192,49650,1,0,0:0:0:0:
256,192,49877,1,8,0:0:0:0:
256,192,50104,1,8,0:0:0:0:
256,192,50331,1,0,0:0:0:0:
256,192,50785,1,8,0:0:0:0:
256,192,51238,1,4,0:0:0:0:
256,192,51692,1,8,0:0:0:0:
256,192,51919,1,8,0:0:0:0:
256,192,52146,1,0,0:0:0:0:
256,192,52600,1,8,0:0:0:0:
256,192,52827,1,8,0:0:0:0:
256,192,53281,1,0,0:0:0:0:
256,192,53508,1,8,0:0:0:0:
256,192,53735,1,8,0:0:0:0:
256,192,54189,1,0,0:0:0:0:
256,192,54416,1,8,0:0:0:0:
256,192,54643,1,0,0:0:0:0:
256,192,55097,1,0,0:0:0:0:
256,192,55323,1,8,0:0:0:0:
256,192,55550,1,0,0:0:0:0:
256,192,56004,1,0,0:0:0:0:
256,192,56231,1,8,0:0:0:0:
256,192,56458,1,8,0:0:0:0:
256,192,56912,1,0,0:0:0:0:
256,192,57366,1,8,0:0:0:0:
256,192,57593,1,0,0:0:0:0:
256,192,57820,1,0,0:0:0:0:
256,192,58047,1,8,0:0:0:0:
256,192,58501,1,4,0:0:0:0:
256,192,58955,1,8,0:0:0:0:
256,192,59182,1,0,0:0:0:0:
256,192,59408,1,0,0:0:0:0:
256,192,59862,1,8,0:0:0:0:
256,192,60089,1,8,0:0:0:0:
256,192,60316,1,0,0:0:0:0:
256,192,60770,1,8,0:0:0:0:
256,192,60997,1,8,0:0:0:0:
256,192,61451,1,0,0:0:0:0:
256,192,61678,1,8,0:0:0:0:
256,192,61905,1,8,0:0:0:0:
256,192,62132,1,4,0:0:0:0:
256,192,62586,1,8,0:0:0:0:
256,192,63040,1,0,0:0:0:0:
256,192,63267,1,0,0:0:0:0:
256,192,63494,1,8,0:0:0:0:
256,192,63947,1,4,0:0:0:0:
256,192,64174,1,4,0:0:0:0:
256,192,64401,1,4,0:0:0:0:
256,192,64628,1,4,0:0:0:0:
256,192,65082,1,12,0:0:0:0:
256,192,65309,1,12,0:0:0:0:
256,192,65763,1,4,0:0:0:0:
256,192,66217,1,8,0:0:0:0:
256,192,66444,1,0,0:0:0:0:
256,192,66557,1,0,0:0:0:0:
256,192,66671,1,0,0:0:0:0:
256,192,66898,1,0,0:0:0:0:
256,192,67125,1,8,0:0:0:0:
256,192,67579,1,0,0:0:0:0:
256,192,67805,1,0,0:0:0:0:
256,192,68032,1,8,0:0:0:0:
256,192,68259,1,8,0:0:0:0:
256,192,68486,1,0,0:0:0:0:
256,192,68940,1,8,0:0:0:0:
256,192,69394,1,0,0:0:0:0:
256,192,69848,1,8,0:0:0:0:
256,192,70075,1,0,0:0:0:0:
256,192,70188,1,0,0:0:0:0:
256,192,70302,1,0,0:0:0:0:
256,192,70529,1,0,0:0:0:0:
256,192,70756,1,8,0:0:0:0:
256,192,71210,1,0,0:0:0:0:
256,192,71437,1,0,0:0:0:0:
256,192,71664,1,8,0:0:0:0:
256,192,71891,1,8,0:0:0:0:
256,192,72117,1,0,0:0:0:0:
256,192,72571,1,8,0:0:0:0:
256,192,73025,1,4,0:0:0:0:
256,192,73479,1,8,0:0:0:0:
256,192,73706,1,0,0:0:0:0:
256,192,73933,1,0,0:0:0:0:
256,192,74387,1,8,0:0:0:0:
256,192,74614,1,0,0:0:0:0:
256,192,75068,1,0,0:0:0:0:
256,192,75295,1,8,0:0:0:0:
256,192,75522,1,0,0:0:0:0:
256,192,75749,1,8,0:0:0:0:
256,192,76202,1,0,0:0:0:0:
256,192,76429,1,8,0:0:0:0:
256,192,76656,1,0,0:0:0:0:
256,192,77110,1,8,0:0:0:0:
256,192,77337,1,0,0:0:0:0:
256,192,77564,1,0,0:0:0:0:
256,192,77791,1,8,0:0:0:0:
256,192,78245,1,8,0:0:0:0:
256,192,78472,1,0,0:0:0:0:
256,192,78699,1,8,0:0:0:0:
256,192,79153,1,8,0:0:0:0:
256,192,79380,1,8,0:0:0:0:
256,192,79607,1,0,0:0:0:0:
256,192,79834,1,8,0:0:0:0:
256,192,79947,1,8,0:0:0:0:
256,192,80061,1,8,0:0:0:0:
256,192,80288,1,4,0:0:0:0:
256,192,80741,1,8,0:0:0:0:
256,192,80968,1,0,0:0:0:0:
256,192,81195,1,0,0:0:0:0:
256,192,81422,1,0,0:0:0:0:
256,192,81536,1,0,0:0:0:0:
256,192,81649,1,8,0:0:0:0:
256,192,82103,1,0,0:0:0:0:
256,192,82330,1,0,0:0:0:0:
256,192,82557,1,8,0:0:0:0:
256,192,82784,1,8,0:0:0:0:
256,192,83011,1,0,0:0:0:0:
256,192,83465,1,8,0:0:0:0:
256,192,83919,1,0,0:0:0:0:
256,192,84373,1,8,0:0:0:0:
256,192,84599,1,0,0:0:0:0:
256,192,84826,1,0,0:0:0:0:
256,192,85053,1,0,0:0:0:0:
256,192,85167,1,0,0:0:0:0:
256,192,85280,1,8,0:0:0:0:
256,192,85734,1,0,0:0:0:0:
256,192,85961,1,0,0:0:0:0:
256,192,86188,1,8,0:0:0:0:
256,192,86415,1,8,0:0:0:0:
256,192,86642,1,0,0:0:0:0:
256,192,87096,1,8,0:0:0:0:
256,192,87550,1,4,0:0:0:0:
256,192,88004,1,8,0:0:0:0:
256,192,88231,1,0,0:0:0:0:
256,192,88458,1,0,0:0:0:0:
256,192,88911,1,8,0:0:0:0:
256,192,89138,1,0,0:0:0:0:
256,192,89592,1,0,0:0:0:0:
256,192,89819,1,8,0:0:0:0:
256,192,90046,1,0,0:0:0:0:
256,192,90273,1,8,0:0:0:0:
256,192,90727,1,0,0:0:0:0:
256,192,90954,1,0,0:0:0:0:
256,192,91181,1,8,0:0:0:0:
256,192,91408,1,8,0:0:0:0:
256,192,91635,1,0,0:0:0:0:
256,192,91862,1,8,0:0:0:0:
256,192,92316,1,0,0:0:0:0:
256,192,92543,1,8,0:0:0:0:
256,192,92770,1,0,0:0:0:0:
256,192,93223,1,0,0:0:0:0:
256,192,93450,1,8,0:0:0:0:
256,192,93677,1,0,0:0:0:0:
256,192,93904,1,8,0:0:0:0:
256,192,94018,1,8,0:0:0:0:
256,192,94131,1,8,0:0:0:0:
256,192,94245,1,8,0:0:0:0:
256,192,94358,1,8,0:0:0:0:
256,192,94812,1,0,0:0:0:0:
256,192,95266,1,0,0:0:0:0:
256,192,95720,1,8,0:0:0:0:
256,192,96174,1,8,0:0:0:0:
256,192,96401,1,0,0:0:0:0:
256,192,96628,1,0,0:0:0:0:
256,192,97082,1,0,0:0:0:0:
256,192,97535,1,8,0:0:0:0:
256,192,97989,1,8,0:0:0:0:
256,192,98443,1,0,0:0:0:0:
256,192,98897,1,0,0:0:0:0:
256,192,99124,1,0,0:0:0:0:
256,192,99351,1,8,0:0:0:0:
256,192,99805,1,8,0:0:0:0:
256,192,100259,1,0,0:0:0:0:
256,192,100713,1,0,0:0:0:0:
256,192,100940,1,0,0:0:0:0:
256,192,101167,1,8,0:0:0:0:
256,192,101620,1,8,0:0:0:0:
256,192,101847,1,0,0:0:0:0:
256,192,102074,1,0,0:0:0:0:
256,192,102528,1,8,0:0:0:0:
256,192,102982,1,0,0:0:0:0:
256,192,103209,1,0,0:0:0:0:
256,192,103436,1,8,0:0:0:0:
256,192,103890,1,0,0:0:0:0:
256,192,104344,1,8,0:0:0:0:
256,192,104571,1,8,0:0:0:0:
256,192,104798,1,0,0:0:0:0:
256,192,105252,1,0,0:0:0:0:
256,192,105479,1,0,0:0:0:0:
256,192,105705,1,8,0:0:0:0:
256,192,106159,1,8,0:0:0:0:
256,192,106386,1,8,0:0:0:0:
256,192,106613,1,0,0:0:0:0:
256,192,107067,1,8,0:0:0:0:
256,192,107294,1,0,0:0:0:0:
256,192,107521,1,0,0:0:0:0:
256,192,107975,1,8,0:0:0:0:
256,192,108429,1,0,0:0:0:0:
256,192,108656,1,0,0:0:0:0:
256,192,108883,1,0,0:0:0:0:
256,192,109110,1,0,0:0:0:0:
256,192,109337,1,12,0:0:0:0:
256,192,109791,1,0,0:0:0:0:
256,192,110244,1,8,0:0:0:0:
256,192,110471,1,0,0:0:0:0:
256,192,110698,1,8,0:0:0:0:
256,192,110925,1,0,0:0:0:0:
256,192,111152,1,8,0:0:0:0:
256,192,111606,1,8,0:0:0:0:
256,192,111833,1,0,0:0:0:0:
256,192,112060,1,8,0:0:0:0:
256,192,112514,1,0,0:0:0:0:
256,192,112741,1,0,0:0:0:0:
256,192,112968,1,8,0:0:0:0:
256,192,113422,1,0,0:0:0:0:
256,192,113876,1,8,0:0:0:0:
256,192,114102,1,8,0:0:0:0:
256,192,114329,1,0,0:0:0:0:
256,192,114783,1,8,0:0:0:0:
256,192,115237,1,8,0:0:0:0:
256,192,115691,1,0,0:0:0:0:
256,192,116145,1,8,0:0:0:0:
256,192,116372,1,0,0:0:0:0:
256,192,116599,1,8,0:0:0:0:
256,192,117053,1,8,0:0:0:0:
256,192,117507,1,0,0:0:0:0:
256,192,117961,1,0,0:0:0:0:
256,192,118414,1,8,0:0:0:0:
256,192,118641,1,8,0:0:0:0:
256,192,118868,1,0,0:0:0:0:
256,192,119095,1,0,0:0:0:0:
256,192,119322,1,8,0:0:0:0:
256,192,119776,1,0,0:0:0:0:
256,192,120003,1,0,0:0:0:0:
256,192,120230,1,8,0:0:0:0:
256,192,120684,1,8,0:0:0:0:
256,192,120911,1,0,0:0:0:0:
256,192,121138,1,8,0:0:0:0:
256,192,121592,1,0,0:0:0:0:
256,192,121819,1,0,0:0:0:0:
256,192,122046,1,8,0:0:0:0:
256,192,122499,1,8,0:0:0:0:
256,192,122726,1,8,0:0:0:0:
256,192,122953,1,0,0:0:0:0:
256,192,123407,1,8,0:0:0:0:
256,192,123861,1,4,0:0:0:0:
256,192,124315,1,8,0:0:0:0:
256,192,124542,1,8,0:0:0:0:
256,192,124769,1,0,0:0:0:0:
256,192,125223,1,8,0:0:0:0:
256,192,125450,1,8,0:0:0:0:
256,192,125904,1,0,0:0:0:0:
256,192,126131,1,8,0:0:0:0:
256,192,126358,1,8,0:0:0:0:
256,192,126811,1,0,0:0:0:0:
256,192,127038,1,8,0:0:0:0:
256,192,127492,1,0,0:0:0:0:
256,192,127719,1,0,0:0:0:0:
256,192,127946,1,8,0:0:0:0:
256,192,128173,1,0,0:0:0:0:
256,192,128627,1,0,0:0:0:0:
256,192,128854,1,8,0:0:0:0:
256,192,129081,1,8,0:0:0:0:
256,192,129535,1,0,0:0:0:0:
256,192,129989,1,8,0:0:0:0:
256,192,130443,1,0,0:0:0:0:
256,192,130670,1,8,0:0:0:0:
256,192,130896,1,0,0:0:0:0:
256,192,131123,1,4,0:0:0:0:
256,192,131577,1,8,0:0:0:0:
256,192,131804,1,0,0:0:0:0:
256,192,132031,1,0,0:0:0:0:
256,192,132485,1,8,0:0:0:0:
256,192,132712,1,8,0:0:0:0:
256,192,132939,1,0,0:0:0:0:
256,192,133393,1,8,0:0:0:0:
256,192,133620,1,8,0:0:0:0:
256,192,134074,1,0,0:0:0:0:
256,192,134301,1,8,0:0:0:0:
256,192,134528,1,8,0:0:0:0:
256,192,134755,1,4,0:0:0:0:
256,192,135208,1,8,0:0:0:0:
256,192,135662,1,0,0:0:0:0:
256,192,135889,1,0,0:0:0:0:
256,192,136116,1,8,0:0:0:0:
256,192,136570,1,4,0:0:0:0:
256,192,136797,1,4,0:0:0:0:
256,192,137024,1,4,0:0:0:0:
256,192,137251,1,4,0:0:0:0:
256,192,137705,1,12,0:0:0:0:
256,192,137932,1,12,0:0:0:0:
256,192,138386,1,4,0:0:0:0:
256,192,138840,1,8,0:0:0:0:
256,192,139067,1,0,0:0:0:0:
256,192,139293,1,0,0:0:0:0:
256,192,139407,1,0,0:0:0:0:
256,192,139520,1,0,0:0:0:0:
256,192,139747,1,8,0:0:0:0:
256,192,140201,1,0,0:0:0:0:
256,192,140428,1,8,0:0:0:0:
256,192,140655,1,8,0:0:0:0:
256,192,140882,1,8,0:0:0:0:
256,192,141109,1,0,0:0:0:0:
256,192,141563,1,8,0:0:0:0:
256,192,142017,1,0,0:0:0:0:
256,192,142471,1,8,0:0:0:0:
256,192,142698,1,0,0:0:0:0:
256,192,142925,1,0,0:0:0:0:
256,192,143038,1,0,0:0:0:0:
256,192,143152,1,0,0:0:0:0:
256,192,143379,1,8,0:0:0:0:
256,192,143832,1,0,0:0:0:0:
256,192,144059,1,8,0:0:0:0:
256,192,144286,1,8,0:0:0:0:
256,192,144513,1,0,0:0:0:0:
256,192,144740,1,8,0:0:0:0:
256,192,145194,1,8,0:0:0:0:
256,192,145648,1,4,0:0:0:0:
256,192,146102,1,8,0:0:0:0:
256,192,146329,1,0,0:0:0:0:
256,192,146556,1,0,0:0:0:0:
256,192,147010,1,8,0:0:0:0:
256,192,147237,1,0,0:0:0:0:
256,192,147690,1,0,0:0:0:0:
256,192,147917,1,8,0:0:0:0:
256,192,148144,1,0,0:0:0:0:
256,192,148371,1,8,0:0:0:0:
256,192,148825,1,0,0:0:0:0:
256,192,149052,1,8,0:0:0:0:
256,192,149279,1,0,0:0:0:0:
256,192,149733,1,8,0:0:0:0:
256,192,149960,1,0,0:0:0:0:
256,192,150187,1,0,0:0:0:0:
256,192,150414,1,8,0:0:0:0:
256,192,150868,1,8,0:0:0:0:
256,192,151095,1,0,0:0:0:0:
256,192,151322,1,8,0:0:0:0:
256,192,151776,1,8,0:0:0:0:
256,192,152002,1,8,0:0:0:0:
256,192,152229,1,0,0:0:0:0:
256,192,152456,1,8,0:0:0:0:
256,192,152570,1,8,0:0:0:0:
256,192,152683,1,8,0:0:0:0:
256,192,152910,1,4,0:0:0:0:
256,192,153364,1,8,0:0:0:0:
256,192,153591,1,0,0:0:0:0:
256,192,153818,1,0,0:0:0:0:
256,192,154045,1,0,0:0:0:0:
256,192,154158,1,0,0:0:0:0:
256,192,154272,1,8,0:0:0:0:
256,192,154726,1,0,0:0:0:0:
256,192,154953,1,8,0:0:0:0:
256,192,155180,1,8,0:0:0:0:
256,192,155407,1,8,0:0:0:0:
256,192,155634,1,0,0:0:0:0:
256,192,156087,1,8,0:0:0:0:
256,192,156541,1,0,0:0:0:0:
256,192,156995,1,8,0:0:0:0:
256,192,157222,1,0,0:0:0:0:
256,192,157449,1,0,0:0:0:0:
256,192,157676,1,0,0:0:0:0:
256,192,157790,1,0,0:0:0:0:
256,192,157903,1,8,0:0:0:0:
256,192,158357,1,0,0:0:0:0:
256,192,158584,1,8,0:0:0:0:
256,192,158811,1,8,0:0:0:0:
256,192,159038,1,0,0:0:0:0:
256,192,159265,1,8,0:0:0:0:
256,192,159719,1,8,0:0:0:0:
256,192,160173,1,4,0:0:0:0:
256,192,160626,1,8,0:0:0:0:
256,192,160853,1,0,0:0:0:0:
256,192,161080,1,0,0:0:0:0:
256,192,161534,1,8,0:0:0:0:
256,192,161761,1,0,0:0:0:0:
256,192,162215,1,0,0:0:0:0:
256,192,162442,1,8,0:0:0:0:
256,192,162669,1,0,0:0:0:0:
256,192,162896,1,8,0:0:0:0:
256,192,163350,1,0,0:0:0:0:
256,192,163577,1,0,0:0:0:0:
256,192,163804,1,8,0:0:0:0:
256,192,164031,1,8,0:0:0:0:
256,192,164258,1,0,0:0:0:0:
256,192,164485,1,8,0:0:0:0:
256,192,164938,1,0,0:0:0:0:
256,192,165165,1,8,0:0:0:0:
256,192,165392,1,0,0:0:0:0:
256,192,165846,1,0,0:0:0:0:
256,192,166073,1,8,0:0:0:0:
256,192,166300,1,0,0:0:0:0:
256,192,166527,1,8,0:0:0:0:
256,192,166640,1,8,0:0:0:0:
256,192,166754,1,8,0:0:0:0:
256,192,166867,1,8,0:0:0:0:
256,192,166981,1,8,0:0:0:0:
256,192,167435,1,4,0:0:0:0:
256,192,167889,1,0,0:0:0:0:
256,192,168343,1,0,0:0:0:0:
256,192,168796,1,0,0:0:0:0:
256,192,169250,1,0,0:0:0:0:
256,192,169704,1,0,0:0:0:0:
256,192,170158,1,0,0:0:0:0:
256,192,170385,1,0,0:0:0:0:
256,192,170612,1,8,0:0:0:0:
256,192,171066,1,0,0:0:0:0:
256,192,171520,1,0,0:0:0:0:
256,192,171974,1,0,0:0:0:0:
256,192,172428,1,0,0:0:0:0:
256,192,172882,1,0,0:0:0:0:
256,192,173335,1,0,0:0:0:0:
256,192,173789,1,0,0:0:0:0:
256,192,174016,1,8,0:0:0:0:
256,192,174243,1,8,0:0:0:0:
256,192,174697,1,4,0:0:0:0:
256,192,175151,1,0,0:0:0:0:
256,192,175605,1,0,0:0:0:0:
256,192,176059,1,0,0:0:0:0:
256,192,176513,1,0,0:0:0:0:
256,192,176967,1,0,0:0:0:0:
256,192,177193,1,0,0:0:0:0:
256,192,177420,1,0,0:0:0:0:
256,192,177874,1,8,0:0:0:0:
256,192,178328,1,4,0:0:0:0:
256,192,178782,1,8,0:0:0:0:
256,192,179009,1,0,0:0:0:0:
256,192,179463,1,0,0:0:0:0:
256,192,179690,1,8,0:0:0:0:
256,192,179917,1,0,0:0:0:0:
256,192,180371,1,8,0:0:0:0:
256,192,180598,1,8,0:0:0:0:
256,192,180825,1,0,0:0:0:0:
256,192,181052,1,8,0:0:0:0:
256,192,181165,1,8,0:0:0:0:
256,192,181279,1,8,0:0:0:0:
256,192,181392,1,8,0:0:0:0:
256,192,181505,1,8,0:0:0:0:
256,192,181959,1,12,0:0:0:0:
256,192,182186,1,0,0:0:0:0:
256,192,182413,1,8,0:0:0:0:
256,192,182640,1,0,0:0:0:0:
256,192,182754,1,0,0:0:0:0:
256,192,182867,1,0,0:0:0:0:
256,192,183094,1,8,0:0:0:0:
256,192,183548,1,8,0:0:0:0:
256,192,183775,1,8,0:0:0:0:
256,192,184002,1,0,0:0:0:0:
256,192,184229,1,8,0:0:0:0:
256,192,184342,1,8,0:0:0:0:
256,192,184456,1,8,0:0:0:0:
256,192,184683,1,0,0:0:0:0:
256,192,184910,1,8,0:0:0:0:
256,192,185364,1,0,0:0:0:0:
256,192,185590,1,8,0:0:0:0:
256,192,185817,1,0,0:0:0:0:
256,192,186044,1,8,0:0:0:0:
256,192,186271,1,0,0:0:0:0:
256,192,186385,1,0,0:0:0:0:
256,192,186498,1,0,0:0:0:0:
256,192,186725,1,8,0:0:0:0:
256,192,187179,1,8,0:0:0:0:
256,192,187406,1,0,0:0:0:0:
256,192,187633,1,8,0:0:0:0:
256,192,187860,1,8,0:0:0:0:
256,192,188087,1,8,0:0:0:0:
256,192,188541,1,0,0:0:0:0:
256,192,188768,1,8,0:0:0:0:
256,192,188881,1,8,0:0:0:0:
256,192,188995,1,8,0:0:0:0:
256,192,189222,1,4,0:0:0:0:
256,192,189676,1,8,0:0:0:0:
256,192,189902,1,0,0:0:0:0:
256,192,190016,1,0,0:0:0:0:
256,192,190129,1,0,0:0:0:0:
256,192,190356,1,8,0:0:0:0:
256,192,190810,1,8,0:0:0:0:
256,192,191037,1,0,0:0:0:0:
256,192,191264,1,0,0:0:0:0:
256,192,191491,1,8,0:0:0:0:
256,192,191718,1,0,0:0:0:0:
256,192,192172,1,8,0:0:0:0:
256,192,192399,1,8,0:0:0:0:
256,192,192626,1,0,0:0:0:0:
256,192,192853,1,12,0:0:0:0:
256,192,193307,1,0,0:0:0:0:
256,192,193534,1,0,0:0:0:0:
256,192,193987,1,8,0:0:0:0:
256,192,194214,1,0,0:0:0:0:
256,192,194441,1,0,0:0:0:0:
256,192,194668,1,12,0:0:0:0:
256,192,195122,1,12,0:0:0:0:
256,192,196030,1,8,0:0:0:0:
256,192,196484,1,4,0:0:0:0:
256,192,196938,1,8,0:0:0:0:
256,192,197392,1,0,0:0:0:0:
256,192,197846,1,8,0:0:0:0:
256,192,198073,1,8,0:0:0:0:
256,192,198299,1,0,0:0:0:0:
256,192,198753,1,8,0:0:0:0:
256,192,199207,1,0,0:0:0:0:
256,192,199434,1,0,0:0:0:0:
256,192,199661,1,8,0:0:0:0:
256,192,200115,1,0,0:0:0:0:
256,192,200342,1,0,0:0:0:0:
256,192,200569,1,8,0:0:0:0:
256,192,200796,1,0,0:0:0:0:
256,192,201250,1,0,0:0:0:0:
256,192,201477,1,8,0:0:0:0:
256,192,201704,1,8,0:0:0:0:
256,192,202158,1,0,0:0:0:0:
256,192,202611,1,8,0:0:0:0:
256,192,203065,1,0,0:0:0:0:
256,192,203292,1,8,0:0:0:0:
256,192,203519,1,0,0:0:0:0:
256,192,203746,1,4,0:0:0:0:
256,192,204200,1,8,0:0:0:0:
256,192,204427,1,0,0:0:0:0:
256,192,204654,1,0,0:0:0:0:
256,192,205108,1,8,0:0:0:0:
256,192,205335,1,8,0:0:0:0:
256,192,205562,1,0,0:0:0:0:
256,192,205789,1,8,0:0:0:0:
256,192,206243,1,8,0:0:0:0:
256,192,206696,1,0,0:0:0:0:
256,192,206923,1,8,0:0:0:0:
256,192,207150,1,8,0:0:0:0:
256,192,207377,1,4,0:0:0:0:
256,192,207831,1,8,0:0:0:0:
256,192,208285,1,0,0:0:0:0:
256,192,208512,1,0,0:0:0:0:
256,192,208739,1,8,0:0:0:0:
256,192,209193,2,0,L|224:160,8,35,8|0|0|0|8|8|0|8|0,0:0|0:0|0:0|0:0|0:0|0:0|0:0|0:0|0:0,0:0:0:0:
256,192,210328,1,12,0:0:0:0:
256,192,210555,1,12,0:0:0:0:
256,192,211008,1,4,0:0:0:0:
256,192,211462,1,8,0:0:0:0:
256,192,211689,1,0,0:0:0:0:
256,192,212143,1,0,0:0:0:0:
256,192,212370,1,8,0:0:0:0:
256,192,212824,1,0,0:0:0:0:
256,192,213051,1,0,0:0:0:0:
256,192,213278,1,8,0:0:0:0:
256,192,213505,1,0,0:0:0:0:
256,192,213732,1,0,0:0:0:0:
256,192,214186,1,8,0:0:0:0:
256,192,214640,1,0,0:0:0:0:
256,192,215093,1,8,0:0:0:0:
256,192,215320,1,0,0:0:0:0:
256,192,215774,1,0,0:0:0:0:
256,192,216001,1,8,0:0:0:0:
256,192,216455,1,0,0:0:0:0:
256,192,216682,1,0,0:0:0:0:
256,192,216909,1,8,0:0:0:0:
256,192,217136,1,0,0:0:0:0:
256,192,217363,1,0,0:0:0:0:
256,192,217817,1,8,0:0:0:0:
256,192,218271,1,0,0:0:0:0:
256,192,218725,1,8,0:0:0:0:
256,192,219179,1,0,0:0:0:0:
256,192,219632,1,8,0:0:0:0:
256,192,220086,1,0,0:0:0:0:
256,192,220540,1,8,0:0:0:0:
256,192,220767,1,0,0:0:0:0:
256,192,220994,1,0,0:0:0:0:
256,192,221448,1,8,0:0:0:0:
256,192,221902,1,0,0:0:0:0:
256,192,222356,1,8,0:0:0:0:
256,192,222583,1,0,0:0:0:0:
256,192,222810,1,0,0:0:0:0:
256,192,223037,1,8,0:0:0:0:
256,192,223490,1,8,0:0:0:0:
256,192,223717,1,0,0:0:0:0:
256,192,223944,1,0,0:0:0:0:
256,192,224058,1,0,0:0:0:0:
256,192,224171,1,0,0:0:0:0:
256,192,224285,1,0,0:0:0:0:
256,192,224398,1,0,0:0:0:0:
256,192,224852,1,12,0:0:0:0:
256,192,225079,1,12,0:0:0:0:
256,192,225533,1,4,0:0:0:0:
256,192,225987,1,8,0:0:0:0:
256,192,226214,1,0,0:0:0:0:
256,192,226441,1,0,0:0:0:0:
256,192,226668,1,0,0:0:0:0:
256,192,226781,1,0,0:0:0:0:
256,192,226895,1,8,0:0:0:0:
256,192,227122,1,0,0:0:0:0:
256,192,227576,1,8,0:0:0:0:
256,192,227802,1,8,0:0:0:0:
256,192,228029,1,8,0:0:0:0:
256,192,228256,1,0,0:0:0:0:
256,192,228710,1,8,0:0:0:0:
256,192,229164,1,0,0:0:0:0:
256,192,229618,1,8,0:0:0:0:
256,192,229845,1,0,0:0:0:0:
256,192,230072,1,0,0:0:0:0:
256,192,230299,1,0,0:0:0:0:
256,192,230412,1,0,0:0:0:0:
256,192,230526,1,8,0:0:0:0:
256,192,230753,1,0,0:0:0:0:
256,192,231207,1,0,0:0:0:0:
256,192,231434,1,8,0:0:0:0:
256,192,231661,1,8,0:0:0:0:
256,192,231887,1,0,0:0:0:0:
256,192,232341,1,8,0:0:0:0:
256,192,232795,1,4,0:0:0:0:
256,192,233249,1,8,0:0:0:0:
256,192,233476,1,0,0:0:0:0:
256,192,233703,1,0,0:0:0:0:
256,192,234157,1,8,0:0:0:0:
256,192,234384,1,0,0:0:0:0:
256,192,234838,1,0,0:0:0:0:
256,192,235065,1,8,0:0:0:0:
256,192,235292,1,0,0:0:0:0:
256,192,235519,1,8,0:0:0:0:
256,192,235973,1,0,0:0:0:0:
256,192,236199,1,0,0:0:0:0:
256,192,236426,1,8,0:0:0:0:
256,192,236653,1,8,0:0:0:0:
256,192,236880,1,0,0:0:0:0:
256,192,237107,1,8,0:0:0:0:
256,192,237561,1,0,0:0:0:0:
256,192,237788,1,8,0:0:0:0:
256,192,238015,1,0,0:0:0:0:
256,192,238469,1,0,0:0:0:0:
256,192,238696,1,8,0:0:0:0:
256,192,238923,1,0,0:0:0:0:
256,192,239150,1,0,0:0:0:0:
256,192,239377,1,0,0:0:0:0:
256,192,239604,1,8,0:0:0:0:
256,192,240058,1,4,0:0:0:0:
256,192,240511,1,8,0:0:0:0:
256,192,240738,1,0,0:0:0:0:
256,192,240965,1,0,0:0:0:0:
256,192,241419,1,8,0:0:0:0:
256,192,241646,1,0,0:0:0:0:
256,192,242100,1,0,0:0:0:0:
256,192,242327,1,8,0:0:0:0:
256,192,242554,1,0,0:0:0:0:
256,192,242781,1,8,0:0:0:0:
256,192,243235,1,0,0:0:0:0:
256,192,243462,1,0,0:0:0:0:
256,192,243689,1,8,0:0:0:0:
256,192,243916,1,8,0:0:0:0:
256,192,244143,1,0,0:0:0:0:
256,192,244370,1,8,0:0:0:0:
256,192,244823,1,0,0:0:0:0:
256,192,245050,1,8,0:0:0:0:
256,192,245277,1,0,0:0:0:0:
256,192,245504,1,12,0:0:0:0:
256,192,245958,1,12,0:0:0:0:
256,192,246639,1,0,0:0:0:0:
256,192,246866,1,8,0:0:0:0:
256,192,247093,1,8,0:0:0:0:
256,192,247320,1,4,0:0:0:0:
256,192,247774,1,8,0:0:0:0:
256,192,248228,1,0,0:0:0:0:
256,192,248455,1,0,0:0:0:0:
256,192,248681,1,8,0:0:0:0:
256,192,249135,2,8,L|224:160,8,35,8|8|0|0|8|0|8|8|8,0:0|0:0|0:0|0:0|0:0|0:0|0:0|0:0|0:0,0:0:0:0:
256,192,250270,1,12,0:0:0:0:
256,192,250497,1,12,0:0:0:0:
256,192,250951,1,4,0:0:0:0:
256,192,251405,1,8,0:0:0:0:
256,192,251859,1,0,0:0:0:0:
256,192,252086,1,8,0:0:0:0:
256,192,252313,1,0,0:0:0:0:
256,192,252540,1,8,0:0:0:0:
256,192,252993,1,0,0:0:0:0:
256,192,253220,1,8,0:0:0:0:
256,192,253447,1,8,0:0:0:0:
256,192,253674,1,0,0:0:0:0:
256,192,253901,1,0,0:0:0:0:
256,192,254128,1,8,0:0:0:0:
256,192,254582,1,0,0:0:0:0:
256,192,255036,1,8,0:0:0:0:
256,192,255490,1,0,0:0:0:0:
256,192,255717,1,8,0:0:0:0:
256,192,255944,1,0,0:0:0:0:
256,192,256171,1,8,0:0:0:0:
256,192,256625,1,8,0:0:0:0:
256,192,256852,1,8,0:0:0:0:
256,192,257078,1,0,0:0:0:0:
256,192,257305,1,8,0:0:0:0:
256,192,257759,1,8,0:0:0:0:
256,192,257873,1,8,0:0:0:0:
256,192,257986,1,8,0:0:0:0:
256,192,258213,1,4,0:0:0:0:
256,192,258667,1,8,0:0:0:0:
256,192,259121,1,0,0:0:0:0:
256,192,259348,1,8,0:0:0:0:
256,192,259575,1,0,0:0:0:0:
256,192,259802,1,8,0:0:0:0:
256,192,260256,1,0,0:0:0:0:
256,192,260483,1,8,0:0:0:0:
256,192,260710,1,8,0:0:0:0:
256,192,260937,1,0,0:0:0:0:
256,192,261164,1,0,0:0:0:0:
256,192,261390,1,8,0:0:0:0:
256,192,261844,1,4,0:0:0:0:
256,192,262298,1,8,0:0:0:0:
256,192,262525,1,0,0:0:0:0:
256,192,262979,1,8,0:0:0:0:
256,192,263206,1,0,0:0:0:0:
256,192,263433,1,0,0:0:0:0:
256,192,263660,1,12,0:0:0:0:
256,192,264114,1,12,0:0:0:0:
256,192,264568,1,0,0:0:0:0:
256,192,265022,1,0,0:0:0:0:
256,192,265249,1,8,0:0:0:0:
256,192,265476,12,0,272738,0:0:0:0:
