osu file format v9

[General]
AudioFilename: aaa.mp3
AudioLeadIn: 0
PreviewTime: -1
Countdown: 1
SampleSet: Normal
StackLeniency: 0.7
Mode: 0
LetterboxInBreaks: 1

[Editor]
DistanceSpacing: 0.8
BeatDivisor: 8
GridSize: 8

[Metadata]
Title:Zero
Artist:BUMP OF CHICKEN
Creator:Kirito47
Version:Kiri
Source:
Tags:

[Difficulty]
HPDrainRate:8
CircleSize:4
OverallDifficulty:6
ApproachRate:9
SliderMultiplier:1.4
SliderTickRate:0.5

[Events]
//Background and Video events
//Break Periods
2,62197,69228
//Storyboard Layer 0 (Background)
//Storyboard Layer 1 (Fail)
//Storyboard Layer 2 (Pass)
//Storyboard Layer 3 (Foreground)
//Storyboard Sound Samples
//Background Colour Transformations
3,100,163,162,255

[TimingPoints]
-652,652.599521427018,4,1,0,100,1,0

[HitObjects]
256,184,41114,1,0
256,184,41440,1,0
304,104,42093,2,0,B|352:120|352:176,1,70
349,152,42745,1,0
256,184,43398,1,0
256,184,43561,1,0
256,184,43724,1,0
208,264,44051,2,0,B|160:240|168:208,1,70
304,104,44703,1,0
208,264,45029,1,0
256,184,45356,1,0
96,88,46335,1,0
96,88,46498,1,0
96,88,46661,1,0
256,88,46987,1,0
408,88,47314,1,0
408,88,47477,1,0
408,88,47640,1,0
128,296,47966,2,0,B|160:264|192:240,1,70
384,296,48619,2,0,B|352:264|320:240,1,70
256,56,49271,2,0,B|256:104|256:128,1,70
80,312,49924,1,0
144,256,50087,1,0
200,312,50250,1,0
304,256,50577,1,0
368,312,50740,1,0
432,256,50903,1,0
328,40,51229,1,0
248,160,51392,1,0
104,152,51555,1,0
104,152,51719,1,0
104,152,51882,2,0,B|160:120|192:144,1,70
224,168,52534,2,0,B|280:232|280:232|328:176|328:168,1,140
336,168,53350,1,0
352,144,53513,1,0
448,72,53840,1,0
360,168,54003,1,0
256,72,54166,1,0
72,72,54492,1,0
152,168,54655,1,0
256,72,54818,1,0
104,296,55145,1,0
256,72,55308,1,0
408,296,55471,1,0
256,192,55634,1,0
256,192,55797,1,0
88,80,56450,2,0,B|88:240,1,140
256,320,57755,2,0,B|256:152,1,140
416,88,59060,6,0,B|416:256,1,140
256,144,60039,1,0
256,232,60366,1,0
256,192,60692,1,0
256,192,60855,1,0
256,192,61018,1,0
256,192,61344,1,0
256,192,61671,1,0
256,192,61834,1,0
256,192,61997,1,0
256,192,69828,12,0,72439
200,240,72765,5,0
312,152,73091,1,0
136,288,73418,1,0
376,104,73744,1,0
256,200,74070,1,0
256,200,74233,1,0
256,200,74396,1,0
320,256,74723,1,0
192,144,75049,1,0
376,304,75375,1,0
136,96,75702,1,0
136,272,76028,1,0
256,80,76354,1,0
376,272,76681,1,0
120,128,77333,2,0,B|168:192|168:192|224:120,1,140
224,120,78312,1,0
400,128,78638,6,0,B|344:192|344:192|304:136,1,140
288,120,79617,1,0
112,264,79944,2,0,B|168:200|168:200|208:240,1,140
224,256,80922,1,0
408,280,81249,2,0,B|352:208|352:208|304:248,1,140
288,256,82228,1,0
256,264,82554,1,0
256,264,82717,1,0
256,264,82880,1,0
80,176,83207,1,0
176,72,83533,1,0
424,168,83859,1,0
336,72,84185,1,0
256,192,84512,1,0
256,192,84675,1,0
256,192,84838,1,0
88,192,85164,1,0
168,312,85491,1,0
256,192,85817,1,0
416,192,86143,1,0
328,312,86470,1,0
256,192,86796,1,0
256,192,87122,2,0,B|208:232|216:272|240:296|256:296|264:312,1,140
400,296,88101,1,0
400,96,88427,1,0
112,296,88754,1,0
56,200,89080,1,0
448,200,89406,1,0
256,72,89733,1,0
32,32,90385,1,0
480,360,90711,1,0
256,192,91038,1,0
24,360,91527,5,0
480,32,91690,1,0
152,240,92996,1,0
56,160,93322,1,0
152,80,93648,1,0
168,88,93730,1,0
184,96,93811,1,0
200,104,93893,1,0
216,112,93974,1,0
152,296,94301,1,0
168,288,94382,1,0
184,280,94464,1,0
200,272,94545,1,0
216,264,94627,1,0
296,224,94790,1,0
456,128,94953,1,0
72,184,95116,1,0
72,184,95198,1,0
72,184,95280,1,0
72,184,95361,1,0
72,184,95443,1,0
352,72,95606,1,0
344,88,95688,1,0
336,104,95769,1,0
328,120,95851,1,0
320,136,95932,1,0
256,272,96259,1,0
256,80,96911,1,0
256,152,97237,2,0,B|256:112|256:72,1,70
280,80,97645,1,0
296,88,97727,1,0
312,96,97808,1,0
320,104,97890,1,0
328,112,97972,1,0
328,128,98053,1,0
328,144,98135,1,0
328,160,98216,1,0
328,176,98298,1,0
328,192,98379,1,0
336,208,98461,1,0
344,216,98543,1,0
352,224,98624,1,0
360,232,98706,1,0
368,240,98787,1,0
