osu file format v14

[General]
AudioFilename: BUMP_OF_CHICKEN__full.mp3
AudioLeadIn: 0
PreviewTime: 283692
Countdown: 0
SampleSet: Soft
StackLeniency: 0.3
Mode: 0
LetterboxInBreaks: 0
WidescreenStoryboard: 0

[Editor]
Bookmarks: 41450,62331,72772,93653,114534,135415,145855,156295,161516,177176,195447,229379,250250,271141,357264
DistanceSpacing: 1.4
BeatDivisor: 4
GridSize: 4
TimelineZoom: 1

[Metadata]
Title:Zero
TitleUnicode:ゼロ
Artist:BUMP OF CHICKEN
ArtistUnicode:BUMP OF CHICKEN
Creator:AIR
Version:Rain
Source:ファイナルファンタジー 零式
Tags:ending Final_Fantasy_Type-0
BeatmapID:630409
BeatmapSetID:278283

[Difficulty]
HPDrainRate:6
CircleSize:4
OverallDifficulty:6
ApproachRate:7.5
SliderMultiplier:1.6
SliderTickRate:1

[Events]
//Background and Video events
0,0,"FF0.jpg",0,0
//Break Periods
2,146497,149913
2,151717,154979
2,255669,269000
2,284381,285966
2,286991,288576
2,289601,291186
2,347475,356439
//Storyboard Layer 0 (Background)
//Storyboard Layer 1 (Fail)
//Storyboard Layer 2 (Pass)
//Storyboard Layer 3 (Foreground)
//Storyboard Sound Samples

[TimingPoints]
17949,652.52854812398,4,2,1,50,1,0
19254,-125,4,2,1,30,0,0
29695,-125,4,2,1,15,0,0
30347,-125,4,2,1,5,0,0
30999,-83.3333333333333,4,2,1,50,0,0
41440,-100,4,2,1,50,0,0
62321,-83.3333333333333,4,2,1,50,0,0
72762,-100,4,2,1,50,0,0
93643,-83.3333333333333,4,2,1,50,0,0
114524,-83.3333333333333,4,2,1,60,0,0
145845,-83.3333333333333,4,2,1,50,0,0
156285,-100,4,2,1,50,0,0
160853,-100,4,3,1,50,0,0
161506,-83.3333333333333,4,2,1,60,0,0
195437,-71.4285714285714,4,2,1,70,0,0
198046,-71.4285714285714,4,2,1,70,0,1
229368,-83.3333333333333,4,2,1,60,0,0
250250,-100,4,2,1,50,0,0
278961,-83.3333333333333,4,2,1,60,0,0
282875,-71.4285714285714,4,2,1,70,0,0
284181,-125,4,2,1,50,0,0
292011,-83.3333333333333,4,2,1,50,0,0
294622,-71.4285714285714,4,2,1,60,0,0
305061,-71.4285714285714,4,2,1,70,0,1
346823,-83.3333333333333,4,2,1,50,0,0
383365,-100,4,2,1,50,0,0
401636,682.205798749289,4,2,1,50,1,0
402318,857.755539671192,4,2,1,50,1,0
402746,1000.83402835696,4,2,1,50,1,0
405748,-100,4,2,1,40,0,0
406749,-100,4,2,1,30,0,0
407750,-100,4,2,1,20,0,0
408751,-100,4,2,1,10,0,0

[Colours]
Combo1 : 166,255,255
Combo2 : 255,187,119
Combo3 : 255,102,102
Combo4 : 251,0,125
Combo5 : 255,255,142

[HitObjects]
23,221,19254,6,0,L|20:296,1,64
176,268,19907,2,0,P|146:262|100:264,1,64,2|0,0:0|0:0,0:0:0:0:
266,307,20559,2,0,L|250:171,1,128,2|0,0:1|0:0,0:0:0:0:
239,84,21537,1,2,0:0:0:0:
430,124,21865,6,0,P|399:127|359:119,1,64
467,18,22517,2,0,P|434:29|397:31,1,64,2|0,0:0|0:0,0:0:0:0:
232,48,23169,2,0,B|274:21|315:26|315:26|310:50|319:73,1,128,2|0,0:1|0:0,0:0:0:0:
338,159,24148,1,2,0:0:0:0:
245,248,24475,6,0,P|248:215|241:179,1,64
100,228,25126,2,0,P|136:229|170:219,1,64,2|0,0:0|0:0,0:0:0:0:
146,47,25780,2,0,B|133:81|100:94|100:94|130:126|125:174,1,128,2|0,0:1|0:0,0:0:0:0:
124,250,26759,1,2,0:0:0:0:
319,282,27085,6,0,P|352:280|384:282,1,64
235,224,27737,2,0,P|260:202|301:186,1,64,2|0,0:0|0:0,0:0:0:0:
256,192,28390,12,0,30347,0:0:0:0:
332,353,31000,6,0,P|313:309|324:253,1,95.9999970703126,2|0,0:1|0:0,0:0:0:0:
392,296,31488,1,0,0:0:0:0:
392,296,31653,2,0,L|488:288,2,95.9999970703126,0|0|2,0:0|0:0|0:0,0:0:0:0:
400,216,32468,2,0,L|496:208,1,95.9999970703126
492,132,32958,2,0,P|500:84|476:40,1,96
288,116,33610,6,0,L|296:224,1,95.9999970703126,2|0,0:0|0:0,0:0:0:0:
145,61,34263,2,0,B|192:88|234:50|234:50|277:15|332:44,1,191.999994140625,0|2,0:0|0:0,0:0:0:0:
364,148,35241,1,0,0:0:0:0:
236,268,35568,2,0,P|215:225|221:178,1,95.9999970703126
295,211,36057,1,0,0:0:0:0:
295,211,36220,6,0,B|236:208|236:208|196:224|196:224|148:224,1,143.999995605469,2|0,0:1|0:0,0:0:0:0:
80,200,36873,2,0,B|16:192|16:192|7:210|10:231,1,95.9999970703126
96,276,37525,2,0,P|148:240|144:156,1,143.999995605469,2|0,0:0|0:0,0:0:0:0:
80,120,38178,2,0,P|53:64|78:23,1,95.9999970703126
180,12,38830,6,0,P|206:67|181:108,1,95.9999970703126,2|0,0:0|0:0,0:0:0:0:
256,192,39483,2,0,P|280:180|348:200,1,95.9999970703126
340,312,40135,2,0,P|316:324|248:304,1,95.9999970703126,2|0,0:0|0:0,0:0:0:0:
300,253,40624,1,0,0:0:0:0:
300,253,40788,2,0,L|284:357,1,95.9999970703126
192,212,41440,6,0,P|176:160|220:88,1,120,8|0,0:3|0:0,0:0:0:0:
280,80,42093,2,0,L|368:92,1,80,2|0,0:3|0:0,0:0:0:0:
270,279,42746,2,0,B|276:268|268:248|268:248|288:208|264:164,1,120,8|0,0:3|0:0,0:0:0:0:
192,212,43398,2,0,L|108:216,1,80,2|2,0:3|0:0,0:0:0:0:
92,20,44051,6,0,P|108:72|104:112,1,80
16,268,44703,2,0,P|4:236|13:174,1,80,0|2,0:0|0:0,0:0:0:0:
176,168,45356,2,0,B|200:212|180:256|180:256|200:288|188:336,1,160
96,304,46334,1,0,0:0:0:0:
288,192,46661,6,0,B|257:201|235:182|235:182|209:159|176:168,1,120,8|0,0:3|0:0,0:0:0:0:
108,212,47313,2,0,P|94:166|110:121,1,80,2|0,0:3|0:0,0:0:0:0:
172,88,47803,1,0,0:0:0:0:
172,88,47965,2,0,P|200:40|192:8,1,80
39,45,48617,2,0,L|120:32,1,80
263,101,49271,6,0,P|304:98|352:64,1,80
276,15,49922,1,0,0:0:0:0:
420,124,50249,1,0,0:0:0:0:
484,64,50576,2,0,P|507:111|479:184,1,120
436,236,51228,2,0,P|436:276|464:320,1,80
512,256,51881,6,0,B|468:272|468:272|420:276|420:276|384:292,1,120,8|0,0:3|0:0,0:0:0:0:
320,312,52533,2,0,L|328:224,1,80,2|0,0:3|0:0,0:0:0:0:
184,100,53186,2,0,B|188:148|188:148|184:156|184:156|192:232,1,120,8|0,0:3|0:0,0:0:0:0:
200,296,53839,1,2,0:3:0:0:
264,172,54164,1,2,0:0:0:0:
96,48,54491,6,0,L|104:144,1,80
116,256,55144,1,0,0:0:0:0:
268,224,55470,1,2,0:0:0:0:
416,264,55796,2,0,P|464:264|504:256,1,80
280,168,56449,2,0,L|288:252,1,80
292,336,56938,1,0,0:0:0:0:
292,336,57101,6,0,B|251:336|227:313|227:313|200:340|164:340,1,120,8|0,0:3|0:0,0:0:0:0:
104,328,57754,1,2,0:3:0:0:
8,284,58080,1,0,0:0:0:0:
148,260,58406,2,0,B|136:204|136:204|140:192|140:192|128:128,1,120,8|0,0:3|0:0,0:0:0:0:
112,64,59059,1,2,0:3:0:0:
256,36,59385,1,2,0:0:0:0:
368,132,59711,6,0,P|329:142|280:136,1,80
416,56,60363,2,0,P|460:48|476:52,2,40
452,168,61015,2,0,L|448:264,1,80
384,296,61505,1,0,0:0:0:0:
384,296,61668,2,0,P|344:300|332:296,2,40
366,132,62321,6,0,B|340:152|300:148|300:148|292:160|280:164,1,95.9999970703126,6|2,0:0|0:3,0:0:0:0:
280,164,62811,1,0,0:0:0:0:
280,164,62974,1,0,0:0:0:0:
132,128,63300,1,2,0:3:0:0:
176,280,63626,1,2,0:0:0:0:
224,292,63790,1,0,0:0:0:0:
272,296,63953,1,2,0:3:0:0:
320,284,64116,1,0,0:0:0:0:
360,256,64279,1,0,0:0:0:0:
260,152,64605,1,2,0:3:0:0:
410,175,64931,6,0,B|418:223|418:223|426:235|426:235|432:268,1,95.9999970703126,2|2,0:0|0:3,0:0:0:0:
432,268,65421,1,0,0:0:0:0:
432,268,65584,1,0,0:0:0:0:
456,64,65910,1,2,0:3:0:0:
456,64,66237,2,0,L|465:124,1,47.9999985351563,2|0,0:0|0:0,0:0:0:0:
376,48,66563,2,0,L|384:96,1,47.9999985351563,2|0,0:3|0:0,0:0:0:0:
220,91,66889,2,0,L|216:147,1,47.9999985351563
292,127,67215,2,0,L|288:187,1,47.9999985351563,2|0,0:3|0:0,0:0:0:0:
128,208,67542,6,0,B|100:216|100:216|56:208|56:208|24:216,1,95.9999970703126,2|2,0:0|0:3,0:0:0:0:
34,213,68031,1,0,0:0:0:0:
34,213,68194,1,0,0:0:0:0:
56,304,68520,1,2,0:3:0:0:
52,132,68847,1,2,0:0:0:0:
52,84,69010,1,0,0:0:0:0:
52,36,69173,1,2,0:3:0:0:
96,56,69336,1,0,0:0:0:0:
144,56,69499,2,0,B|180:48|180:48|196:64|196:64|236:56,1,95.9999970703126,0|2,0:0|0:3,0:0:0:0:
328,40,70152,6,0,B|360:28|384:36|384:36|416:44|436:32,1,95.9999970703126,2|2,0:0|0:3,0:0:0:0:
422,37,70641,1,0,0:0:0:0:
422,37,70804,1,0,0:0:0:0:
488,112,71131,1,2,0:3:0:0:
400,156,71457,2,0,L|404:204,1,47.9999985351563,2|0,0:0|0:0,0:0:0:0:
504,240,71783,2,0,L|496:299,1,47.9999985351563,2|0,0:3|0:0,0:0:0:0:
382,307,72109,2,0,L|387:354,1,47.9999985351563
294,263,72436,2,0,L|289:316,1,47.9999985351563,2|0,0:3|0:0,0:0:0:0:
192,296,72762,6,0,L|101:309,1,80,8|0,0:3|0:0,0:0:0:0:
112,307,73251,1,0,0:0:0:0:
112,307,73414,1,8,0:3:0:0:
92,140,73741,2,0,L|100:228,1,80,0|8,0:0|0:3,0:0:0:0:
16,188,74230,2,0,P|4:124|12:96,1,80
76,52,74718,1,8,0:3:0:0:
100,220,75046,1,0,0:0:0:0:
184,128,75372,6,0,L|268:120,1,80
336,160,75861,1,0,0:0:0:0:
336,160,76024,2,0,P|396:160|420:152,1,80,8|0,0:3|0:0,0:0:0:0:
492,16,76677,2,0,L|500:104,1,80
493,177,77165,1,0,0:0:0:0:
493,177,77329,2,0,L|501:285,1,80
376,284,77982,6,0,P|328:296|284:288,1,80,8|0,0:3|0:0,0:0:0:0:
228,256,78471,1,0,0:0:0:0:
296,212,78635,2,0,L|288:124,1,80,8|0,0:3|0:0,0:0:0:0:
176,88,79286,2,0,L|172:44,2,40,8|0|8,0:3|0:0|0:3,0:0:0:0:
60,140,79940,2,0,L|60:188,1,40
59,260,80265,1,0,0:0:0:0:
139,349,80592,6,0,P|178:354|236:333,1,80
270,317,81081,1,0,0:0:0:0:
311,272,81245,1,0,0:0:0:0:
291,124,81570,1,0,0:0:0:0:
414,214,81897,2,0,P|427:259|422:304,1,80
425,291,82387,1,0,0:0:0:0:
425,291,82549,1,8,0:3:0:0:
360,116,82876,1,0,0:0:0:0:
504,128,83202,6,0,P|508:88|452:24,1,120,8|0,0:3|0:0,0:0:0:0:
392,108,83855,2,0,L|432:100,1,40,8|0,0:3|0:0,0:0:0:0:
276,78,84180,2,0,L|323:69,1,40
216,32,84507,2,0,B|192:60|196:96|210:117|210:117|224:140|208:164,1,120,8|0,0:3|0:0,0:0:0:0:
236,220,85160,2,0,B|228:224|242:247|242:247|256:268|248:304,1,80,8|0,0:3|0:0,0:0:0:0:
56,356,85812,5,0,0:0:0:0:
171,286,86139,2,0,L|87:282,1,80
328,304,86791,1,0,0:0:0:0:
205,364,87117,2,0,P|247:371|297:364,1,80
328,304,87606,2,0,L|326:252,1,40
231,207,88095,2,0,L|163:201,1,40
300,168,88423,5,4,0:2:0:0:
80,104,88749,1,0,0:0:0:0:
120,96,88912,1,0,0:0:0:0:
160,88,89075,1,8,0:3:0:0:
296,248,89401,2,0,L|288:296,1,40
384,280,89728,2,0,B|400:248|380:204|380:204|393:174|380:148,1,120,8|0,0:3|0:0,0:0:0:0:
372,84,90379,1,8,0:3:0:0:
228,148,90706,1,0,0:0:0:0:
228,148,91033,6,0,L|320:140,1,80
388,164,91522,1,0,0:0:0:0:
452,112,91685,2,0,B|460:68|436:24|436:24|408:44|360:48,1,160
212,28,92664,1,2,0:1:0:0:
292,44,92990,1,2,0:0:0:0:
140,68,93316,1,8,0:3:0:0:
8,160,93643,6,0,B|64:176|112:140|112:140|76:132,1,143.999995605469,6|0,0:1|0:0,0:0:0:0:
68,208,94295,2,0,B|74:258|74:258|61:282|61:282|74:353,1,143.999995605469,8|0,0:3|0:0,0:0:0:0:
152,344,94948,2,0,L|140:292,2,47.9999985351563,2|0|8,0:0|0:0|0:3,0:0:0:0:
237,309,95600,2,0,P|293:305|329:285,1,95.9999970703126,8|8,0:3|0:3,0:0:0:0:
501,226,96253,6,0,P|459:249|412:248,1,95.9999970703126,2|8,0:0|0:3,0:0:0:0:
412,248,96742,1,0,0:0:0:0:
412,248,96905,1,8,0:3:0:0:
216,152,97232,1,8,0:3:0:0:
320,188,97557,2,0,L|304:128,1,47.9999985351563,2|0,0:0|0:0,0:0:0:0:
344,60,97884,2,0,L|328:0,2,47.9999985351563,8|0|8,0:3|0:0|0:3,0:0:0:0:
436,160,98537,1,8,0:3:0:0:
236,76,98863,6,0,B|200:104|124:92|100:64|128:44|156:60,1,143.999995605469,2|0,0:1|0:0,0:0:0:0:
176,132,99516,2,0,P|154:182|168:236,1,95.9999970703126,8|8,0:3|0:3,0:0:0:0:
224,272,100005,1,0,0:0:0:0:
224,272,100168,2,0,L|284:272,1,47.9999985351563,2|0,0:0|0:0,0:0:0:0:
236,192,100494,2,0,L|344:192,1,95.9999970703126,8|8,0:3|0:3,0:0:0:0:
208,348,101146,1,0,0:0:0:0:
21,253,101473,6,0,B|17:218|17:218|10:207|10:207|4:160,1,95.9999970703126,2|8,0:0|0:3,0:0:0:0:
72,136,101962,2,0,B|78:183|78:183|85:194|85:194|92:244,1,95.9999970703126
145,157,102452,2,0,L|139:110,1,47.9999985351563,8|0,0:3|0:0,0:0:0:0:
204,84,102778,1,2,0:0:0:0:
236,336,103104,1,8,0:3:0:0:
232,288,103268,1,0,0:0:0:0:
228,240,103431,1,8,0:3:0:0:
208,76,103757,1,8,0:3:0:0:
364,208,104083,6,0,B|400:220|436:200|436:200|484:216|508:192,1,143.999995605469,12|0,0:1|0:0,0:0:0:0:
468,128,104736,2,0,B|463:88|463:88|476:56|460:24,1,95.9999970703126,8|8,0:3|0:3,0:0:0:0:
392,56,105225,1,0,0:0:0:0:
392,56,105388,2,0,L|332:44,1,47.9999985351563,2|0,0:0|0:0,0:0:0:0:
388,132,105715,2,0,B|340:124|340:124|292:137,1,95.9999970703126,8|8,0:3|0:3,0:0:0:0:
168,324,106367,1,8,0:3:0:0:
164,276,106530,1,0,0:0:0:0:
160,228,106693,5,2,0:0:0:0:
12,144,107020,2,0,P|76:148|156:112,1,143.999995605469,8|0,0:3|0:0,0:0:0:0:
210,70,107672,2,0,B|228:54|245:12|245:12|246:73|268:111,1,143.999995605469
303,150,108325,2,0,P|349:187|403:204,1,95.9999970703126,8|8,0:3|0:3,0:0:0:0:
512,112,108977,1,8,0:3:0:0:
464,116,109140,1,0,0:0:0:0:
416,120,109303,5,2,0:0:0:0:
340,300,109630,1,8,0:3:0:0:
304,80,109956,1,8,0:3:0:0:
184,208,110282,1,8,0:3:0:0:
232,204,110445,1,0,0:0:0:0:
280,200,110608,5,2,0:0:0:0:
408,248,110934,1,8,0:3:0:0:
188,212,111261,1,8,0:3:0:0:
420,116,111587,1,8,0:3:0:0:
44,132,111914,6,0,P|68:140|96:144,1,47.9999985351563,2|0,0:0|0:0,0:0:0:0:
244,136,112240,2,0,B|244:104|224:76|192:68|192:68|160:108|162:127,1,143.999995605469,8|0,0:3|0:0,0:0:0:0:
152,188,112892,1,8,0:3:0:0:
160,268,113055,1,0,0:0:0:0:
192,340,113219,5,2,0:0:0:0:
304,372,113545,1,8,0:3:0:0:
288,256,113871,2,0,B|268:224|236:164|284:96,1,143.999995605469,8|0,0:3|1:0,0:0:0:0:
352,16,114524,5,4,0:1:0:0:
344,20,114850,2,0,L|352:76,1,47.9999985351563,8|0,0:3|0:0,0:0:0:0:
372,184,115176,1,0,0:0:0:0:
148,180,115502,2,0,L|244:169,1,95.9999970703126,8|0,0:3|0:0,0:0:0:0:
280,348,116155,1,8,0:3:0:0:
280,348,116318,2,0,P|288:292|256:248,1,95.9999970703126
208,312,116808,1,8,0:3:0:0:
208,312,116971,6,0,L|104:300,1,95.9999970703126
40,332,117460,2,0,L|33:284,1,47.9999985351563,8|0,0:3|0:0,0:0:0:0:
88,224,117786,2,0,L|96:176,1,47.9999985351563
28,136,118113,2,0,L|20:84,1,47.9999985351563,8|0,0:3|0:0,0:0:0:0:
56,20,118439,1,0,0:0:0:0:
268,84,118765,1,8,0:3:0:0:
172,108,119091,2,0,L|108:100,2,47.9999985351563,0|0|8,0:0|0:0|0:3,0:0:0:0:
392,140,119743,5,8,0:1:0:0:
316,320,120070,1,8,0:3:0:0:
316,320,120233,2,0,P|364:328|412:296,1,95.9999970703126
349,253,120723,1,8,0:3:0:0:
349,253,120886,2,0,B|320:226|320:226|316:168,1,95.9999970703126
324,88,121375,2,0,L|320:24,1,47.9999985351563,8|0,0:3|0:0,0:0:0:0:
438,128,121701,2,0,L|392:140,1,47.9999985351563
252,120,122028,1,8,0:3:0:0:
252,120,122354,6,0,P|208:136|140:120,1,95.9999970703126,0|8,0:0|0:3,0:0:0:0:
16,52,123007,2,0,L|24:152,1,95.9999970703126,0|8,0:0|0:3,0:0:0:0:
28,204,123496,1,0,0:0:0:0:
32,260,123659,1,0,0:0:0:0:
104,148,123984,1,8,0:3:0:0:
228,196,124312,1,0,0:0:0:0:
228,196,124474,2,0,B|268:188|268:188|280:180|280:180|332:172,1,95.9999970703126
396,164,124964,5,4,0:1:0:0:
492,104,125290,2,0,L|504:172,1,47.9999985351563,8|0,0:3|0:0,0:0:0:0:
460,248,125617,2,0,L|452:308,1,47.9999985351563
344,284,125943,2,0,P|292:280|236:320,2,95.9999970703126,8|0|8,0:3|0:0|0:3,0:0:0:0:
416,316,126759,2,0,P|466:327|512:306,1,95.9999970703126
460,248,127248,1,8,0:3:0:0:
460,248,127411,6,0,L|456:152,1,95.9999970703126
464,72,127901,2,0,L|520:52,1,47.9999985351563,8|0,0:3|0:0,0:0:0:0:
348,84,128227,2,0,L|400:112,1,47.9999985351563
248,48,128553,2,0,L|312:24,1,47.9999985351563,8|0,0:3|0:0,0:0:0:0:
172,25,128879,2,0,P|176:81|220:121,1,95.9999970703126,0|8,0:0|0:3,0:0:0:0:
240,261,129531,1,0,0:0:0:0:
228,184,129695,2,0,L|116:196,1,95.9999970703126
56,204,130184,5,8,0:1:0:0:
184,336,130511,1,8,0:3:0:0:
259,354,130674,2,0,L|363:326,1,95.9999970703126
424,304,131163,1,8,0:3:0:0:
422,228,131326,2,0,P|429:178|406:128,1,95.9999970703126
352,192,131816,1,8,0:3:0:0:
442,104,132141,5,0,0:0:0:0:
476,173,132304,1,0,0:0:0:0:
422,228,132467,1,8,0:3:0:0:
365,115,132630,1,0,0:0:0:0:
352,192,132794,2,0,B|324:188|288:164|284:108|284:108|280:164|256:188,1,191.999994140625
212,236,133610,5,0,0:0:0:0:
136,256,133773,1,8,0:3:0:0:
64,228,133936,1,0,0:0:0:0:
24,164,134099,2,0,P|8:120|28:64,1,95.9999970703126,0|8,0:0|0:3,0:0:0:0:
80,16,134588,1,2,0:3:0:0:
76,364,135077,2,0,L|68:296,1,47.9999985351563,2|0,0:3|0:0,0:0:0:0:
140,272,135405,6,0,P|188:184|136:92,1,191.999994140625,4|0,0:1|0:0,0:0:0:0:
260,304,136382,1,8,0:3:0:0:
308,296,136547,1,2,0:3:0:0:
364,80,136873,1,8,0:3:0:0:
316,88,137036,1,2,0:3:0:0:
96,56,137362,1,0,0:0:0:0:
56,268,137688,1,8,0:3:0:0:
104,260,137851,1,0,0:0:0:0:
152,252,138015,5,2,0:3:0:0:
224,132,138341,1,8,0:3:0:0:
224,132,138504,2,0,P|208:184|232:228,1,95.9999970703126,2|0,0:3|0:0,0:0:0:0:
284,176,138993,2,0,L|388:172,1,95.9999970703126,2|0,0:3|0:0,0:0:0:0:
508,168,139646,1,8,0:3:0:0:
228,124,139972,2,0,L|168:120,1,47.9999985351563
116,76,140299,6,0,P|104:124|120:172,1,95.9999970703126,2|2,0:3|0:1,0:0:0:0:
192,288,140951,1,2,0:3:0:0:
104,88,141277,1,8,0:3:0:0:
328,128,141604,1,2,0:3:0:0:
368,344,141930,6,0,P|366:312|352:284,1,63.9999980468751,0|2,0:0|0:3,0:0:0:0:
197,268,142365,2,0,P|228:260|260:264,1,63.9999980468751,2|2,0:3|0:3,0:0:0:0:
344,128,142799,2,0,P|336:168|312:196,1,63.9999980468751,2|2,0:3|0:3,0:0:0:0:
264,124,143235,6,0,B|236:121|215:94|215:94|212:52|247:34|247:34|291:36|303:61,1,191.999994140625,2|0,0:3|0:0,0:0:0:0:
344,128,144051,2,0,P|359:174|360:228,1,95.9999970703126
336,292,144540,5,2,0:3:0:0:
188,240,144866,1,8,0:3:0:0:
188,240,145029,2,0,L|292:232,1,95.9999970703126,2|0,0:3|0:0,0:0:0:0:
332,228,145519,1,2,0:3:0:0:
380,224,145682,1,2,0:3:0:0:
428,220,145845,1,8,0:1:0:0:
340,304,150738,6,0,B|361:320|390:318|390:318|419:304|432:271,1,95.9999970703126,0|2,0:0|0:1,0:0:0:0:
288,152,156285,6,0,P|352:160|408:144,1,120,2|0,0:3|0:0,0:0:0:0:
368,216,156938,2,0,B|368:312,1,80,0|0,1:0|0:0,0:0:0:0:
208,236,157590,2,0,L|220:360,1,120,2|0,0:3|0:0,0:0:0:0:
162,300,158243,2,0,P|122:292|85:308,1,80,0|0,1:0|0:0,0:0:0:0:
0,132,158896,5,2,0:3:0:0:
124,136,159222,1,0,0:0:0:0:
128,176,159384,1,0,0:0:0:0:
132,216,159547,1,0,1:0:0:0:
112,36,159874,1,0,0:0:0:0:
212,112,160201,6,0,L|204:172,1,40,2|0,0:0|1:0,0:0:0:0:
300,16,160527,2,0,L|312:72,1,40,0|0,1:0|1:0,0:0:0:0:
288,212,160853,2,0,L|300:256,1,40,10|0,0:0|1:0,0:0:0:0:
256,376,161179,1,2,1:0:0:0:
256,376,161343,1,2,1:0:0:0:
256,376,161506,6,0,B|240:316|240:316|224:296|224:296|208:236,1,143.999995605469,4|0,1:0|0:0,0:0:0:0:
220,164,162158,2,0,P|236:112|216:56,1,95.9999970703126,8|0,0:0|0:0,0:0:0:0:
156,112,162648,1,0,0:0:0:0:
156,112,162811,2,0,L|44:104,2,95.9999970703126,0|0|8,1:0|1:0|0:2,0:0:0:0:
340,96,163790,1,0,0:0:0:0:
176,248,164116,6,0,P|168:316|200:356,1,95.9999970703126,0|0,1:0|0:0,0:0:0:0:
244,288,164605,1,0,0:0:0:0:
244,288,164768,2,0,L|348:284,1,95.9999970703126,8|0,0:0|0:0,0:0:0:0:
412,248,165258,1,0,0:0:0:0:
412,248,165421,2,0,L|424:304,1,47.9999985351563,0|0,1:0|0:0,0:0:0:0:
496,230,165747,1,0,1:0:0:0:
408,52,166073,2,0,P|396:116|424:160,1,95.9999970703126,8|0,0:2|0:0,0:0:0:0:
472,96,166563,1,0,0:0:0:0:
472,96,166726,6,0,B|432:136|381:119|381:119|354:107|313:118,1,143.999995605469,0|0,1:0|0:0,0:0:0:0:
264,92,167378,2,0,P|216:80|160:112,2,95.9999970703126,8|0|0,0:0|0:0|1:0,0:0:0:0:
148,172,168357,1,0,1:0:0:0:
232,256,168684,2,0,L|224:160,1,95.9999970703126,8|0,0:2|0:0,0:0:0:0:
308,216,169173,1,0,0:0:0:0:
308,216,169336,6,0,B|368:208|368:208|372:212|372:212|408:208,1,95.9999970703126,0|0,1:0|0:0,0:0:0:0:
232,256,169989,2,0,P|199:269|140:260,1,95.9999970703126,8|0,0:0|0:0,0:0:0:0:
68,298,170477,1,0,0:0:0:0:
140,340,170641,2,0,P|212:344|252:332,1,95.9999970703126,0|0,1:0|1:0,0:0:0:0:
12,223,171294,2,0,P|31:267|68:298,1,95.9999970703126,8|0,0:2|0:0,0:0:0:0:
28,52,171946,6,0,P|4:112|4:148,1,95.9999970703126,0|0,1:0|0:0,0:0:0:0:
156,132,172599,2,0,P|188:184|228:200,1,95.9999970703126,8|0,0:0|0:0,0:0:0:0:
236,120,173088,1,0,0:0:0:0:
236,120,173251,2,0,B|284:100|284:100|292:88|292:88|328:72,1,95.9999970703126,0|0,1:0|1:0,0:0:0:0:
440,24,173904,1,8,0:2:0:0:
432,240,174230,1,0,0:0:0:0:
436,248,174556,6,0,L|432:148,1,95.9999970703126,0|0,1:0|0:0,0:0:0:0:
328,372,175209,2,0,L|336:276,1,95.9999970703126,8|0,0:0|0:0,0:0:0:0:
84,116,175861,2,0,P|96:148|100:172,1,47.9999985351563,0|2,1:0|0:0,0:0:0:0:
12,260,176188,2,0,P|40:248|68:248,1,47.9999985351563,0|2,1:0|0:0,0:0:0:0:
160,328,176514,2,0,P|144:300|140:280,1,47.9999985351563,0|2,1:0|0:0,0:0:0:0:
224,188,176840,2,0,P|200:200|168:208,1,47.9999985351563,0|0,1:0|1:0,0:0:0:0:
208,16,177166,6,0,P|196:68|220:120,1,95.9999970703126,4|0,0:0|0:0,0:0:0:0:
284,132,177656,1,0,1:0:0:0:
352,96,177819,2,0,L|452:96,1,95.9999970703126,8|0,1:2|0:0,0:0:0:0:
508,144,178308,1,0,1:0:0:0:
448,192,178471,2,0,L|460:248,1,47.9999985351563,0|0,1:0|0:0,0:0:0:0:
386,280,178798,2,0,L|384:328,1,47.9999985351563,0|0,1:0|0:0,0:0:0:0:
301,272,179124,2,0,L|320:228,1,47.9999985351563,8|0,1:2|0:0,0:0:0:0:
192,300,179450,2,0,L|240:248,1,47.9999985351563,0|0,1:0|0:0,0:0:0:0:
132,244,179777,6,0,P|76:264|20:240,1,95.9999970703126,8|0,1:0|0:0,0:0:0:0:
80,184,180265,1,0,1:0:0:0:
80,184,180428,2,0,L|76:136,1,47.9999985351563,8|0,1:2|0:0,0:0:0:0:
20,16,180755,2,0,L|24:64,1,47.9999985351563,0|0,1:0|0:0,0:0:0:0:
116,56,181081,2,0,B|152:52|152:52|176:62|176:62|212:60,1,95.9999970703126,0|0,1:0|0:0,0:0:0:0:
508,84,181734,1,8,1:2:0:0:
464,104,181897,1,0,0:0:0:0:
416,112,182060,1,0,1:0:0:0:
368,100,182224,1,0,0:0:0:0:
328,76,182387,6,0,P|340:132|328:188,1,95.9999970703126,4|0,1:0|0:0,0:0:0:0:
88,296,183039,2,0,B|127:286|127:286|152:292|152:292|188:284,1,95.9999970703126,8|0,1:2|0:0,0:0:0:0:
256,320,183529,1,0,1:0:0:0:
248,240,183692,2,0,L|260:188,1,47.9999985351563,0|0,1:0|0:0,0:0:0:0:
276,116,184018,1,0,1:0:0:0:
196,0,184344,1,8,0:0:0:0:
72,68,184670,1,0,1:0:0:0:
68,116,184834,1,0,1:0:0:0:
64,160,184996,5,8,1:0:0:0:
223,150,185322,1,0,1:0:0:0:
267,146,185485,1,0,1:0:0:0:
315,142,185649,1,8,0:2:0:0:
468,184,185976,1,0,1:0:0:0:
472,232,186139,1,0,0:0:0:0:
476,280,186302,2,0,L|368:272,1,95.9999970703126,0|0,1:0|0:0,0:0:0:0:
168,372,186953,2,0,L|148:320,1,47.9999985351563,8|2,1:2|0:0,0:0:0:0:
216,256,187281,2,0,L|220:200,1,47.9999985351563,0|2,1:0|0:0,0:0:0:0:
128,176,187607,6,0,P|104:120|136:64,1,95.9999970703126,4|0,1:1|0:0,0:0:0:0:
160,24,188096,1,0,1:0:0:0:
228,68,188259,2,0,P|252:124|220:180,1,95.9999970703126,8|0,1:2|0:0,0:0:0:0:
200,228,188749,1,0,1:0:0:0:
120,256,188912,2,0,L|72:256,2,47.9999985351563,0|0|0,1:0|0:0|1:0,0:0:0:0:
308,312,189564,1,8,0:0:0:0:
320,144,189890,1,0,1:0:0:0:
368,136,190054,1,0,1:0:0:0:
416,128,190217,6,0,L|396:188,1,47.9999985351563,4|2,1:0|0:0,0:0:0:0:
256,96,190543,2,0,L|224:20,1,47.9999985351563,0|2,1:0|0:0,0:0:0:0:
144,36,190870,1,8,1:2:0:0:
8,96,191196,2,0,P|0:148|24:188,1,95.9999970703126,0|0,1:0|0:0,0:0:0:0:
80,236,191685,1,0,0:0:0:0:
160,232,191848,2,0,L|254:216,1,95.9999970703126,0|8,1:0|0:0,0:0:0:0:
396,60,192501,1,0,1:0:0:0:
408,108,192664,1,0,1:0:0:0:
420,156,192827,5,8,1:0:0:0:
216,76,193153,1,0,1:0:0:0:
320,324,193480,2,0,P|344:292|344:220,1,95.9999970703126,8|0,1:2|1:0,0:0:0:0:
320,164,193969,1,0,1:0:0:0:
240,160,194132,2,0,L|192:165,1,47.9999985351563,2|0,1:0|0:0,0:0:0:0:
100,254,194458,2,0,L|148:248,1,47.9999985351563,0|2,1:0|0:0,0:0:0:0:
364,196,194785,2,0,L|308:204,1,47.9999985351563,10|2,1:2|0:0,0:0:0:0:
464,132,195110,2,0,L|528:124,1,47.9999985351563,0|2,1:0|1:0,0:0:0:0:
336,16,195437,5,6,0:0:0:0:
276,280,195763,1,0,0:0:0:0:
72,100,196090,1,6,0:0:0:0:
112,272,196416,1,0,0:0:0:0:
168,276,196579,1,0,1:0:0:0:
224,264,196742,1,2,1:0:0:0:
276,244,196905,1,0,1:0:0:0:
320,208,197068,1,2,1:0:0:0:
372,184,197232,1,0,1:0:0:0:
428,200,197395,1,6,0:0:0:0:
452,252,197558,1,2,0:0:0:0:
440,308,197721,1,2,1:0:0:0:
388,332,197883,1,2,1:0:0:0:
332,316,198047,6,0,P|264:284|116:320,1,223.999993164063,4|8,1:3|0:0,0:0:0:0:
32,352,198863,1,0,0:0:0:0:
40,252,199026,2,0,B|43:217|43:217|36:196|36:196|40:120,1,111.999996582031,2|0,0:0|0:0,0:0:0:0:
160,20,199679,1,2,0:0:0:0:
232,91,199842,2,0,P|242:156|236:207,1,111.999996582031
168,276,200331,1,2,0:0:0:0:
268,304,200494,6,0,P|324:304|384:280,1,111.999996582031
488,184,200984,2,0,P|500:216|504:260,1,55.9999982910157,2|0,0:0|0:0,0:0:0:0:
380,128,201310,2,0,P|400:160|404:184,1,55.9999982910157,8|0,0:0|0:0,0:0:0:0:
264,212,201636,2,0,L|340:188,1,55.9999982910157,2|0,0:0|0:0,0:0:0:0:
464,96,201962,2,0,P|428:52|352:40,1,111.999996582031,0|2,0:0|0:0,0:0:0:0:
264,212,202615,1,8,0:0:0:0:
176,236,202778,2,0,L|184:116,1,111.999996582031
188,32,203267,5,4,0:0:0:0:
72,176,203594,1,2,0:0:0:0:
92,272,203757,2,0,P|132:316|196:324,1,111.999996582031
276,300,204245,1,2,0:0:0:0:
376,292,204409,2,0,P|432:272|500:304,1,111.999996582031
432,372,204899,1,2,0:0:0:0:
432,372,205062,2,0,L|420:248,1,111.999996582031
409,150,205551,1,2,0:0:0:0:
444,44,205715,6,0,B|400:24|359:48|359:48|320:68|268:48,1,167.999994873047,0|2,0:0|0:0,0:0:0:0:
292,288,206530,1,8,0:0:0:0:
436,124,206856,1,2,0:0:0:0:
208,88,207183,1,0,0:0:0:0:
372,248,207509,1,2,0:0:0:0:
423,168,207672,1,0,0:0:0:0:
342,116,207835,1,8,0:0:0:0:
294,200,207998,2,0,B|250:212|250:212|202:204|202:204|158:212,1,111.999996582031
104,240,208488,5,4,0:3:0:0:
180,372,208814,1,2,0:0:0:0:
252,124,209140,1,8,0:0:0:0:
200,44,209303,1,0,0:0:0:0:
152,128,209467,2,0,P|111:158|48:156,1,111.999996582031,2|0,0:0|0:0,0:0:0:0:
344,52,210119,1,2,0:0:0:0:
420,4,210282,2,0,B|444:44|424:92|424:92|400:148|440:196,1,167.999994873047,0|2,0:0|0:0,0:0:0:0:
504,136,210935,6,0,B|460:140|460:140|420:132|420:132|364:136,1,111.999996582031
312,200,211424,1,2,0:0:0:0:
228,140,211587,2,0,P|173:125|84:148,1,111.999996582031
88,204,212077,1,2,0:0:0:0:
28,152,212240,2,0,B|9:104|24:36|24:36|56:56|68:96,1,167.999994873047,0|2,0:0|0:0,0:0:0:0:
188,344,213055,1,8,0:0:0:0:
246,274,213219,2,0,B|296:272|296:272|320:264|320:264|370:274,1,111.999996582031
444,292,213707,5,4,0:0:0:0:
404,52,214034,1,2,0:0:0:0:
496,36,214197,2,0,B|506:70|506:70|484:108|484:108|496:164,1,111.999996582031
512,220,214687,1,2,0:0:0:0:
432,200,214850,2,0,P|376:183|300:204,1,111.999996582031
248,248,215339,1,2,0:0:0:0:
156,224,215502,2,0,P|127:177|127:116,1,111.999996582031
199,48,215992,1,2,0:0:0:0:
220,148,216154,6,0,B|176:168|176:168|52:152,1,167.999994873047
120,320,216971,1,8,0:0:0:0:
223,308,217134,1,0,0:0:0:0:
320,340,217297,1,2,0:0:0:0:
508,264,217623,1,0,0:0:0:0:
344,64,217949,1,2,0:0:0:0:
429,97,218112,2,0,L|425:213,1,111.999996582031
421,300,218601,1,6,0:0:0:0:
276,184,218928,6,0,P|152:216|60:160,1,223.999993164063,4|8,0:0|0:0,0:0:0:0:
4,336,219907,1,2,0:0:0:0:
94,351,220070,2,0,L|218:331,1,111.999996582031
264,264,220560,1,2,0:0:0:0:
328,328,220723,2,0,L|416:332,1,55.9999982910157,0|8,0:0|0:0,0:0:0:0:
464,72,221212,1,2,0:0:0:0:
496,164,221375,1,0,0:0:0:0:
472,252,221538,6,0,P|396:252|344:232,1,111.999996582031,0|2,0:0|0:0,0:0:0:0:
296,172,222028,2,0,P|257:201|160:204,1,111.999996582031
116,256,222517,2,0,P|88:200|96:112,2,111.999996582031,2|0|2,0:0|0:0|0:0,0:0:0:0:
112,40,223496,1,8,0:0:0:0:
240,224,223822,1,2,0:0:0:0:
4,248,224148,5,4,0:0:0:0:
168,320,224475,2,0,B|212:320|212:320|240:300|240:300|292:300,1,111.999996582031,2|8,0:0|0:0,0:0:0:0:
352,288,224964,2,0,P|415:329|464:340,1,111.999996582031
512,288,225454,5,2,0:0:0:0:
496,188,225671,1,2,0:0:0:0:
448,100,225889,1,2,0:0:0:0:
384,188,226106,1,2,0:0:0:0:
280,204,226324,1,2,0:0:0:0:
200,144,226541,1,2,0:0:0:0:
176,44,226759,6,0,P|220:104|212:260,1,223.999993164063,2|0,0:0|0:0,0:0:0:0:
4,208,227737,1,0,0:0:0:0:
84,168,227901,1,0,1:0:0:0:
148,228,228064,2,0,L|216:224,1,55.9999982910157,0|0,1:0|1:0,0:0:0:0:
312,172,228390,1,0,0:0:0:0:
360,252,228553,1,0,1:0:0:0:
484,188,228716,6,0,L|408:192,1,55.9999982910157,0|0,1:0|0:0,0:0:0:0:
244,132,229042,1,0,1:0:0:0:
248,232,229206,1,0,1:0:0:0:
256,328,229369,1,4,1:0:0:0:
89,51,230021,6,0,P|61:99|81:159,1,95.9999970703126,0|2,1:0|1:0,0:0:0:0:
144,112,230511,2,0,B|192:124|192:124|204:120|204:120|248:132,1,95.9999970703126,0|0,1:0|0:0,0:0:0:0:
300,184,231000,1,2,1:0:0:0:
316,104,231163,2,0,P|376:128|456:116,1,143.999995605469,0|2,1:0|1:0,0:0:0:0:
504,184,231816,6,0,B|492:236|500:312|500:312,1,95.9999970703126,0|0,1:0|0:0,0:0:0:0:
512,360,232305,1,2,1:0:0:0:
436,332,232468,2,0,B|384:332|384:332|364:348|338:353|338:353|284:344,1,143.999995605469,0|2,1:0|0:0,0:0:0:0:
172,216,233284,2,0,P|165:248|172:272,1,47.9999985351563,0|0,1:0|1:0,0:0:0:0:
116,356,233610,2,0,L|232:340,1,95.9999970703126,2|0,1:0|0:0,0:0:0:0:
244,240,234100,1,0,1:0:0:0:
316,276,234263,1,2,1:0:0:0:
396,284,234426,1,0,1:0:0:0:
472,256,234589,6,0,B|471:225|471:225|476:199|476:199|472:159,1,95.9999970703126,0|2,1:0|0:0,0:0:0:0:
368,16,235241,2,0,P|360:80|374:120,1,95.9999970703126,0|2,1:0|0:0,0:0:0:0:
450,65,235731,2,0,P|457:148|402:196,1,143.999995605469,0|2,1:0|1:0,0:0:0:0:
336,188,236383,2,0,B|296:192|296:192|256:184|256:184|216:208,1,95.9999970703126,0|0,1:0|0:0,0:0:0:0:
164,200,236873,1,2,1:0:0:0:
191,274,237036,1,0,1:0:0:0:
192,352,237199,5,0,1:0:0:0:
44,80,237525,1,2,1:0:0:0:
20,156,237688,2,0,B|2:189|2:189|12:224|12:224|8:268,1,95.9999970703126,0|0,1:0|1:0,0:0:0:0:
44,320,238178,2,0,P|88:312|160:316,1,95.9999970703126,2|0,1:0|0:0,0:0:0:0:
216,344,238667,1,0,0:0:0:0:
284,308,238830,1,2,1:0:0:0:
468,344,239157,1,0,0:0:0:0:
468,92,239483,1,2,1:0:0:0:
480,176,239646,1,0,0:0:0:0:
488,256,239809,6,0,P|444:256|364:224,1,95.9999970703126,4|2,1:0|1:0,0:0:0:0:
356,172,240299,2,0,P|304:172|236:144,1,95.9999970703126,0|0,1:0|0:0,0:0:0:0:
188,188,240787,2,0,P|140:184|128:184,1,47.9999985351563,2|0,1:0|1:0,1:0:0:0:
12,196,241114,1,0,0:0:0:0:
216,48,241440,1,2,0:0:0:0:
220,248,241767,1,0,1:0:0:0:
176,312,241930,2,0,P|144:264|164:196,1,95.9999970703126,0|0,1:0|0:0,0:0:0:0:
200,168,242419,6,0,P|208:116|188:72,1,95.9999970703126,4|2,1:0|1:0,0:0:0:0:
128,128,242909,2,0,L|24:136,1,95.9999970703126,0|0,1:0|1:0,0:0:0:0:
208,160,243398,2,0,L|312:152,2,95.9999970703126,2|0|2,1:0|0:0|0:0,0:0:0:0:
480,136,244377,1,0,1:0:0:0:
312,300,244702,1,2,1:0:0:0:
388,336,244866,1,0,0:0:0:0:
464,300,245029,6,0,B|484:272|484:272|464:244|464:244|468:204,1,95.9999970703126,4|2,1:0|1:0,0:0:0:0:
480,136,245519,2,0,P|475:92|432:36,1,95.9999970703126,0|0,1:0|1:0,0:0:0:0:
392,120,246008,2,0,L|384:192,1,47.9999985351563,2|0,1:0|0:0,0:0:0:0:
312,248,246334,1,0,1:0:0:0:
220,52,246661,2,0,L|240:156,1,95.9999970703126,2|0,1:0|0:0,0:0:0:0:
136,352,247313,1,2,1:0:0:0:
144,276,247476,1,0,1:0:0:0:
96,208,247639,6,0,B|148:188|148:188|208:200,1,95.9999970703126,4|8,1:0|0:0,0:0:0:0:
288,232,248129,2,0,L|296:356,1,95.9999970703126,4|0,1:0|0:0,0:0:0:0:
384,280,248618,2,0,L|436:264,1,47.9999985351563,12|0,1:0|0:0,0:0:0:0:
364,44,248945,2,0,P|392:100|368:200,1,143.999995605469,4|0,1:0|0:0,0:0:0:0:
304,212,249597,1,6,0:0:0:0:
224,226,249760,1,2,0:0:0:0:
185,153,249923,1,8,1:0:0:0:
242,95,250086,1,8,1:3:0:0:
315,131,250250,1,4,1:0:0:0:
256,192,250412,12,8,255469,0:3:0:0:
152,248,269825,6,0,L|160:304,1,40,2|0,0:0|0:0,0:0:0:0:
72,208,270152,2,0,L|80:264,1,40,2|0,1:0|0:0,0:0:0:0:
132,128,270478,2,0,L|140:184,1,40,2|0,1:0|0:0,0:0:0:0:
52,68,270804,2,0,L|60:124,1,40,2|0,1:0|1:0,0:0:0:0:
20,276,271131,6,0,B|56:292|56:292|148:276,1,120,4|0,1:0|0:0,0:0:0:0:
216,260,271783,2,0,P|272:248|316:252,1,80,8|0,0:0|0:0,0:0:0:0:
368,284,272272,1,0,0:0:0:0:
444,256,272436,2,0,L|488:248,2,40,0|0|0,1:0|0:0|1:0,0:0:0:0:
272,168,273088,1,8,1:2:0:0:
444,248,273414,1,0,0:0:0:0:
344,68,273741,6,0,P|340:120|360:148,1,80,0|0,1:0|0:0,0:0:0:0:
416,92,274230,1,0,0:0:0:0:
416,92,274393,2,0,L|472:84,1,40,8|0,0:0|0:0,0:0:0:0:
296,66,274719,2,0,L|336:60,1,40
216,136,275046,2,0,P|208:96|208:88,1,40,0|0,1:0|0:0,0:0:0:0:
132,48,275372,2,0,P|100:56|84:56,1,40,0|0,1:0|0:0,0:0:0:0:
4,120,275697,1,8,1:2:0:0:
220,128,276024,1,0,0:0:0:0:
260,120,276188,1,0,0:0:0:0:
300,112,276350,5,4,1:0:0:0:
108,236,276677,1,0,0:0:0:0:
272,320,277003,1,8,0:0:0:0:
104,232,277330,1,0,0:0:0:0:
64,228,277493,1,0,0:0:0:0:
24,224,277656,1,0,1:0:0:0:
252,124,277982,1,0,1:0:0:0:
220,364,278308,1,8,1:2:0:0:
400,232,278635,2,0,L|348:236,1,40
184,200,278961,5,4,1:0:0:0:
392,240,279287,1,0,0:0:0:0:
228,356,279613,2,0,P|264:292|264:260,1,95.9999970703126,8|0,0:0|0:0,0:0:0:0:
264,192,280103,1,0,0:0:0:0:
216,124,280266,1,0,1:0:0:0:
124,244,280592,1,0,1:0:0:0:
296,120,280918,2,0,P|288:68|308:20,1,95.9999970703126,8|0,1:2|0:0,0:0:0:0:
368,80,281408,1,0,0:0:0:0:
368,80,281571,6,0,L|424:84,1,47.9999985351563,4|0,0:0|0:0,0:0:0:0:
500,176,281897,2,0,L|440:164,1,47.9999985351563
348,252,282224,2,0,L|404:240,1,47.9999985351563,8|0,0:0|0:0,0:0:0:0:
496,328,282550,2,0,L|444:312,1,47.9999985351563
360,164,282875,5,4,1:0:0:0:
354,237,283038,1,0,0:0:0:0:
312,298,283201,1,0,1:0:0:0:
245,330,283364,1,0,1:0:0:0:
172,323,283527,1,2,0:0:0:0:
111,280,283690,1,0,1:0:0:0:
81,213,283853,1,0,1:0:0:0:
89,139,284016,1,0,1:0:0:0:
128,76,284181,1,4,0:3:0:0:
236,280,286791,5,4,1:0:0:0:
324,56,289401,5,4,0:2:0:0:
208,244,292011,6,0,B|196:280|196:280|208:352,1,95.9999970703126,4|8,1:2|0:0,0:0:0:0:
340,216,292664,2,0,B|352:180|352:180|340:108,1,95.9999970703126,4|8,1:2|0:0,0:0:0:0:
312,40,293153,1,0,0:0:0:0:
256,108,293316,2,0,L|192:108,1,47.9999985351563,4|0,0:0|0:0,0:0:0:0:
76,180,293643,2,0,L|124:180,1,47.9999985351563,8|0,0:0|0:0,0:0:0:0:
280,300,293969,1,4,0:0:0:0:
236,280,294132,1,0,1:0:0:0:
188,276,294294,1,8,0:0:0:0:
140,284,294458,1,0,1:0:0:0:
92,312,294622,5,4,1:0:0:0:
400,264,294947,2,0,P|444:268|468:260,1,55.9999982910157,0|0,1:0|0:0,0:0:0:0:
306,173,295274,2,0,P|308:200|316:228,1,55.9999982910157,8|0,1:2|0:0,0:0:0:0:
426,355,295600,2,0,B|372:344|312:364|312:364|328:340|328:316,1,167.999994873047,0|0,1:0|0:0,0:0:0:0:
400,264,296253,1,0,1:0:0:0:
316,228,296416,2,0,P|300:148|328:96,1,111.999996582031,0|0,1:0|0:0,0:0:0:0:
352,56,296905,1,0,1:0:0:0:
388,132,297069,6,0,L|504:124,1,111.999996582031,0|0,1:0|0:0,0:0:0:0:
320,216,297558,2,0,L|252:208,1,55.9999982910157,0|0,1:0|0:0,0:0:0:0:
156,144,297884,2,0,P|188:136|228:136,1,55.9999982910157,8|0,1:2|0:0,0:0:0:0:
112,224,298210,2,0,L|52:216,1,55.9999982910157,0|0,1:0|0:0,0:0:0:0:
8,112,298537,2,0,P|48:124|88:124,1,55.9999982910157,0|0,1:0|0:0,0:0:0:0:
128,48,298863,1,0,1:0:0:0:
96,316,299189,1,8,1:2:0:0:
184,288,299351,2,0,B|208:304|208:304|304:292,1,111.999996582031,0|0,1:0|0:0,0:0:0:0:
352,232,299842,6,0,P|380:224|480:236,1,111.999996582031,4|0,0:0|1:0,0:0:0:0:
504,300,300331,2,0,B|512:228|512:228|500:212|500:212|508:132,1,167.999994873047,0|0,1:0|1:0,0:0:0:0:
448,8,300983,2,0,P|444:80|412:116,1,111.999996582031,0|0,1:0|0:0,0:0:0:0:
336,108,301473,2,0,P|304:112|256:100,1,55.9999982910157,0|0,1:0|0:0,0:0:0:0:
216,60,301799,1,8,1:2:0:0:
160,48,301962,1,0,0:0:0:0:
104,52,302125,1,0,1:0:0:0:
52,76,302289,1,0,1:0:0:0:
12,116,302452,5,2,0:3:0:0:
324,116,302778,1,0,0:0:0:0:
140,352,303104,5,8,1:2:0:0:
152,296,303268,1,0,1:0:0:0:
164,240,303431,1,0,1:0:0:0:
176,184,303594,1,0,1:0:0:0:
188,128,303757,1,8,1:0:0:0:
428,316,304083,5,0,1:0:0:0:
372,304,304246,1,8,1:0:0:0:
460,24,304573,5,0,1:0:0:0:
456,80,304736,1,8,1:0:0:0:
452,136,304898,1,0,1:0:0:0:
500,212,305062,6,0,B|446:238|396:212|396:212|332:172|282:218,1,223.999993164063,4|8,0:3|0:0,0:0:0:0:
167,184,305878,1,0,0:0:0:0:
56,128,306041,2,0,B|56:172|56:172|28:204|28:204|84:232|84:288,1,167.999994873047,2|0,0:0|0:0,0:0:0:0:
0,292,306693,1,2,0:0:0:0:
64,348,306856,2,0,B|128:336|128:336|144:340|144:340|196:332,1,111.999996582031
204,248,307346,1,2,0:0:0:0:
268,316,307509,6,0,P|336:324|380:300,1,111.999996582031
436,236,307998,2,0,L|452:292,1,55.9999982910157,2|0,0:0|0:0,0:0:0:0:
504,132,308325,2,0,L|504:192,1,55.9999982910157,8|0,0:0|0:0,0:0:0:0:
385,29,308651,1,2,0:0:0:0:
395,114,308814,1,0,0:0:0:0:
468,60,308977,2,0,B|428:12|360:28|360:28|332:60|296:64,1,167.999994873047
232,76,309630,1,8,0:0:0:0:
144,48,309793,2,0,P|90:35|23:62,1,111.999996582031
92,128,310282,5,4,0:1:0:0:
220,364,310608,1,2,0:0:0:0:
156,296,310772,2,0,P|140:232|176:168,1,111.999996582031
236,244,311261,1,2,0:0:0:0:
320,204,311424,2,0,B|352:228|352:228|384:220|384:220|432:228,1,111.999996582031
468,304,311914,1,2,0:0:0:0:
512,220,312077,2,0,P|520:164|488:104,1,111.999996582031
428,56,312566,5,2,0:0:0:0:
416,144,312729,2,0,L|346:133,1,55.9999982910157
288,48,313219,1,2,0:0:0:0:
176,48,313545,2,0,L|192:116,1,55.9999982910157,8|0,0:0|0:0,0:0:0:0:
220,220,313871,1,2,0:0:0:0:
132,204,314034,1,0,0:0:0:0:
48,244,314197,6,0,L|56:172,1,55.9999982910157
132,348,314524,2,0,L|116:268,1,55.9999982910157,2|0,0:0|0:0,0:0:0:0:
144,84,314850,1,10,0:0:0:0:
208,140,315013,1,2,0:0:0:0:
220,220,315176,1,2,0:0:0:0:
200,300,315339,1,2,0:0:0:0:
132,348,315502,5,4,0:3:0:0:
8,124,315829,1,2,0:0:0:0:
292,144,316155,1,8,0:0:0:0:
175,228,316480,1,2,0:0:0:0:
103,174,316643,2,0,P|85:122|102:69,1,111.999996582031
178,15,317134,1,2,0:0:0:0:
240,84,317297,2,0,B|290:86|290:86|310:82|310:82|372:80,1,111.999996582031
452,40,317786,1,2,0:0:0:0:
440,140,317949,6,0,P|456:216|452:256,1,111.999996582031
419,327,318439,2,0,P|383:327|343:311,1,55.9999982910157,2|0,0:0|0:0,0:0:0:0:
358,238,318765,2,0,P|330:237|302:243,1,55.9999982910157,8|0,0:0|0:0,0:0:0:0:
253,310,319090,1,0,0:0:0:0:
170,295,319254,1,0,0:0:0:0:
100,248,319418,2,0,B|72:252|52:224|52:224|36:196|0:200,2,111.999996582031,0|2|8,0:0|0:0|0:0,0:0:0:0:
124,168,320233,2,0,L|256:144,1,111.999996582031,2|0,0:0|0:0,0:0:0:0:
60,16,320723,6,0,P|44:84|64:132,1,111.999996582031,4|2,0:1|0:0,0:0:0:0:
136,72,321212,2,0,L|268:48,1,111.999996582031
344,30,321701,1,2,0:0:0:0:
432,80,321865,2,0,P|444:140|428:208,1,111.999996582031
408,240,322354,1,2,0:0:0:0:
392,292,322517,1,0,0:0:0:0:
348,328,322680,1,8,0:0:0:0:
312,288,322843,1,0,0:0:0:0:
268,252,323007,1,2,0:0:0:0:
212,248,323170,1,0,0:0:0:0:
156,260,323333,6,0,B|132:280|88:288|88:288|56:272|32:232|32:232|40:180|76:148,1,223.999993164063,0|8,0:0|0:0,0:0:0:0:
152,76,324203,2,0,P|162:112|156:176,1,74.6666643880209
156,260,324638,5,2,0:0:0:0:
88,208,324801,1,2,0:0:0:0:
64,128,324964,1,2,0:0:0:0:
92,48,325127,1,2,0:0:0:0:
160,0,325290,1,12,0:0:0:0:
232,288,325617,1,2,0:0:0:0:
178,368,325943,6,0,P|142:316|174:208,1,167.999994873047,4|0,0:0|0:0,0:0:0:0:
248,196,326595,1,8,0:2:0:0:
432,264,326922,1,2,0:0:0:0:
416,352,327085,1,0,0:0:0:0:
460,88,327411,1,0,0:0:0:0:
500,168,327574,2,0,B|456:176|456:176|412:161|412:161|368:156,1,111.999996582031,2|8,0:0|0:2,0:0:0:0:
60,144,328227,1,2,0:0:0:0:
144,176,328390,1,0,0:0:0:0:
196,104,328553,6,0,P|236:148|252:224,1,111.999996582031,0|2,0:0|0:0,0:0:0:0:
184,260,329042,2,0,B|200:288|200:288|236:312|284:292,1,111.999996582031
340,224,329532,2,0,P|408:196|464:212,2,111.999996582031,2|0|2,0:0|0:0|0:0,0:0:0:0:
124,200,330511,1,8,0:0:0:0:
428,180,330837,1,2,0:0:0:0:
212,12,331163,5,4,0:0:0:0:
220,100,331326,1,0,0:0:0:0:
228,188,331489,1,2,0:0:0:0:
432,48,331816,2,0,B|394:54|394:54|365:53|365:53|320:60,1,111.999996582031,8|2,0:0|0:0,0:0:0:0:
232,104,332305,1,0,0:0:0:0:
148,48,332468,6,0,P|130:92|140:136,1,74.6666643880209,2|2,0:0|0:0,0:0:0:0:
196,208,332903,1,2,0:0:0:0:
264,280,333121,1,2,0:0:0:0:
192,340,333338,1,2,0:0:0:0:
124,272,333556,1,2,0:0:0:0:
208,200,333773,6,0,P|264:186|348:192,1,111.999996582031,2|2,0:0|0:0,0:0:0:0:
456,256,334426,1,8,0:0:0:0:
388,48,334752,1,2,0:0:0:0:
412,140,334915,1,0,0:0:0:0:
376,228,335078,2,0,P|365:258|364:296,1,55.9999982910157,0|0,1:0|0:0,0:0:0:0:
476,96,335405,2,0,P|487:131|480:180,1,55.9999982910157,2|0,1:0|1:0,0:0:0:0:
276,120,335731,2,0,P|303:121|331:115,1,55.9999982910157,8|0,1:2|1:0,0:0:0:0:
176,160,336057,2,0,P|168:136|168:100,1,55.9999982910157,2|0,1:0|1:0,0:0:0:0:
48,8,336383,6,0,B|84:48|64:104|64:104|48:144|76:184,1,167.999994873047,4|0,0:0|0:0,0:0:0:0:
108,244,337036,2,0,P|140:312|116:372,1,111.999996582031,8|2,0:0|0:0,0:0:0:0:
56,312,337525,2,0,L|192:296,1,111.999996582031
247,342,338015,1,2,0:0:0:0:
316,284,338178,2,0,P|344:296|380:332,1,55.9999982910157,0|8,0:0|0:0,0:0:0:0:
498,147,338667,1,2,0:0:0:0:
512,236,338830,1,0,0:0:0:0:
428,208,338993,6,0,P|377:206|300:184,1,111.999996582031,0|2,0:0|0:0,0:0:0:0:
250,117,339483,2,0,P|190:125|142:173,1,111.999996582031
56,180,339972,2,0,P|60:260|84:316,1,111.999996582031,2|0,0:0|0:0,0:0:0:0:
100,336,340462,1,0,0:0:0:0:
156,344,340625,1,2,0:0:0:0:
204,312,340788,1,0,0:0:0:0:
240,268,340951,1,8,0:0:0:0:
296,252,341114,1,0,0:0:0:0:
344,280,341277,1,2,0:0:0:0:
456,364,341604,5,4,0:0:0:0:
508,176,341930,1,2,0:0:0:0:
458,271,342256,2,0,B|395:273|395:273|356:250|356:250|297:252,1,167.999994873047,8|8,0:0|0:0,0:0:0:0:
226,272,342908,5,2,0:0:0:0:
153,207,343125,1,2,0:0:0:0:
119,115,343343,1,2,0:0:0:0:
144,21,343560,1,2,0:0:0:0:
139,118,343778,1,2,0:0:0:0:
61,175,343995,1,2,0:0:0:0:
153,207,344214,6,0,B|213:204|213:204|245:183|245:183|361:175,1,167.999994873047,2|0,0:0|0:0,0:0:0:0:
393,200,344866,2,0,P|396:166|373:116,1,55.9999982910157,8|0,0:0|0:0,0:0:0:0:
272,24,345193,1,2,0:0:0:0:
196,8,345356,1,2,0:0:0:0:
126,45,345519,1,0,1:0:0:0:
109,121,345682,1,0,1:0:0:0:
141,192,345845,1,2,0:0:0:0:
217,212,346008,1,0,1:0:0:0:
290,185,346171,1,2,1:0:0:0:
363,211,346334,1,2,1:0:0:0:
389,285,346498,1,2,1:0:0:0:
362,359,346661,1,2,1:0:0:0:
287,375,346824,1,4,1:1:0:0:
200,236,357264,6,0,B|164:252|136:240|136:240|94:226|60:252,1,143.999995605469,6|0,0:1|0:0,0:0:0:0:
108,316,357917,2,0,L|116:384,1,47.9999985351563,0|0,1:0|0:0,0:0:0:0:
164,164,358243,2,0,L|156:100,1,47.9999985351563
196,28,358569,2,0,P|244:76|228:176,1,143.999995605469,2|0,0:0|0:0,0:0:0:0:
164,164,359222,2,0,L|100:168,1,47.9999985351563,0|0,1:0|0:0,0:0:0:0:
16,92,359548,2,0,L|88:88,1,47.9999985351563
196,28,359874,6,0,B|248:48|248:48|280:36|280:36|308:24|360:40,1,143.999995605469,2|0,0:0|0:0,0:0:0:0:
312,120,360527,2,0,L|320:176,1,47.9999985351563,0|0,1:0|0:0,0:0:0:0:
392,100,360853,2,0,L|400:152,1,47.9999985351563
376,232,361179,2,0,B|380:268|380:268|392:300|392:300|400:344,2,95.9999970703126,2|0|0,0:0|0:0|1:0,0:0:0:0:
400,92,362158,1,0,0:0:0:0:
464,260,362485,6,0,P|432:304|324:312,1,143.999995605469,2|0,0:1|0:0,0:0:0:0:
272,288,363136,2,0,P|236:280|208:284,1,47.9999985351563,0|0,1:0|0:0,0:0:0:0:
152,320,363463,2,0,P|116:336|96:336,1,47.9999985351563
40,296,363790,2,0,B|16:264|20:228|20:228|48:192|36:132,1,143.999995605469,2|0,0:0|0:0,0:0:0:0:
16,80,364442,2,0,P|8:40|8:24,1,47.9999985351563,0|0,1:0|0:0,0:0:0:0:
120,16,364768,2,0,P|128:48|124:80,1,47.9999985351563
128,144,365095,6,0,B|164:160|204:148|204:148|244:168|300:144,1,143.999995605469,2|0,0:0|0:0,0:0:0:0:
248,72,365747,2,0,L|248:16,1,47.9999985351563,0|0,1:0|0:0,0:0:0:0:
374,85,366073,2,0,L|328:96,1,47.9999985351563
348,180,366400,2,0,B|340:216|340:216|348:236|348:236|340:284,1,95.9999970703126,2|0,0:0|0:0,0:0:0:0:
476,264,367052,1,0,1:0:0:0:
342,364,367378,1,0,0:0:0:0:
264,216,367705,6,0,P|208:204|116:240,1,143.999995605469,6|0,0:0|0:0,0:0:0:0:
64,288,368357,2,0,P|64:336|72:356,1,47.9999985351563,0|0,1:0|0:0,0:0:0:0:
40,160,368684,2,0,P|46:183|47:206,1,47.9999985351563
8,16,369010,2,0,B|4:52|12:76|12:76|44:52|108:48,1,143.999995605469,2|0,0:0|0:0,0:0:0:0:
232,96,369662,2,0,P|208:95|184:91,1,47.9999985351563,0|0,1:0|0:0,0:0:0:0:
304,48,369989,2,0,P|348:48|372:52,1,47.9999985351563
504,88,370315,6,0,B|460:104|424:96|424:96|432:120|436:168,1,143.999995605469,2|0,0:0|0:0,0:0:0:0:
408,280,370967,2,0,P|396:236|396:216,1,47.9999985351563,0|0,1:0|0:0,0:0:0:0:
484,320,371294,2,0,P|484:364|476:392,1,47.9999985351563
288,356,371620,2,0,B|318:360|318:360|346:352|346:352|382:356,1,95.9999970703126,2|0,0:0|0:0,0:0:0:0:
200,288,372272,1,0,1:0:0:0:
12,352,372599,1,0,0:0:0:0:
60,360,372762,1,0,0:0:0:0:
108,360,372925,6,0,B|112:328|84:288|84:288|72:248|116:208,1,143.999995605469,10|0,0:1|0:0,0:0:0:0:
156,164,373578,2,0,P|180:124|184:104,1,47.9999985351563,0|0,1:0|0:0,0:0:0:0:
144,12,373904,2,0,P|124:48|120:72,1,47.9999985351563
228,44,374230,2,0,P|276:56|328:48,1,95.9999970703126,2|0,0:0|0:0,0:0:0:0:
440,24,374883,1,0,1:0:0:0:
424,216,375209,1,0,0:0:0:0:
416,168,375372,1,0,0:0:0:0:
408,120,375535,5,2,0:0:0:0:
511,233,375861,1,0,0:0:0:0:
372,296,376188,2,0,B|332:304|332:304|324:312|324:312|272:324,1,95.9999970703126,0|0,1:0|0:0,0:0:0:0:
208,288,376677,1,0,0:0:0:0:
136,328,376840,2,0,B|96:336|96:336|88:344|88:344|36:356,1,95.9999970703126,2|0,0:0|0:0,0:0:0:0:
24,168,377493,2,0,P|24:228|44:268,1,95.9999970703126,0|0,1:0|1:0,0:0:0:0:
111,22,378144,6,0,P|71:48|44:88,1,95.9999970703126,6|0,0:1|0:0,0:0:0:0:
292,32,378798,2,0,P|244:16|188:12,1,95.9999970703126,0|0,1:0|0:0,0:0:0:0:
168,92,379287,1,0,0:0:0:0:
168,176,379450,2,0,B|168:224|168:224|176:236|176:236|180:304,1,95.9999970703126,2|0,0:0|0:0,0:0:0:0:
229,362,380103,1,0,1:0:0:0:
308,292,380429,1,0,0:0:0:0:
128,184,380755,5,2,0:0:0:0:
256,32,381082,1,0,0:0:0:0:
264,80,381245,1,0,0:0:0:0:
272,128,381408,2,0,B|309:139|343:111|343:111|361:149|391:155,1,143.999995605469,0|0,1:0|0:0,0:0:0:0:
473,149,382060,5,2,1:0:0:0:
426,81,382224,1,0,0:0:0:0:
392,156,382387,1,0,1:0:0:0:
391,236,382550,1,0,1:0:0:0:
414,313,382712,1,2,1:0:0:0:
333,297,382876,1,0,0:0:0:0:
252,309,383039,1,0,1:0:0:0:
171,295,383202,1,0,1:0:0:0:
97,328,383365,5,4,0:1:0:0:
196,60,383692,1,0,0:0:0:0:
48,176,384018,1,8,0:0:0:0:
216,144,384344,1,0,0:0:0:0:
256,152,384507,1,0,0:0:0:0:
296,160,384670,2,0,L|316:200,2,40
128,236,385323,2,0,L|120:340,1,80,8|0,0:0|0:0,0:0:0:0:
256,376,385976,5,0,0:0:0:0:
224,228,386302,1,0,0:0:0:0:
60,304,386628,1,8,0:0:0:0:
72,116,386954,1,0,0:0:0:0:
88,152,387117,1,0,0:0:0:0:
104,188,387281,2,0,L|40:200,2,40
324,112,387933,2,0,L|228:100,1,80,8|0,0:0|0:0,0:0:0:0:
340,248,388586,5,0,0:0:0:0:
472,192,388912,1,0,0:0:0:0:
340,88,389238,1,8,0:0:0:0:
372,276,389564,2,0,L|328:296,1,40
252,296,389891,2,0,L|208:316,2,40
108,224,390543,1,8,0:0:0:0:
360,264,390870,1,0,0:0:0:0:
200,264,391196,5,0,0:0:0:0:
260,204,391522,1,0,0:0:0:0:
300,132,391848,1,8,0:0:0:0:
320,56,392175,1,0,0:0:0:0:
76,117,392501,1,0,0:0:0:0:
68,193,392827,1,0,0:0:0:0:
84,265,393153,1,8,0:0:0:0:
128,321,393480,1,0,0:0:0:0:
400,248,393806,6,0,L|304:240,1,80,4|0,0:1|0:0,0:0:0:0:
128,320,394458,1,8,0:0:0:0:
192,104,394785,1,0,0:0:0:0:
216,136,394948,1,0,0:0:0:0:
220,176,395111,2,0,P|212:216|216:232,2,40
244,368,395763,2,0,P|260:312|252:272,1,80,8|0,0:0|0:0,0:0:0:0:
152,48,396416,5,0,0:0:0:0:
136,200,396742,1,0,0:0:0:0:
312,148,397069,1,8,0:0:0:0:
64,96,397395,1,0,0:0:0:0:
100,116,397558,1,0,0:0:0:0:
140,120,397721,2,0,P|180:104|196:104,2,40
428,156,398374,2,0,P|368:168|328:168,1,80,8|0,0:0|0:0,0:0:0:0:
272,8,399026,6,0,P|280:56|280:92,1,80
240,212,399679,2,0,P|224:268|196:308,1,80,8|0,0:0|0:0,0:0:0:0:
136,68,400331,1,2,0:0:0:0:
136,108,400494,1,2,0:0:0:0:
128,148,400657,1,2,0:0:0:0:
108,184,400821,1,2,0:0:0:0:
80,212,400984,1,6,0:0:0:0:
396,164,401310,1,4,0:1:0:0:
256,192,401636,12,0,408751,0:0:0:0:
