osu file format v4

[General]
AudioFilename: Bump of Chicken - Tentai Kansoku.MP3
AudioLeadIn: 0
AudioHash: 107b2e8893cd4a771bf549c225a3948b
PreviewTime: -1
SampleSet: Normal
EditorBookmarks: 5015,31015,54470,60288,66106,90833,103924,127197,156288,167924,191197,202106,214470,251561

[Metadata]
Title:Tentai Kansoku
Artist:BUMP OF CHICKEN
Creator:Impossible
Version:Easy

[Difficulty]
HPDrainRate:4
CircleSize:4
OverallDifficulty:3
SliderMultiplier: 1.4
SliderTickRate: 1

[Events]
1,-2800,"Tentai Kansoku.avi"
2,54305,59088
2,90851,102906
2,156124,166438
2,190942,201633
3,0,163,162,255

[TimingPoints]
16652,363.636363636364,4,1,1

[HitObjects]
256,192,5015,5,4,
256,192,7924,5,2,
256,192,10833,5,0,
256,192,13742,5,2,
352,160,16652,6,0,B|352:160|240:160|174:210|128:320,2,280
358,286,18651,1,2,
160,64,19561,6,0,B|160:64|272:64|338:114|384:224,2,280
154,190,21560,1,2,
96,256,22651,6,0,B|96:256|200:201|180:66,1,210
288,256,23742,2,0,B|288:256|392:201|372:66,1,210
256,64,24652,1,2,
256,64,25015,1,2,
416,128,25561,6,0,B|416:128|312:183|332:318,1,210
224,128,26652,2,0,B|224:128|120:183|140:318,1,210
256,320,27562,1,2,
256,320,27925,1,2,
192,128,29561,5,2,
192,256,29924,1,4,
320,256,30288,1,2,
320,128,30652,1,4,
416,112,31197,5,0,
288,160,31924,1,0,
159,116,32652,2,0,B|159:116|159:276,1,140
256,256,33379,1,0,
32,32,34106,6,0,B|32:32|480:32,1,420
384,128,35561,1,0,
320,192,35924,1,0,
256,256,36288,1,0,
160,192,37015,5,0,
160,64,37561,1,0,
256,64,37924,1,0,
256,160,38288,2,0,B|256:160|256:320,1,140
384,288,39197,1,0,
160,128,39924,5,0,
256,96,40288,1,0,
352,128,40652,1,0,
384,224,41015,2,2,B|384:224|288:352,1,140
212,338,41742,2,2,B|212:338|116:210,1,140
416,288,42833,5,0,
288,288,43560,1,0,
160,276,44288,2,0,B|160:276|160:116,1,140
256,128,45015,2,2,B|256:128|416:128,1,140
480,32,45742,6,0,B|480:32|32:32,1,420
128,128,47197,1,0,
192,192,47561,1,0,
256,256,47924,2,2,B|256:256|256:96,1,140
352,192,48652,5,0,
352,64,49197,1,0,
256,64,49561,1,0,
256,160,49924,2,2,B|256:160|256:320,2,140
256,64,51015,1,6,
390,128,51561,6,0,B|390:128|256:56|120:127,1,280
192,256,52833,1,0,
192,256,53015,1,0,
320,256,53379,1,0,
321,160,53742,2,4,B|321:160|161:160,1,140
256,320,60288,5,4,
384,288,60833,1,0,
384,288,61015,1,0,
384,128,61561,1,0,
384,128,61742,1,0,
384,128,61924,1,0,
256,128,62288,1,0,
256,128,62470,1,0,
256,128,62651,1,0,
128,96,63197,6,2,B|128:96|128:256,1,140
257,236,63924,2,2,B|257:236|256:61,1,140
384,96,64651,2,2,B|384:96|384:256,1,140
304,320,65379,1,2,
208,320,65742,1,6,
64,320,66106,6,0,B|64:320|64:160,1,140
128,96,66833,1,2,
224,96,67197,2,0,B|224:96|292:193|423:141|480:224,1,280
474,298,68288,1,2,
320,320,69015,6,0,B|320:320|241:392|158:219|32:288,1,280
64,176,70106,1,2,
176,176,70470,1,0,
288,176,70833,1,0,
288,80,71197,1,2,
396,64,71924,6,0,B|396:64|108:64,1,280
116,192,73015,2,2,B|116:192|404:192,1,280
304,128,74106,5,0,
304,128,74288,1,0,
416,128,74651,2,2,B|416:128|300:-15|135:24|34:55|32:192,1,490
96,256,76288,2,4,B|96:256|192:288|224:256|256:224|256:160,1,210
416,288,77742,6,2,B|416:288|416:128,2,140
288,288,78833,2,0,B|288:288|220:191|89:243|32:160,1,280
38,86,79924,1,2,
192,64,80651,6,0,B|192:64|271:-8|354:165|480:96,1,280
456,208,81742,1,2,
336,208,82106,1,0,
223,207,82470,1,0,
224,304,82833,1,2,
116,320,83470,6,0,B|116:320|396:320,1,280
396,192,84652,2,2,B|396:192|116:192,1,280
224,256,85742,5,0,
224,256,85924,1,0,
128,256,86288,2,2,B|128:256|194:365|304:368|404:339|451:201,1,420
448,128,87742,2,6,B|448:128|382:19|272:16|216:59|260:200,1,350
256,96,89379,5,2,
256,192,89742,1,2,
256,352,90470,2,6,B|256:352|256:256,1,70
96,256,104106,6,0,B|96:256|200:201|180:66,1,210
288,256,105197,2,0,B|288:256|392:201|372:66,1,210
256,64,106107,1,2,
256,64,106470,1,2,
416,128,107016,6,0,B|416:128|312:183|332:318,1,210
224,128,108107,2,0,B|224:128|120:183|140:318,1,210
256,320,109017,1,2,
256,320,109380,1,2,
128,160,109924,5,0,
128,160,110105,2,0,B|128:160|227:220|124:292,1,140
352,160,111015,1,0,
352,160,111196,2,0,B|352:160|451:220|348:292,1,140
256,320,111924,2,2,B|256:320|256:160,1,140
384,224,112833,5,0,
384,224,113014,2,0,B|384:224|285:164|388:92,1,140
160,224,113924,1,0,
160,224,114105,2,0,B|160:224|61:164|164:92,1,140
256,64,114833,2,2,B|256:64|256:224,1,140
256,320,115561,5,4,
384,288,116106,1,0,
384,288,116288,1,0,
384,128,116834,1,0,
384,128,117015,1,0,
384,128,117197,1,0,
256,96,117561,2,0,B|256:96|127:42|33:261|256:256,1,350
256,352,118833,1,0,
256,128,119561,6,2,B|256:128|273:281|23:173|184:13|349:-146|427:226|233:269,1,560
256,320,121379,5,4,
128,288,121924,1,0,
128,288,122106,1,0,
128,128,122652,1,0,
128,128,122833,1,0,
128,128,123015,1,0,
256,128,123379,1,0,
256,128,123561,1,0,
256,128,123742,1,0,
384,96,124242,6,2,B|384:96|384:256,1,140
255,236,124969,2,2,B|255:236|256:61,1,140
128,96,125696,2,2,B|128:96|128:256,1,140
208,320,126424,1,2,
304,320,126787,1,6,
448,224,127152,5,0,
448,320,127516,1,0,
352,352,127879,1,2,
288,288,128243,2,0,B|288:288|220:191|89:243|32:160,1,280
38,86,129333,1,2,
256,64,130061,6,0,B|256:64|200:162|373:245|304:320,1,280
192,320,131152,1,2,
96,320,131516,2,2,B|96:320|96:160,2,140
116,192,132970,6,0,B|116:192|396:192,1,280
397,320,134061,2,2,B|397:320|117:320,1,280
208,256,135151,5,0,
208,256,135333,1,0,
96,256,135697,2,2,B|96:256|212:399|377:360|478:329|480:192,1,490
448,96,137333,1,0,
384,192,137879,1,4,
96,96,138788,6,2,B|96:96|96:256,2,140
224,96,139879,2,0,B|224:96|292:193|423:141|480:224,1,280
480,288,140970,1,2,
64,320,141697,5,0,
160,320,142061,1,0,
256,320,142425,2,2,B|256:320|313:223|140:140|208:64,1,280
320,64,143516,1,0,
416,64,143879,1,2,
396,192,144606,6,0,B|396:192|116:192,1,280
116,64,145697,2,2,B|116:64|396:64,1,280
288,128,146788,5,0,
288,128,146970,1,0,
384,128,147334,2,2,B|384:128|318:19|208:16|108:45|60:184,1,420
64,256,148788,2,6,B|64:256|130:365|240:368|296:325|252:184,1,350
256,288,150424,5,2,
256,208,150787,1,2,
256,32,151561,2,6,B|256:32|256:128,1,70
256,256,152106,1,0,
256,256,152288,1,0,
128,256,152651,1,2,
128,256,152833,1,2,
128,256,153015,1,2,
288,96,153561,5,0,
288,96,153742,2,0,B|288:96|228:-3|156:100,1,140
192,224,154651,1,0,
192,224,154833,2,0,B|192:224|252:125|324:228,1,140
384,256,155561,1,2,
384,256,155742,1,2,
384,256,155924,1,2,
256,352,167878,6,0,B|256:352|320:352,1,35
288,256,168424,2,0,B|288:256|224:192,1,70
416,288,169152,2,2,B|416:288|416:96,1,175
352,64,170061,2,6,B|352:64|256:192,1,140
288,352,170788,6,0,B|288:352|128:352,1,140
231,237,171516,2,0,B|231:237|135:365,1,140
96,256,172243,2,2,B|96:256|96:96,1,140
160,64,172970,2,6,B|160:64|256:192,1,140
256,192,173742,12,4,176651
192,192,179561,1,0,
320,192,180106,1,0,
320,192,180288,1,0,
256,288,180833,2,2,B|256:288|256:352|256:384,2,70
320,160,181561,1,0,
320,160,181742,1,0,
192,160,182106,1,0,
192,256,182470,1,0,
320,256,182833,1,0,
96,32,183561,5,2,
128,64,183742,1,2,
160,96,183924,2,2,B|160:96|272:208,3,140
352,288,185333,5,4,
256,288,185878,1,0,
256,224,186060,1,0,
160,128,186605,1,0,
160,128,186787,1,0,
160,128,186969,1,0,
352,64,187333,1,0,
352,64,187515,1,0,
352,64,187696,1,0,
157,93,188242,6,2,B|157:93|281:217,1,140
354,93,188969,2,2,B|354:93|256:192,1,140
256,332,189696,2,2,B|256:332|256:192,1,140
208,96,190424,1,2,
304,96,190787,1,6,
64,352,202379,5,2,
64,256,202742,2,2,B|64:256|64:0|271:0|272:385|447:384|448:32,1,700
352,64,205015,5,0,
160,128,205742,1,0,
352,192,206470,1,0,
160,256,207197,1,0,
352,320,207924,1,0,
86,253,208651,6,2,B|86:253|256:56|444:252,1,420
441,131,210106,2,2,B|441:131|253:-64|84:134,1,420
116,224,211561,2,6,B|116:224|396:224,3,280
480,64,214470,5,0,
448,128,214833,1,0,
416,192,215197,1,0,
384,256,215561,1,0,
352,192,215924,1,2,
320,256,216288,1,2,
288,320,216651,1,2,
224,320,217379,5,0,
192,256,217742,1,0,
160,192,218106,1,0,
128,128,218470,1,0,
96,192,218833,2,2,B|96:192|32:64,2,140
148,161,220288,6,0,B|148:161|256:0|363:162,4,280
160,256,223561,1,2,
352,256,223924,2,2,B|352:256|256:256,2,70
256,154,224651,2,6,B|256:154|256:224,3,70
192,32,226106,5,0,
320,32,226470,1,0,
256,128,226833,1,0,
256,224,227197,2,2,B|256:224|256:384,3,140
320,192,229015,6,0,B|320:192|446:288|254:419|65:288|192:192,1,420
256,128,230470,1,2,
192,224,230833,1,2,
320,224,231197,1,2,
256,96,231924,6,0,B|256:96|256:192,4,70
352,96,233015,2,0,B|352:96|468:208|393:341|288:224,1,280
352,352,234106,5,0,
272,352,234288,1,0,
192,320,234651,2,2,B|192:320|83:254|80:144|109:44|247:-3,1,420
328,0,236106,2,6,B|328:0|437:66|440:176|397:232|256:188,1,350
352,192,237696,5,2,
256,192,238060,1,2,
96,192,238787,2,6,B|96:192|192:192,1,70
256,224,239333,1,0,
256,224,239515,1,0,
256,320,239878,1,2,
256,320,240060,1,2,
256,320,240242,1,2,
160,192,240605,5,2,
256,192,240969,1,2,
416,192,241696,2,6,B|416:192|320:192,1,70
320,320,242242,2,2,B|320:320|153:301|128:64,1,332.5
96,224,243697,5,0,
96,224,243878,2,0,B|96:224|125:142|162:128|224:128,1,140
416,224,244787,1,0,
416,224,244968,2,0,B|416:224|387:142|350:128|288:128,1,140
320,224,245697,2,2,B|320:224|160:224,1,140
128,352,246424,6,4,L|128:352|250:-1|384:352|40:145|465:144|128:352,1,1960
