osu file format v14

[General]
AudioFilename: Spring Day.mp3
AudioLeadIn: 0
PreviewTime: 70774
Countdown: 0
SampleSet: Soft
StackLeniency: 0.7
Mode: 0
LetterboxInBreaks: 0
WidescreenStoryboard: 0

[Editor]
Bookmarks: 18063,53951,62923,125727,143671,152643,198624,206475
DistanceSpacing: 1.3
BeatDivisor: 4
GridSize: 4
TimelineZoom: 1

[Metadata]
Title:Spring Day
TitleUnicode:봄날
Artist:BTS
ArtistUnicode:방탄소년단
Creator:Cerulean Veyron
Version:Challenging
Source:
Tags:K-pop Kpop You Never Walk Alone BigHit Entertainment 빅히트엔터테인먼트 Bangtan Boys Rap Monster Jungkook Suga Jimin J-Hope V Jin 랩몬스터 진 슈가 제이홉 지민 뷔 정국 Extended Wings Trilogy Repackaged Edition Kawashiro
BeatmapID:1310051
BeatmapSetID:619854

[Difficulty]
HPDrainRate:4.5
CircleSize:4
OverallDifficulty:4
ApproachRate:6
SliderMultiplier:1.3
SliderTickRate:1

[Events]
//Background and Video events
0,0,"me-after-death.jpg.jpg",0,0
Video,-4757,"mv.avi"
//Break Periods
2,55073,61873
2,144792,151593
2,198624,205425
//Storyboard Layer 0 (Background)
//Storyboard Layer 1 (Fail)
//Storyboard Layer 2 (Pass)
//Storyboard Layer 3 (Foreground)
//Storyboard Sound Samples

[TimingPoints]
120,560.747663551402,4,2,1,60,1,0
53951,-100,4,2,1,50,0,0
71895,-90.9090909090909,4,2,2,80,0,1
89278,-90.9090909090909,4,2,1,70,0,0
89839,-90.9090909090909,4,2,2,80,0,1
107783,-100,4,2,2,70,0,0
125727,-100,4,2,1,60,0,0
143671,-100,4,2,1,50,0,0
161615,-90.9090909090909,4,2,2,80,0,1
178998,-90.9090909090909,4,2,2,70,0,0
179559,-90.9090909090909,4,2,2,80,0,1
197503,-100,4,2,1,50,0,0
207596,-100,4,2,2,50,0,0
210680,-100,4,2,1,50,0,0
210961,-100,4,2,2,50,0,0
213484,-100,4,2,1,70,0,0
215447,-90.9090909090909,4,2,2,80,0,1
232830,-90.9090909090909,4,2,2,80,0,0
233391,-90.9090909090909,4,2,2,80,0,1
251194,-100,4,2,2,80,0,0
251334,-100,4,2,2,80,0,1
251475,-100,4,2,2,70,0,0

[Colours]
Combo1 : 128,128,255
Combo2 : 255,128,128
Combo3 : 95,252,99
Combo4 : 255,104,32

[HitObjects]
256,192,13577,12,0,15820,0:0:0:0:
397,306,17222,6,0,L|402:273,1,32.5,2|2,0:0|0:0,0:0:0:0:
410,232,17503,1,0,0:0:0:0:
395,149,17783,1,2,0:0:0:0:
322,191,18063,6,0,P|261:196|187:190,1,130,4|8,0:0|0:0,0:0:0:0:
125,139,18905,2,0,L|107:215,1,65,2|0,0:0|0:0,0:0:0:0:
49,261,19465,1,2,0:0:0:0:
130,286,19746,1,0,0:0:0:0:
209,315,20026,2,0,L|266:318,1,32.5,2|2,0:0|0:0,0:0:0:0:
281,331,20306,6,0,P|298:303|324:284,1,65,0|2,0:0|0:0,0:0:0:0:
365,274,20727,1,2,0:0:0:0:
365,274,20867,2,0,P|397:275|429:272,1,65,8|2,0:0|0:0,0:0:0:0:
465,249,21288,2,0,L|463:201,1,32.5,0|0,0:0|0:0,0:0:0:0:
402,158,21708,2,0,L|403:125,1,32.5,0|2,0:0|0:0,0:0:0:0:
406,83,21989,1,0,0:0:0:0:
335,36,22269,1,2,0:0:0:0:
255,63,22549,6,0,B|214:72|214:72|119:61,1,130,0|8,0:0|0:0,0:0:0:0:
52,21,23391,2,0,P|45:57|46:86,1,65,2|0,0:0|0:0,0:0:0:0:
111,139,23951,1,2,0:0:0:0:
65,210,24232,2,0,L|49:300,1,65,0|2,0:0|0:0,0:0:0:0:
124,320,24792,6,0,L|101:345,2,32.5,2|2|0,0:0|0:0|0:0,0:0:0:0:
154,290,25213,1,2,0:0:0:0:
154,290,25353,2,0,P|186:286|218:287,1,65,8|0,0:0|0:0,0:0:0:0:
258,303,25774,2,0,L|313:312,1,32.5,2|0,0:0|0:0,0:0:0:0:
367,343,26194,2,0,L|422:334,1,32.5,2|0,0:0|0:0,0:0:0:0:
440,326,26475,1,2,0:0:0:0:
478,251,26755,1,0,0:0:0:0:
395,236,27035,6,0,P|338:206|293:159,1,130,4|8,0:0|0:0,0:0:0:0:
255,83,27877,2,0,L|258:50,2,32.5,2|2|0,0:0|0:0|0:0,0:0:0:0:
180,122,28437,1,0,0:0:0:0:
180,122,28577,2,0,P|151:109|120:101,1,65,2|0,0:0|0:0,0:0:0:0:
77,107,28998,1,2,0:0:0:0:
112,184,29278,6,0,L|99:313,1,130,2|8,0:0|0:0,0:0:0:0:
179,340,30120,2,0,L|182:372,2,32.5,0|2|0,0:0|0:0|0:0,0:0:0:0:
225,269,30680,1,2,0:0:0:0:
225,269,30820,2,0,P|243:295|270:313,1,65,0|0,0:0|0:0,0:0:0:0:
312,323,31241,2,0,L|344:326,1,32.5,2|2,0:0|0:0,0:0:0:0:
383,310,31521,6,0,P|401:283|428:265,1,65,0|2,0:0|0:0,0:0:0:0:
467,247,31942,1,2,0:0:0:0:
501,272,32082,2,0,L|503:312,2,32.5,8|0|2,0:0|0:0|0:0,0:0:0:0:
467,247,32503,1,0,0:0:0:0:
461,205,32643,2,0,L|459:172,1,32.5,2|2,0:0|0:0,0:0:0:0:
457,130,32923,1,0,0:0:0:0:
457,130,33063,2,0,P|447:100|424:77,1,65,2|2,0:0|0:0,0:0:0:0:
384,62,33484,1,2,0:0:0:0:
307,97,33764,6,0,P|272:106|240:107,1,65,0|2,0:0|0:0,0:0:0:0:
201,102,34185,1,2,0:0:0:0:
201,102,34325,2,0,L|146:108,1,32.5,8|2,0:0|0:0,0:0:0:0:
127,112,34605,1,0,0:0:0:0:
86,186,34886,2,0,L|150:194,1,65,2|2,0:0|0:0,0:0:0:0:
189,211,35306,2,0,L|216:238,1,32.5,0|2,0:0|0:0,0:0:0:0:
232,316,35727,1,0,0:0:0:0:
308,351,36007,6,0,P|352:355|444:326,1,130,4|8,0:0|0:0,0:0:0:0:
457,250,36848,2,0,L|454:163,1,65,2|0,0:0|0:0,0:0:0:0:
499,113,37409,1,2,0:0:0:0:
421,77,37690,2,0,P|390:82|361:97,1,65,2|0,0:0|0:0,0:0:0:0:
331,127,38110,1,2,0:0:0:0:
331,127,38250,6,0,L|337:256,1,130,4|8,0:0|0:0,0:0:0:0:
281,320,39091,2,0,B|261:298|261:298|252:263,1,65,2|0,0:0|0:0,0:0:0:0:
246,179,39652,1,2,0:0:0:0:
163,161,39933,2,0,L|88:176,1,65,0|2,0:0|0:0,0:0:0:0:
16,187,40493,6,0,L|25:79,1,97.5,4|2,0:0|0:0,0:0:0:0:
31,48,41054,2,0,P|60:60|93:63,1,65,8|2,0:0|0:0,0:0:0:0:
168,103,41615,2,0,P|197:90|230:87,1,65,0|2,0:0|0:0,0:0:0:0:
268,106,42035,1,2,0:0:0:0:
268,106,42176,2,0,P|280:135|283:168,1,65,0|2,0:0|0:0,0:0:0:0:
219,223,42736,6,0,P|275:252|335:232,1,130,4|8,0:0|0:0,0:0:0:0:
408,189,43577,2,0,L|413:253,1,65,2|0,0:0|0:0,0:0:0:0:
463,323,44138,1,2,0:0:0:0:
385,356,44419,2,0,B|341:351|341:351|322:341,1,65,0|2,0:0|0:0,0:0:0:0:
298,307,44839,1,2,0:0:0:0:
298,307,44979,6,0,L|208:314,1,65,4|2,0:0|0:0,0:0:0:0:
192,323,45400,2,0,L|150:350,1,32.5,2|8,0:0|0:0,0:0:0:0:
123,334,45680,2,0,L|96:292,1,32.5,2|0,0:0|0:0,0:0:0:0:
45,246,46101,2,0,P|71:228|103:223,1,65,2|2,0:0|0:0,0:0:0:0:
145,229,46521,2,0,L|131:140,1,65,2|0,0:0|0:0,0:0:0:0:
127,123,46942,1,2,0:0:0:0:
77,54,47222,6,0,B|106:42|106:42|139:40,1,65,4|2,0:0|0:0,0:0:0:0:
180,53,47643,1,2,0:0:0:0:
180,53,47783,2,0,L|206:93,1,32.5,8|0,0:0|0:0,0:0:0:0:
220,116,48063,1,2,0:0:0:0:
245,196,48344,1,0,0:0:0:0:
222,277,48624,2,0,L|188:311,1,32.5,2|2,0:0|0:0,0:0:0:0:
180,338,48905,2,0,P|212:342|242:354,1,65,0|0,0:0|0:0,0:0:0:0:
284,353,49325,1,2,0:0:0:0:
284,353,49465,6,0,P|307:329|325:302,1,65,4|2,0:0|0:0,0:0:0:0:
341,264,49886,2,0,L|344:231,1,32.5,2|8,0:0|0:0,0:0:0:0:
420,194,50306,2,0,L|416:161,1,32.5,0|2,0:0|0:0,0:0:0:0:
397,124,50587,2,0,P|429:122|458:109,1,65,2|0,0:0|0:0,0:0:0:0:
483,75,51007,2,0,L|460:52,1,32.5,2|0,0:0|0:0,0:0:0:0:
382,19,51428,1,2,0:0:0:0:
308,60,51708,6,0,L|216:69,1,65,4|2,0:0|0:0,0:0:0:0:
203,53,52129,1,2,0:0:0:0:
203,53,52269,2,0,P|190:82|165:102,1,65,8|2,0:0|0:0,0:0:0:0:
90,143,52830,2,0,L|85:192,1,32.5,8|8,0:3|0:3,0:0:0:0:
112,209,53110,2,0,L|117:258,1,32.5,4|4,0:3|0:3,0:0:0:0:
149,267,53391,1,8,0:3:0:0:
208,327,53671,1,8,0:3:0:0:
232,246,53951,5,4,0:0:0:0:
232,246,62923,6,0,L|265:127,1,97.5,4|2,0:0|0:0,0:0:0:0:
289,123,63484,2,0,L|362:172,1,65,8|2,0:0|0:0,0:0:0:0:
419,125,64045,2,0,P|424:157|422:189,1,65,0|2,0:0|0:0,0:0:0:0:
412,231,64465,1,2,0:0:0:0:
412,231,64605,2,0,L|414:263,1,32.5,8|2,0:0|0:0,0:0:0:0:
441,297,64886,1,0,0:0:0:0:
372,346,65166,6,0,L|283:335,1,65,0|2,0:0|0:0,0:0:0:0:
285,302,65587,1,2,0:0:0:0:
285,302,65727,2,0,L|220:309,1,65,8|2,0:0|0:0,0:0:0:0:
137,329,66288,2,0,P|105:333|73:330,1,65,0|2,0:0|0:0,0:0:0:0:
90,248,66848,2,0,P|76:218|68:187,1,65,10|0,0:0|0:0,0:0:0:0:
63,145,67269,1,2,0:0:0:0:
63,145,67409,6,0,P|97:178|144:190,1,97.5,0|2,0:0|0:0,0:0:0:0:
185,179,67970,2,0,P|203:144|209:114,1,65,8|0,0:0|0:0,0:0:0:0:
205,35,68531,2,0,L|269:38,1,65,2|2,0:0|0:0,0:0:0:0:
310,28,68951,1,2,0:0:0:0:
310,28,69091,2,0,L|320:79,1,32.5,8|2,0:0|0:0,0:0:0:0:
347,89,69372,2,0,L|340:120,1,32.5,2|2,0:0|0:0,0:0:0:0:
319,157,69652,6,0,L|328:209,3,32.5,8|2|2|2,0:0|0:0|0:0|0:0,0:0:0:0:
364,205,70213,2,0,L|373:257,3,32.5,10|2|2|2,0:0|0:0|0:0|0:0,0:0:0:0:
409,253,70774,2,0,L|418:305,3,32.5,8|2|2|0,0:0|0:0|0:0|0:0,0:0:0:0:
443,316,71334,1,8,0:0:0:0:
443,316,71615,1,4,0:3:0:0:
367,354,71895,6,0,P|303:349|228:309,1,143.000004364014,6|8,0:0|0:0,0:0:0:0:
205,225,72736,1,2,0:0:0:0:
113,238,73017,2,0,P|77:237|42:231,1,71.5000021820069,2|0,0:0|0:0,0:0:0:0:
51,139,73577,2,0,P|51:103|57:68,1,71.5000021820069,8|0,0:0|0:0,0:0:0:0:
140,112,74138,6,0,L|299:133,1,143.000004364014,2|8,0:0|0:0,0:0:0:0:
362,84,74979,1,2,0:0:0:0:
445,124,75260,2,0,L|463:204,1,71.5000021820069,2|0,0:0|0:0,0:0:0:0:
450,286,75820,1,8,0:0:0:0:
360,261,76101,1,0,0:0:0:0:
287,318,76381,6,0,P|267:251|299:189,1,143.000004364014,2|8,0:0|0:0,0:0:0:0:
374,134,77222,1,2,0:0:0:0:
328,53,77503,2,0,P|286:46|233:45,1,71.5000021820069,2|0,0:0|0:0,0:0:0:0:
192,110,78063,2,0,P|150:116|97:118,1,71.5000021820069,8|0,0:0|0:0,0:0:0:0:
50,58,78624,6,0,L|96:209,1,143.000004364014,2|8,0:0|0:0,0:0:0:0:
61,283,79465,1,2,0:0:0:0:
153,280,79746,2,0,P|189:284|221:299,1,71.5000021820069,2|0,0:0|0:0,0:0:0:0:
290,362,80306,1,8,0:0:0:0:
375,324,80587,1,0,0:0:0:0:
438,256,80867,6,0,B|469:176|469:176|450:153|420:146,1,143.000004364014,2|8,0:0|0:0,0:0:0:0:
331,172,81708,1,2,0:0:0:0:
356,82,81989,2,0,P|346:47|325:18,1,71.5000021820069,2|0,0:0|0:0,0:0:0:0:
241,57,82549,2,0,P|209:39|174:33,1,71.5000021820069,8|0,0:0|0:0,0:0:0:0:
84,53,83110,6,0,B|53:75|43:110|43:110|84:123|92:157,1,143.000004364014,2|8,0:0|0:0,0:0:0:0:
69,247,83951,1,2,0:0:0:0:
126,321,84232,2,0,L|224:344,1,71.5000021820069,2|0,0:0|0:0,0:0:0:0:
273,286,84792,2,0,P|308:283|341:270,1,71.5000021820069,8|0,0:0|0:0,0:0:0:0:
429,303,85353,6,0,P|451:240|450:160,1,143.000004364014,2|8,0:0|0:0,0:0:0:0:
418,77,86194,1,2,0:0:0:0:
342,130,86475,2,0,P|334:165|332:201,1,71.5000021820069,2|0,0:0|0:0,0:0:0:0:
342,294,87035,1,8,0:0:0:0:
264,345,87316,1,0,0:0:0:0:
188,292,87596,6,0,B|154:275|113:278|113:278|88:256|82:220,1,143.000004364014,2|8,0:0|0:0,0:0:0:0:
72,129,88437,1,2,0:0:0:0:
144,70,88718,2,0,L|184:63,3,35.7500010910034,4|4|4|4,0:3|0:3|0:3|0:3,0:0:0:0:
219,88,89278,2,0,L|259:81,3,35.7500010910034,8|8|8|8,0:3|0:3|0:3|0:3,0:0:0:0:
295,59,89839,6,0,P|338:53|439:95,1,143.000004364014,6|8,0:0|0:0,0:0:0:0:
465,173,90680,1,2,0:0:0:0:
403,243,90961,2,0,L|419:343,1,71.5000021820069,2|0,0:0|0:0,0:0:0:0:
329,351,91521,2,0,L|317:280,1,71.5000021820069,8|0,0:0|0:0,0:0:0:0:
301,189,92082,6,0,B|271:193|234:222|227:261|227:261|197:244,1,143.000004364014,2|8,0:0|0:0,0:0:0:0:
143,169,92923,1,2,0:0:0:0:
107,254,93204,2,0,P|79:277|46:290,1,71.5000021820069,2|0,0:0|0:0,0:0:0:0:
36,198,93764,1,8,0:0:0:0:
63,109,94045,1,0,0:0:0:0:
146,70,94325,6,0,P|218:63|289:68,1,143.000004364014,2|8,0:0|0:0,0:0:0:0:
372,110,95166,1,2,0:0:0:0:
292,158,95447,2,0,P|257:150|221:150,1,71.5000021820069,2|0,0:0|0:0,0:0:0:0:
138,109,96007,2,0,P|120:140|108:173,1,71.5000021820069,8|0,0:0|0:0,0:0:0:0:
42,239,96568,6,0,P|95:288|160:315,1,143.000004364014,2|8,0:0|0:0,0:0:0:0:
254,320,97409,1,2,0:0:0:0:
332,269,97690,1,2,0:0:0:0:
396,336,97970,1,0,0:0:0:0:
434,251,98250,2,0,L|428:160,1,71.5000021820069,8|0,0:0|0:0,0:0:0:0:
460,92,98811,6,0,B|427:84|394:96|394:96|357:107|319:97,1,143.000004364014,2|8,0:0|0:0,0:0:0:0:
236,54,99652,1,2,0:0:0:0:
168,118,99933,2,0,L|82:128,1,71.5000021820069,2|0,0:0|0:0,0:0:0:0:
36,196,100493,1,8,0:0:0:0:
175,319,101054,6,0,L|334:334,1,143.000004364014,2|8,0:0|0:0,0:0:0:0:
403,295,101895,1,2,0:0:0:0:
434,207,102176,1,2,0:0:0:0:
342,220,102456,1,0,0:0:0:0:
249,217,102736,2,0,L|161:210,1,71.5000021820069,8|0,0:0|0:0,0:0:0:0:
91,245,103297,6,0,B|88:194|88:194|127:111,1,143.000004364014,2|8,0:0|0:0,0:0:0:0:
129,18,104138,1,2,0:0:0:0:
216,47,104419,2,0,P|241:73|256:105,1,71.5000021820069,2|0,0:0|0:0,0:0:0:0:
267,197,104979,1,8,0:0:0:0:
447,150,105540,6,0,B|480:164|502:194|502:194|486:224|450:242,1,143.000004364014,2|8,0:0|0:0,0:0:0:0:
358,234,106381,1,2,0:0:0:0:
328,322,106662,2,0,L|284:335,3,35.7500010910034,4|4|4|4,0:3|0:3|0:3|0:3,0:0:0:0:
253,310,107222,2,0,L|209:297,3,35.7500010910034,8|8|8|8,0:3|0:3|0:3|0:3,0:0:0:0:
184,274,107783,6,0,P|147:325|85:339,1,130,4|8,0:0|0:0,0:0:0:0:
10,298,108624,1,2,0:0:0:0:
61,230,108905,2,0,L|79:101,1,130,2|8,0:0|0:0,0:0:0:0:
73,17,109746,1,0,0:0:0:0:
151,49,110026,6,0,P|182:56|214:56,1,65,2|0,0:0|0:0,0:0:0:0:
292,21,110587,1,8,0:0:0:0:
364,65,110867,1,2,0:0:0:0:
328,142,111148,2,0,P|265:160|200:165,1,130,2|8,0:0|0:0,0:0:0:0:
119,143,111989,1,0,0:0:0:0:
60,204,112269,6,0,P|60:266|110:303,1,130,2|8,0:0|0:0,0:0:0:0:
193,282,113110,1,2,0:0:0:0:
263,330,113391,2,0,B|293:344|327:332|327:332|363:340|388:322,1,130,2|8,0:0|0:0,0:0:0:0:
457,272,114232,1,0,0:0:0:0:
422,195,114512,6,0,P|389:193|359:204,1,65,2|0,0:0|0:0,0:0:0:0:
290,253,115073,1,8,0:0:0:0:
232,192,115353,1,2,0:0:0:0:
300,141,115634,2,0,P|359:116|423:110,1,130,2|8,0:0|0:0,0:0:0:0:
492,60,116475,1,0,0:0:0:0:
421,14,116755,6,0,L|341:24,1,65,2|0,0:0|0:0,0:0:0:0:
279,57,117316,1,8,0:0:0:0:
196,41,117596,1,2,0:0:0:0:
144,108,117877,2,0,L|125:243,1,130,2|8,0:0|0:0,0:0:0:0:
64,295,118718,1,0,0:0:0:0:
134,342,118998,6,0,P|198:350|262:339,1,130,2|8,0:0|0:0,0:0:0:0:
322,279,119839,1,2,0:0:0:0:
372,347,120120,2,0,P|392:321|403:291,1,65,2|0,0:0|0:0,0:0:0:0:
394,208,120680,1,8,0:0:0:0:
432,132,120961,1,0,0:0:0:0:
355,97,121241,6,0,B|311:100|311:100|272:86|272:86|229:100,1,130,2|8,0:0|0:0,0:0:0:0:
154,138,122082,1,2,0:0:0:0:
226,182,122362,2,0,P|255:238|246:301,1,130,2|8,0:0|0:0,0:0:0:0:
193,368,123204,1,0,0:0:0:0:
109,358,123484,6,0,P|79:301|88:238,1,130,2|8,0:0|0:0,0:0:0:0:
112,157,124325,1,2,0:0:0:0:
184,201,124605,2,0,L|235:222,3,32.5,2|2|2|2,0:0|0:0|0:0|0:0,0:0:0:0:
255,201,125166,2,0,L|310:203,3,32.5,8|8|8|8,0:3|0:3|0:3|0:3,0:0:0:0:
327,187,125727,5,6,0:0:0:0:
327,187,125867,2,0,L|371:171,1,32.5,0|2,0:0|0:0,0:0:0:0:
397,160,126148,1,2,0:0:0:0:
397,160,126288,2,0,P|414:187|420:219,1,65,0|0,0:0|0:0,0:0:0:0:
401,301,126848,2,0,L|370:331,1,32.5,2|2,0:0|0:0,0:0:0:0:
336,316,127129,2,0,L|290:329,1,32.5,0|0,0:0|0:0,0:0:0:0:
266,308,127409,2,0,P|230:303|189:313,1,65,2|2,0:0|0:0,0:0:0:0:
162,323,127830,1,2,0:0:0:0:
162,323,127970,6,0,L|130:314,1,32.5,2|0,0:0|0:0,0:0:0:0:
89,322,128251,2,0,L|65:299,1,32.5,2|2,0:0|0:0,0:0:0:0:
36,268,128531,2,0,P|27:233|28:200,1,65,0|0,0:0|0:0,0:0:0:0:
53,124,129091,1,2,0:0:0:0:
53,124,129232,2,0,L|97:119,1,32.5,2|0,0:0|0:0,0:0:0:0:
119,95,129512,1,0,0:0:0:0:
119,95,129652,2,0,B|146:89|146:89|183:91,1,65,2|2,0:0|0:0,0:0:0:0:
218,114,130073,1,2,0:0:0:0:
218,114,130213,6,0,P|240:91|268:75,1,65,0|2,0:0|0:0,0:0:0:0:
311,71,130634,1,0,0:0:0:0:
311,71,130774,2,0,P|339:85|371:89,1,65,2|2,0:0|0:0,0:0:0:0:
413,79,131194,1,2,0:0:0:0:
413,79,131334,2,0,L|428:155,1,65,0|0,0:0|0:0,0:0:0:0:
392,169,131755,2,0,L|377:245,1,65,2|2,0:0|0:0,0:0:0:0:
395,272,132176,2,0,L|426:280,1,32.5,2|0,0:0|0:0,0:0:0:0:
459,307,132456,6,0,L|487:290,2,32.5,2|2|0,0:0|0:0|0:0,0:0:0:0:
444,346,132877,1,2,0:0:0:0:
444,346,133017,2,0,L|394:354,1,32.5,0|0,0:0|0:0,0:0:0:0:
371,339,133297,2,0,L|321:347,1,32.5,2|2,0:0|0:0,0:0:0:0:
303,321,133577,2,0,L|295:271,2,32.5,2|2|0,0:0|0:0|0:0,0:0:0:0:
271,349,133998,1,2,0:0:0:0:
271,349,134138,2,0,P|238:353|203:346,1,65,8|2,0:0|0:0,0:0:0:0:
174,320,134559,1,2,0:0:0:0:
174,320,134699,6,0,P|140:316|105:323,1,65,4|2,0:0|0:0,0:0:0:0:
67,322,135120,2,0,L|51:288,1,32.5,2|8,0:0|0:0,0:0:0:0:
69,210,135540,2,0,L|72:168,1,32.5,0|0,0:0|0:0,0:0:0:0:
64,136,135820,2,0,P|95:127|127:127,1,65,2|2,0:0|0:0,0:0:0:0:
164,149,136241,1,2,0:0:0:0:
164,149,136381,2,0,P|189:128|209:103,1,65,8|2,0:0|0:0,0:0:0:0:
223,63,136802,1,0,0:0:0:0:
223,63,136942,6,0,L|261:59,3,32.5,2|2|0|2,0:0|0:0|0:0|0:0,0:0:0:0:
296,72,137503,2,0,L|334:68,3,32.5,8|0|2|2,0:0|0:0|0:0|0:0,0:0:0:0:
369,77,138063,2,0,P|406:93|428:109,1,65,0|2,0:0|0:0,0:0:0:0:
435,148,138484,1,2,0:0:0:0:
435,148,138624,2,0,L|416:188,1,32.5,8|2,0:0|0:0,0:0:0:0:
430,219,138905,2,0,L|385:251,1,32.5,2|2,0:0|0:0,0:0:0:0:
362,245,139185,6,0,P|325:229|303:213,1,65,4|2,0:0|0:0,0:0:0:0:
250,150,139746,2,0,L|255:113,2,32.5,8|0|2,0:0|0:0|0:0,0:0:0:0:
225,184,140166,1,2,0:0:0:0:
225,184,140306,2,0,B|185:194|185:194|161:192,1,65,0|2,0:0|0:0,0:0:0:0:
121,178,140727,1,2,0:0:0:0:
121,178,140867,2,0,P|90:184|61:198,1,65,8|2,0:0|0:0,0:0:0:0:
37,280,141428,6,0,L|59:304,3,32.5,0|0|2|2,0:0|0:0|0:0|0:0,0:0:0:0:
100,315,141989,1,8,0:0:0:0:
100,315,142129,2,0,L|136:308,1,32.5,0|2,0:0|0:0,0:0:0:0:
166,284,142409,1,2,0:0:0:0:
166,284,142549,2,0,L|183:248,1,32.5,8|8,0:3|0:3,0:0:0:0:
212,227,142830,2,0,L|250:216,1,32.5,4|4,0:3|0:3,0:0:0:0:
285,226,143110,1,8,0:3:0:0:
350,280,143391,1,8,0:3:0:0:
421,234,143671,5,4,0:0:0:0:
455,161,152643,6,0,P|415:186|367:192,1,97.5,4|2,0:0|0:0,0:0:0:0:
324,186,153204,2,0,P|296:171|273:149,1,65,8|2,0:0|0:0,0:0:0:0:
253,67,153764,2,0,L|186:59,1,65,0|2,0:0|0:0,0:0:0:0:
105,75,154325,2,0,L|69:96,1,32.5,8|2,0:0|0:0,0:0:0:0:
50,124,154605,1,0,0:0:0:0:
37,208,154886,6,0,P|53:235|79:255,1,65,0|2,0:0|0:0,0:0:0:0:
120,266,155306,1,2,0:0:0:0:
120,266,155447,2,0,L|179:201,1,65,8|2,0:0|0:0,0:0:0:0:
237,260,156007,2,0,L|294:229,1,65,0|2,0:0|0:0,0:0:0:0:
378,215,156568,2,0,P|410:217|440:229,1,65,10|0,0:0|0:0,0:0:0:0:
458,268,156989,1,2,0:0:0:0:
458,268,157129,6,0,P|432:308|389:330,1,97.5,0|0,0:0|0:0,0:0:0:0:
347,321,157690,2,0,B|322:314|322:314|283:311,1,65,8|0,0:0|0:0,0:0:0:0:
204,282,158250,2,0,L|140:296,1,65,2|2,0:0|0:0,0:0:0:0:
104,318,158671,1,2,0:0:0:0:
104,318,158811,2,0,P|90:288|70:263,1,65,8|2,0:0|0:0,0:0:0:0:
34,240,159232,1,2,0:0:0:0:
34,240,159372,6,0,L|29:207,3,32.5,8|2|2|2,0:0|0:0|0:0|0:0,0:0:0:0:
56,175,159933,2,0,L|58:141,3,32.5,10|2|2|2,0:0|0:0|0:0|0:0,0:0:0:0:
87,112,160493,2,0,L|93:87,8,16.25,10|2|2|2|2|2|2|2|10,0:0|0:0|0:0|0:0|0:0|0:0|0:0|0:0|0:0,0:0:0:0:
220,242,161615,6,0,P|314:258|368:246,1,143.000004364014,6|8,0:0|0:0,0:0:0:0:
437,197,162456,1,2,0:0:0:0:
434,103,162736,2,0,P|420:70|398:42,1,71.5000021820069,2|0,0:0|0:0,0:0:0:0:
309,67,163297,2,0,L|227:73,1,71.5000021820069,8|0,0:0|0:0,0:0:0:0:
147,50,163858,6,0,B|113:67|101:104|101:104|125:180,1,143.000004364014,2|8,0:0|0:0,0:0:0:0:
71,249,164699,1,2,0:0:0:0:
136,315,164979,2,0,L|203:339,1,71.5000021820069,2|0,0:0|0:0,0:0:0:0:
296,331,165540,1,8,0:0:0:0:
261,245,165820,1,0,0:0:0:0:
191,183,166101,6,0,B|180:143|188:110|188:110|217:87|249:77,1,143.000004364014,2|8,0:0|0:0,0:0:0:0:
328,127,166942,1,2,0:0:0:0:
412,88,167222,2,0,L|449:22,1,71.5000021820069,2|0,0:0|0:0,0:0:0:0:
508,96,167783,2,0,L|471:162,1,71.5000021820069,8|0,0:0|0:0,0:0:0:0:
389,200,168344,6,0,P|440:248|435:317,1,143.000004364014,2|8,0:0|0:0,0:0:0:0:
359,371,169185,1,2,0:0:0:0:
292,307,169465,2,0,P|257:297|221:295,1,71.5000021820069,2|0,0:0|0:0,0:0:0:0:
140,340,170026,1,8,0:0:0:0:
51,313,170306,1,0,0:0:0:0:
117,247,170587,6,0,P|166:196|235:181,1,143.000004364014,2|8,0:0|0:0,0:0:0:0:
327,198,171428,1,2,0:0:0:0:
403,251,171708,2,0,P|435:264|471:267,1,71.5000021820069,2|0,0:0|0:0,0:0:0:0:
458,175,172269,2,0,P|479:146|491:113,1,71.5000021820069,8|0,0:0|0:0,0:0:0:0:
413,62,172830,6,0,B|374:44|374:44|275:37,1,143.000004364014,2|8,0:0|0:0,0:0:0:0:
194,84,173671,1,2,0:0:0:0:
104,61,173951,2,0,B|66:58|66:58|34:67,1,71.5000021820069,2|0,0:0|0:0,0:0:0:0:
74,150,174512,2,0,L|84:229,1,71.5000021820069,8|0,0:0|0:0,0:0:0:0:
6,274,175073,6,0,P|65:313|133:300,1,143.000004364014,2|8,0:0|0:0,0:0:0:0:
176,217,175914,1,2,0:0:0:0:
261,254,176194,2,0,L|289:327,1,71.5000021820069,2|0,0:0|0:0,0:0:0:0:
368,366,176755,1,8,0:0:0:0:
408,282,177035,1,0,0:0:0:0:
474,216,177316,6,0,B|438:185|396:189|396:189|359:193|338:183,1,143.000004364014,2|8,0:0|0:0,0:0:0:0:
375,97,178157,1,2,0:0:0:0:
293,52,178437,2,0,L|243:56,3,35.7500010910034,4|4|4|4,0:3|0:3|0:3|0:3,0:0:0:0:
221,84,178998,2,0,L|171:80,3,35.7500010910034,8|8|8|8,0:3|0:3|0:3|0:3,0:0:0:0:
148,53,179559,6,0,P|126:119|152:184,1,143.000004364014,6|8,0:0|0:0,0:0:0:0:
242,213,180400,1,2,0:0:0:0:
170,272,180680,2,0,P|119:265|95:255,1,71.5000021820069,2|0,0:0|0:0,0:0:0:0:
7,250,181241,2,0,L|29:322,1,71.5000021820069,8|0,0:0|0:0,0:0:0:0:
110,360,181802,6,0,P|182:360|251:344,1,143.000004364014,2|8,0:0|0:0,0:0:0:0:
303,266,182643,1,2,0:0:0:0:
211,248,182923,2,0,P|175:254|140:254,1,71.5000021820069,2|0,0:0|0:0,0:0:0:0:
59,208,183484,1,8,0:0:0:0:
76,117,183764,1,0,0:0:0:0:
156,165,184045,6,0,B|217:159|254:138|254:138|262:98,1,143.000004364014,2|8,0:0|0:0,0:0:0:0:
201,28,184886,1,2,0:0:0:0:
292,18,185166,2,0,P|328:19|362:31,1,71.5000021820069,2|0,0:0|0:0,0:0:0:0:
382,122,185727,2,0,P|406:147|421:180,1,71.5000021820069,8|0,0:0|0:0,0:0:0:0:
486,247,186288,6,0,P|418:227|349:245,1,143.000004364014,2|8,0:0|0:0,0:0:0:0:
281,308,187129,1,2,0:0:0:0:
196,346,187409,1,2,0:0:0:0:
204,253,187690,1,0,0:0:0:0:
119,291,187970,2,0,P|78:291|49:285,1,71.5000021820069,8|0,0:0|0:0,0:0:0:0:
94,204,188531,6,0,B|87:156|87:156|109:54,1,143.000004364014,2|8,0:0|0:0,0:0:0:0:
190,22,189372,1,2,0:0:0:0:
216,111,189652,2,0,P|227:144|250:172,1,71.5000021820069,2|0,0:0|0:0,0:0:0:0:
338,199,190213,1,8,0:0:0:0:
492,94,190774,6,0,L|340:81,1,143.000004364014,2|8,0:0|0:0,0:0:0:0:
268,36,191615,1,2,0:0:0:0:
189,85,191895,1,2,0:0:0:0:
248,157,192176,1,0,0:0:0:0:
157,176,192456,2,0,P|124:190|100:216,1,71.5000021820069,8|0,0:0|0:0,0:0:0:0:
11,248,193017,6,0,P|56:300|125:306,1,143.000004364014,2|8,0:0|0:0,0:0:0:0:
211,269,193858,1,2,0:0:0:0:
286,324,194138,2,0,L|369:330,1,71.5000021820069,2|0,0:0|0:0,0:0:0:0:
450,337,194699,1,8,0:0:0:0:
469,152,195260,6,0,B|440:147|416:158|416:158|375:143|328:156,1,143.000004364014,2|8,0:0|0:0,0:0:0:0:
245,197,196101,1,2,0:0:0:0:
168,144,196381,2,0,L|127:165,3,35.7500010910034,4|4|4|4,0:3|0:3|0:3|0:3,0:0:0:0:
110,199,196942,2,0,L|131:240,3,35.7500010910034,8|8|8|8,0:3|0:3|0:3|0:3,0:0:0:0:
150,266,197503,5,4,0:0:0:0:
196,313,206475,6,0,L|346:325,1,130,4|0,0:0|0:0,0:0:0:0:
392,271,207316,2,0,L|402:224,1,32.5,0|0,0:0|0:0,0:0:0:0:
377,203,207596,2,0,P|409:199|441:184,1,65,8|0,0:0|0:0,0:0:0:0:
460,150,208017,2,0,P|456:117|441:85,1,65,0|0,0:0|0:0,0:0:0:0:
410,62,208437,1,2,0:0:0:0:
332,97,208718,6,0,P|269:105|204:97,1,130
128,58,209559,2,0,L|98:70,1,32.5,0|0,0:0|0:0,0:0:0:0:
56,69,209839,2,0,L|69:149,1,65,8|0,0:0|0:0,0:0:0:0:
104,153,210260,2,0,L|117:233,1,65,0|0,0:0|0:0,0:0:0:0:
150,239,210680,2,0,L|180:228,1,32.5,8|8,0:0|0:0,0:0:0:0:
220,212,210961,6,0,B|259:209|285:222|285:222|326:222|347:210,1,130,2|0,0:0|0:0,0:0:0:0:
407,151,211802,1,2,0:0:0:0:
481,189,212082,1,8,0:0:0:0:
481,189,213484,5,8,0:3:0:0:
432,258,213764,1,8,0:3:0:0:
370,200,214045,1,8,0:3:0:0:
419,131,214325,1,8,0:3:0:0:
353,78,214605,1,8,0:3:0:0:
304,147,214886,2,0,L|257:156,1,32.5,4|4,0:3|0:3,0:0:0:0:
230,154,215166,2,0,L|183:145,1,32.5,8|8,0:3|0:3,0:0:0:0:
168,112,215447,6,0,P|117:111|39:174,1,143.000004364014,6|8,0:0|0:0,0:0:0:0:
32,255,216288,1,2,0:0:0:0:
110,303,216568,2,0,P|146:304|180:295,1,71.5000021820069,2|0,0:0|0:0,0:0:0:0:
268,329,217129,2,0,P|303:328|337:337,1,71.5000021820069,8|0,0:0|0:0,0:0:0:0:
431,332,217690,6,0,L|443:189,1,143.000004364014,2|8,0:0|0:0,0:0:0:0:
484,106,218531,1,2,0:0:0:0:
396,77,218811,2,0,P|362:75|319:81,1,71.5000021820069,2|0,0:0|0:0,0:0:0:0:
270,155,219372,1,8,0:0:0:0:
362,166,219652,1,0,0:0:0:0:
300,234,219933,6,0,P|230:231|187:177,1,143.000004364014,2|8,0:0|0:0,0:0:0:0:
193,84,220774,1,2,0:0:0:0:
108,46,221054,2,0,L|15:33,1,71.5000021820069,2|0,0:0|0:0,0:0:0:0:
33,129,221615,2,0,L|126:142,1,71.5000021820069,8|0,0:0|0:0,0:0:0:0:
165,208,222176,6,0,P|101:238|75:304,1,143.000004364014,2|8,0:0|0:0,0:0:0:0:
168,303,223017,1,2,0:0:0:0:
236,365,223297,2,0,L|306:356,1,71.5000021820069,2|0,0:0|0:0,0:0:0:0:
367,285,223858,1,8,0:0:0:0:
457,309,224138,1,0,0:0:0:0:
436,218,224419,6,0,B|433:172|457:146|457:146|453:116|428:87,1,143.000004364014,2|8,0:0|0:0,0:0:0:0:
346,44,225260,1,2,0:0:0:0:
272,100,225540,2,0,L|288:180,1,71.5000021820069,2|0,0:0|0:0,0:0:0:0:
214,229,226101,2,0,L|230:309,1,71.5000021820069,8|0,0:0|0:0,0:0:0:0:
161,363,226662,6,0,P|97:338|83:270,1,143.000004364014,2|8,0:0|0:0,0:0:0:0:
129,190,227503,1,2,0:0:0:0:
45,150,227783,2,0,P|37:118|40:75,1,71.5000021820069,2|0,0:0|0:0,0:0:0:0:
121,36,228344,2,0,L|191:44,1,71.5000021820069,8|0,0:0|0:0,0:0:0:0:
284,30,228905,6,0,B|261:64|261:64|276:164,1,143.000004364014,2|8,0:0|0:0,0:0:0:0:
357,210,229746,1,2,0:0:0:0:
435,159,230026,2,0,B|441:124|441:124|435:88,1,71.5000021820069,2|0,0:0|0:0,0:0:0:0:
365,28,230587,1,8,0:0:0:0:
183,68,231148,6,0,P|148:75|112:76,1,71.5000021820069,2|0,0:0|0:0,0:0:0:0:
149,161,231708,2,0,P|129:191|105:216,1,71.5000021820069,8|2,0:0|0:0,0:0:0:0:
192,250,232269,2,0,P|199:284|200:320,1,71.5000021820069,4|4,0:3|0:3,0:0:0:0:
111,295,232830,1,8,0:3:0:0:
296,276,233391,6,0,L|439:262,1,143.000004364014,6|8,0:0|0:0,0:0:0:0:
492,186,234232,1,2,0:0:0:0:
418,130,234512,2,0,L|339:139,1,71.5000021820069,2|0,0:0|0:0,0:0:0:0:
262,177,235073,2,0,P|228:173|177:160,1,71.5000021820069,8|0,0:0|0:0,0:0:0:0:
204,72,235634,6,0,P|155:67|55:83,1,143.000004364014,2|8,0:0|0:0,0:0:0:0:
6,154,236475,1,2,0:0:0:0:
98,168,236755,2,0,L|109:247,1,71.5000021820069,2|0,0:0|0:0,0:0:0:0:
58,317,237316,1,8,0:0:0:0:
147,347,237596,1,0,0:0:0:0:
202,272,237877,6,0,B|245:278|245:278|292:312|292:312|332:318,1,143.000004364014,2|8,0:0|0:0,0:0:0:0:
421,348,238718,1,2,0:0:0:0:
484,280,238998,2,0,P|482:226|470:191,1,71.5000021820069,2|0,0:0|0:0,0:0:0:0:
385,218,239559,2,0,P|352:174|322:153,1,71.5000021820069,8|0,0:0|0:0,0:0:0:0:
252,198,240120,6,0,L|87:186,1,143.000004364014,2|8,0:0|0:0,0:0:0:0:
31,137,240961,1,2,0:0:0:0:
75,55,241241,1,2,0:0:0:0:
152,107,241521,1,0,0:0:0:0:
231,58,241802,2,0,L|310:49,1,71.5000021820069,8|0,0:0|0:0,0:0:0:0:
393,59,242362,6,0,P|439:113|440:183,1,143.000004364014,2|8,0:0|0:0,0:0:0:0:
400,268,243204,1,2,0:0:0:0:
318,224,243484,2,0,P|320:188|335:156,1,71.5000021820069,2|0,0:0|0:0,0:0:0:0:
296,72,244045,2,0,P|260:74|228:89,1,71.5000021820069,8|0,0:0|0:0,0:0:0:0:
191,175,244605,6,0,B|162:147|162:147|105:142|61:161,1,143.000004364014,2|8,0:0|0:0,0:0:0:0:
4,235,245447,1,2,0:0:0:0:
79,290,245727,1,2,0:0:0:0:
161,247,246007,1,0,0:0:0:0:
246,285,246288,2,0,P|277:301|303:325,1,71.5000021820069,8|0,0:0|0:0,0:0:0:0:
392,350,246848,6,0,P|391:279|361:214,1,143.000004364014,2|8,0:0|0:0,0:0:0:0:
280,168,247690,1,2,0:0:0:0:
361,123,247970,2,0,L|447:134,1,71.5000021820069,2|0,0:0|0:0,0:0:0:0:
407,42,248531,2,0,L|321:31,1,71.5000021820069,8|0,0:0|0:0,0:0:0:0:
249,65,249091,6,0,P|211:83|182:111,1,71.5000021820069,2|0,0:0|0:0,0:0:0:0:
132,176,249652,1,8,0:0:0:0:
48,135,249933,1,2,0:0:0:0:
22,224,250213,2,0,L|30:302,1,71.5000021820069,4|4,0:3|0:3,0:0:0:0:
114,334,250774,2,0,L|121:262,1,71.5000021820069,8|8,0:3|0:3,0:0:0:0:
191,215,251334,6,0,P|245:246|318:247,1,130,4|8,0:0|0:0,0:0:0:0:
381,200,252176,1,2,0:0:0:0:
465,210,252456,2,0,B|476:167|476:167|458:83,1,130,2|8,0:0|0:0,0:0:0:0:
387,38,253297,1,0,0:0:0:0:
331,101,253577,6,0,P|299:108|267:109,1,65,2|0,0:0|0:0,0:0:0:0:
191,72,254138,1,8,0:0:0:0:
137,137,254419,1,2,0:0:0:0:
211,177,254699,2,0,L|232:325,1,130,2|8,0:0|0:0,0:0:0:0:
301,351,255540,1,0,0:0:0:0:
383,330,255820,6,0,P|414:275|406:211,1,130,2|8,0:0|0:0,0:0:0:0:
344,154,256662,1,2,0:0:0:0:
293,221,256942,2,0,B|237:223|237:223|201:238|176:264,1,130,2|8,0:0|0:0,0:0:0:0:
140,341,257783,1,0,0:0:0:0:
70,291,258063,6,0,P|59:261|52:230,1,65,2|0,0:0|0:0,0:0:0:0:
65,146,258624,1,8,0:0:0:0:
116,78,258905,1,2,0:0:0:0:
178,135,259185,2,0,B|276:142|276:142|305:130,1,130,2|8,0:0|0:0,0:0:0:0:
353,60,260026,1,2,0:0:0:0:
432,89,260306,6,0,L|440:172,1,65,2|0,0:0|0:0,0:0:0:0:
496,216,260867,1,8,0:0:0:0:
414,238,261148,1,2,0:0:0:0:
355,177,261428,2,0,P|292:185|239:221,1,130,2|8,0:0|0:0,0:0:0:0:
208,301,262269,1,0,0:0:0:0:
133,339,262549,6,0,B|100:350|67:347|67:347|52:324|52:286,1,130,2|8,0:0|0:0,0:0:0:0:
83,207,263391,1,2,0:0:0:0:
33,138,263671,2,0,P|63:125|97:124,1,65,2|0,0:0|0:0,0:0:0:0:
173,160,264232,1,8,0:0:0:0:
238,106,264512,1,0,0:0:0:0:
310,64,264792,6,0,P|375:61|440:69,1,130,2|8,0:0|0:0,0:0:0:0:
507,122,265634,1,2,0:0:0:0:
449,183,265914,2,0,P|384:185|319:177,1,130,2|8,0:0|0:0,0:0:0:0:
239,152,266755,1,0,0:0:0:0:
175,97,267035,6,0,B|136:77|136:77|90:91|71:132,1,130,2|8,0:0|0:0,0:0:0:0:
49,213,267877,1,2,0:0:0:0:
119,259,268157,2,0,B|150:269|187:259|187:259|218:262|244:279,1,130,2|8,0:0|0:0,0:0:0:0:
399,346,269278,5,0,0:0:0:0:
