osu file format v14

[General]
AudioFilename: Spring Day.mp3
AudioLeadIn: 0
PreviewTime: 70774
Countdown: 0
SampleSet: Soft
StackLeniency: 0.7
Mode: 0
LetterboxInBreaks: 0
WidescreenStoryboard: 0

[Editor]
Bookmarks: 18063,53951,62923,125727,143671,152643,198624,206475
DistanceSpacing: 1.2
BeatDivisor: 2
GridSize: 4
TimelineZoom: 1

[Metadata]
Title:Spring Day
TitleUnicode:봄날
Artist:BTS
ArtistUnicode:방탄소년단
Creator:Cerulean Veyron
Version:Beginner
Source:
Tags:K-pop Kpop You Never Walk Alone BigHit Entertainment 빅히트엔터테인먼트 Bangtan Boys Rap Monster Jungkook Suga Jimin J-Hope V Jin 랩몬스터 진 슈가 제이홉 지민 뷔 정국 Extended Wings Trilogy Repackaged Edition Kawashiro
BeatmapID:1306489
BeatmapSetID:619854

[Difficulty]
HPDrainRate:2
CircleSize:3
OverallDifficulty:1
ApproachRate:3
SliderMultiplier:0.8
SliderTickRate:1

[Events]
//Background and Video events
0,0,"me-after-death.jpg.jpg",0,0
Video,-4757,"mv.avi"
//Break Periods
2,55073,61483
2,144792,151203
2,198624,205035
//Storyboard Layer 0 (Background)
//Storyboard Layer 1 (Fail)
//Storyboard Layer 2 (Pass)
//Storyboard Layer 3 (Foreground)
//Storyboard Sound Samples

[TimingPoints]
120,560.747663551402,4,2,1,60,1,0
53951,-100,4,2,1,50,0,0
71895,-100,4,2,2,80,0,1
89278,-100,4,2,1,70,0,0
89839,-100,4,2,2,80,0,1
106662,-100,4,2,1,80,0,1
107783,-100,4,2,2,70,0,0
124605,-100,4,2,1,70,0,0
125727,-100,4,2,1,60,0,0
143671,-100,4,2,1,50,0,0
161615,-100,4,2,2,80,0,1
178998,-100,4,2,2,70,0,0
179559,-100,4,2,2,80,0,1
196381,-100,4,2,1,80,0,1
197503,-100,4,2,1,50,0,0
213484,-100,4,2,1,70,0,0
215447,-100,4,2,2,80,0,1
232830,-100,4,2,2,80,0,0
233391,-100,4,2,2,80,0,1
250213,-100,4,2,1,80,0,1
251194,-100,4,2,2,80,0,0
251334,-100,4,2,2,80,0,1
251475,-100,4,2,2,70,0,0
268157,-100,4,2,1,70,0,0
268297,-100,4,2,2,70,0,0

[Colours]
Combo1 : 128,128,255
Combo2 : 255,128,128
Combo3 : 95,252,99
Combo4 : 255,104,32

[HitObjects]
256,192,13577,12,4,18063,0:0:0:0:
172,129,19185,6,0,L|264:115,1,80,0|0,0:0|0:0,0:0:0:0:
305,37,20306,2,0,P|346:141|261:214,1,240,0|0,0:0|0:0,0:0:0:0:
164,206,22549,5,0,0:0:0:0:
89,266,23110,2,0,B|82:308|82:308|86:345,2,80,8|0|0,0:0|0:0|0:0,0:0:0:0:
164,206,24792,2,0,B|225:191|263:249|263:249|302:304|372:287,1,240,2|2,0:0|0:0,0:0:0:0:
439,218,27035,5,4,0:0:0:0:
464,125,27596,2,0,P|461:85|451:46,2,80,8|0|0,0:0|0:0|0:0,0:0:0:0:
372,152,29278,1,2,0:0:0:0:
323,69,29839,2,0,P|288:48|250:34,2,80,8|0|0,0:0|0:0|0:0,0:0:0:0:
257,139,31521,6,0,B|190:104|140:100|140:100|105:126|77:196,1,240,0|0,0:0|0:0,0:0:0:0:
33,281,33764,2,0,P|71:290|110:283,1,80,0|8,0:0|0:0,0:0:0:0:
199,320,34886,2,0,P|237:311|276:318,1,80,2|2,0:0|0:0,0:0:0:0:
367,351,36007,6,0,B|404:247|404:247|401:197,1,160,4|0,0:0|0:0,0:0:0:0:
365,108,37690,1,2,0:0:0:0:
286,164,38250,2,0,P|208:160|147:111,1,160,4|0,0:0|0:0,0:0:0:0:
115,21,39933,1,0,0:0:0:0:
50,92,40493,6,0,L|42:183,2,80,4|8|0,0:0|0:0|0:0,0:0:0:0:
115,21,42176,1,0,0:0:0:0:
205,53,42736,2,0,B|282:70|282:70|369:70,1,160,4|0,0:0|0:0,0:0:0:0:
452,33,44419,1,0,0:0:0:0:
501,115,44979,6,0,P|503:154|500:194,1,80,4|8,0:0|0:0,0:0:0:0:
431,261,46101,2,0,P|391:263|351:260,1,80,2|0,0:0|0:0,0:0:0:0:
298,180,47222,2,0,P|244:123|166:116,1,160,4|0,0:0|0:0,0:0:0:0:
78,155,48905,1,0,0:0:0:0:
24,234,49465,6,0,L|38:327,1,80,4|8,0:0|0:0,0:0:0:0:
124,354,50587,2,0,L|135:274,1,80,2|0,0:0|0:0,0:0:0:0:
155,181,51708,2,0,P|221:141|294:252,1,240,4|8,0:0|0:3,0:0:0:0:
220,312,53951,5,4,0:0:0:0:
68,101,62923,6,0,P|154:109|226:149,1,160,4|0,0:0|0:0,0:0:0:0:
274,221,64605,1,8,0:0:0:0:
348,160,65166,2,0,P|362:122|384:89,2,80,0|8|0,0:0|0:0|0:0,0:0:0:0:
362,255,66848,1,10,0:0:0:0:
295,324,67409,6,0,B|217:346|217:346|138:337,1,160,0|2,0:0|0:0,0:0:0:0:
51,298,69091,1,8,0:0:0:0:
42,202,69652,2,0,B|22:141|45:98|45:98|95:116|95:116|136:111|169:89,1,240,8|8,0:0|0:0,0:0:0:0:
254,44,71895,6,0,P|321:44|348:50,2,80,6|8|2,0:0|0:0|0:0,0:0:0:0:
169,89,73577,1,8,0:0:0:0:
250,140,74138,2,0,B|290:178|290:178|316:280,1,160,2|2,0:0|0:0,0:0:0:0:
266,362,75820,1,8,0:0:0:0:
170,358,76381,6,0,P|128:356|88:345,1,80,2|8,0:0|0:0,0:0:0:0:
38,266,77503,2,0,P|47:227|49:187,1,80,2|8,0:0|0:0,0:0:0:0:
27,94,78624,2,0,P|104:113|192:97,1,160,2|2,0:0|0:0,0:0:0:0:
257,40,80306,1,8,0:0:0:0:
353,38,80867,6,0,B|411:32|411:32|432:37,2,80,2|8|2,0:0|0:0|0:0,0:0:0:0:
322,129,82549,1,8,0:0:0:0:
259,56,83110,2,0,L|93:44,1,160,2|2,0:0|0:0,0:0:0:0:
26,107,84792,1,8,0:0:0:0:
54,199,85353,6,0,P|76:232|104:260,1,80,2|8,0:0|0:0,0:0:0:0:
195,227,86475,2,0,P|231:243|263:267,1,80,2|8,0:0|0:0,0:0:0:0:
334,332,87596,2,0,P|403:292|449:228,1,160,2|4,0:0|0:3,0:0:0:0:
458,133,89278,1,8,0:3:0:0:
392,63,89839,6,0,L|305:55,2,80,6|8|2,0:0|0:0|0:0,0:0:0:0:
458,133,91521,1,8,0:0:0:0:
366,160,92082,2,0,L|200:144,1,160,2|2,0:0|0:0,0:0:0:0:
131,84,93764,1,8,0:0:0:0:
50,136,94325,6,0,P|35:173|31:212,1,80,2|8,0:0|0:0,0:0:0:0:
117,256,95447,2,0,P|132:292|157:323,1,80,2|8,0:0|0:0,0:0:0:0:
252,342,96568,2,0,B|311:348|311:348|349:326|349:326|405:320,1,160,2|2,0:0|0:0,0:0:0:0:
490,275,98250,1,8,0:0:0:0:
489,179,98811,6,0,P|473:128|453:103,2,80,2|8|2,0:0|0:0|0:0,0:0:0:0:
393,182,100493,1,8,0:0:0:0:
359,92,101054,2,0,B|237:69|237:69|206:87,1,160,2|2,0:0|0:0,0:0:0:0:
185,181,102736,1,8,0:0:0:0:
96,145,103297,6,0,P|71:103|64:69,1,80,2|8,0:0|0:0,0:0:0:0:
141,15,104419,2,0,P|166:57|173:91,1,80,2|8,0:0|0:0,0:0:0:0:
184,181,105540,2,0,P|173:292|275:338,1,240,2|8,0:0|0:3,0:0:0:0:
362,296,107783,5,4,0:0:0:0:
427,224,108344,2,0,P|463:209|503:209,2,80,8|2|8,0:0|0:0|0:0,0:0:0:0:
333,204,110026,2,0,P|348:167|375:138,1,80,2|8,0:0|0:0,0:0:0:0:
427,57,111148,2,0,L|316:47,1,80,0|8,0:0|0:0,0:0:0:0:
255,24,112269,5,2,0:0:0:0:
200,103,112830,2,0,L|120:110,1,80,8|2,0:0|0:0,0:0:0:0:
27,87,113951,1,8,0:0:0:0:
34,182,114512,2,0,P|48:230|150:270,1,160,2|2,0:0|0:0,0:0:0:0:
228,228,116194,1,8,0:0:0:0:
309,279,116755,6,0,B|321:317|321:317|316:356,2,80,2|8|2,0:0|0:0|0:0,0:0:0:0:
228,228,118437,1,8,0:0:0:0:
314,186,118998,2,0,L|399:196,1,80,2|8,0:0|0:0,0:0:0:0:
440,111,120120,2,0,L|361:101,1,80,2|8,0:0|0:0,0:0:0:0:
264,98,121241,6,0,P|237:69|202:52,1,80,2|8,0:0|0:0,0:0:0:0:
105,58,122362,2,0,P|70:79|47:110,1,80,2|8,0:0|0:0,0:0:0:0:
30,206,123484,1,2,0:0:0:0:
89,282,124045,2,0,P|167:277|226:225,1,160,8|8,0:0|0:3,0:0:0:0:
206,131,125727,6,0,P|309:177|299:289,1,240,6|2,0:0|0:0,0:0:0:0:
379,343,127970,2,0,B|417:286|417:219|417:219|445:168|497:144,1,240,2|2,0:0|0:0,0:0:0:0:
471,52,130213,6,0,B|428:63|428:63|379:54|379:54|328:65|328:65|281:53|281:53|236:61,1,240,0|0,0:0|0:0,0:0:0:0:
144,34,132456,2,0,P|149:111|97:170,1,160,2|2,0:0|0:0,0:0:0:0:
5,196,134138,1,8,0:0:0:0:
48,282,134699,6,0,P|77:309|113:325,1,80,4|8,0:0|0:0,0:0:0:0:
205,297,135820,2,0,P|234:269|270:253,1,80,2|8,0:0|0:0,0:0:0:0:
366,248,136942,2,0,L|444:261,2,80,2|8|0,0:0|0:0|0:0,0:0:0:0:
315,167,138624,1,8,0:0:0:0:
262,87,139185,6,0,B|240:71|240:71|187:62,1,80,4|8,0:0|0:0,0:0:0:0:
114,124,140306,2,0,B|136:140|136:140|188:148,1,80,0|8,0:0|0:0,0:0:0:0:
268,202,141428,2,0,B|292:278|292:278|211:313|114:274,1,240,0|8,0:0|0:3,0:0:0:0:
57,226,143671,5,4,0:0:0:0:
488,81,152643,6,0,L|308:89,1,160,4|0,0:0|0:0,0:0:0:0:
256,152,154325,1,8,0:0:0:0:
172,106,154886,2,0,P|134:92|94:92,2,80,0|8|0,0:0|0:0|0:0,0:0:0:0:
117,185,156568,1,10,0:0:0:0:
71,269,157129,6,0,P|104:339|180:354,1,160,0|2,0:0|0:0,0:0:0:0:
258,298,158811,1,8,0:0:0:0:
339,247,159372,2,0,B|386:239|421:268|421:268|463:231|463:168|434:126,1,240,8|10,0:0|0:0,0:0:0:0:
365,64,161615,6,0,L|270:53,2,80,6|8|2,0:0|0:0|0:0,0:0:0:0:
436,129,163297,1,8,0:0:0:0:
344,157,163858,2,0,L|177:136,1,160,2|2,0:0|0:0,0:0:0:0:
130,58,165540,1,8,0:0:0:0:
52,114,166101,6,0,P|31:161|28:208,1,80,2|8,0:0|0:0,0:0:0:0:
109,239,167222,2,0,P|115:278|133:313,1,80,2|8,0:0|0:0,0:0:0:0:
225,345,168344,2,0,P|292:302|370:289,1,160,2|2,0:0|0:0,0:0:0:0:
464,307,170026,1,8,0:0:0:0:
447,213,170587,6,0,P|462:177|465:137,2,80,2|8|2,0:0|0:0|0:0,0:0:0:0:
370,156,172269,1,8,0:0:0:0:
326,71,172830,2,0,B|287:60|287:60|168:78,1,160,2|2,0:0|0:0,0:0:0:0:
90,134,174512,1,8,0:0:0:0:
174,181,175073,6,0,L|265:168,1,80,2|8,0:0|0:0,0:0:0:0:
331,225,176194,2,0,L|410:236,1,80,2|8,0:0|0:0,0:0:0:0:
450,324,177316,2,0,P|370:326|292:345,1,160,2|4,0:0|0:3,0:0:0:0:
198,363,178998,1,8,0:3:0:0:
106,336,179559,6,0,B|63:337|63:337|27:326,2,80,6|8|2,0:0|0:0|0:0,0:0:0:0:
79,244,181241,1,8,0:0:0:0:
27,161,181802,2,0,P|43:86|112:50,1,160,2|2,0:0|0:0,0:0:0:0:
208,57,183484,1,8,0:0:0:0:
289,109,184045,6,0,P|326:121|366:123,1,80,2|8,0:0|0:0,0:0:0:0:
462,114,185166,2,0,L|477:203,1,80,2|8,0:0|0:0,0:0:0:0:
463,288,186288,2,0,B|422:255|358:259|358:259|308:262,1,160,2|2,0:0|0:0,0:0:0:0:
217,239,187970,1,8,0:0:0:0:
180,328,188531,6,0,P|145:346|106:355,2,80,2|8|2,0:0|0:0|0:0,0:0:0:0:
217,239,190213,1,8,0:0:0:0:
302,282,190774,2,0,L|470:264,1,160,2|2,0:0|0:0,0:0:0:0:
508,181,192456,1,8,0:0:0:0:
444,109,193017,6,0,B|425:97|425:97|360:100,1,80,2|8,0:0|0:0,0:0:0:0:
279,136,194138,2,0,B|221:138|221:138|202:126,1,80,2|8,0:0|0:0,0:0:0:0:
146,48,195260,2,0,B|97:37|56:62|56:62|74:120|40:164|40:164|66:212,1,240,2|8,0:0|0:3,0:0:0:0:
122,270,197503,5,4,0:0:0:0:
311,277,206475,6,0,P|256:332|179:327,1,160,4|8,0:0|0:0,0:0:0:0:
106,150,208718,2,0,P|160:94|237:99,1,160,0|8,0:0|0:0,0:0:0:0:
402,197,210961,6,0,L|438:360,1,160,2|8,0:0|0:0,0:0:0:0:
256,192,213204,12,6,215447,0:0:0:0:
141,120,216568,6,0,P|152:158|156:197,1,80,2|8,0:0|0:0,0:0:0:0:
83,260,217690,2,0,P|152:294|225:266,1,160,2|2,0:0|0:0,0:0:0:0:
255,175,219372,1,8,0:0:0:0:
334,120,219933,6,0,B|373:112|373:112|416:121,1,80,2|8,0:0|0:0,0:0:0:0:
444,211,221054,2,0,B|405:219|405:219|362:210,1,80,2|8,0:0|0:0,0:0:0:0:
269,204,222176,2,0,B|252:244|258:282|258:282|232:307|183:304,1,160,2|2,0:0|0:0,0:0:0:0:
94,268,223858,1,8,0:0:0:0:
52,182,224419,6,0,L|48:96,2,80,2|8|2,0:0|0:0|0:0,0:0:0:0:
94,268,226101,1,8,0:0:0:0:
152,191,226662,2,0,P|205:169|303:198,1,160,2|2,0:0|0:0,0:0:0:0:
351,277,228344,1,8,0:0:0:0:
444,252,228905,6,0,P|476:229|496:195,1,80,2|8,0:0|0:0,0:0:0:0:
430,127,230026,2,0,P|426:87|406:52,1,80,2|8,0:0|0:0,0:0:0:0:
310,46,231148,2,0,B|225:70|225:70|187:73|154:60,1,160,2|4,0:0|0:3,0:0:0:0:
64,29,232830,1,8,0:3:0:0:
30,119,233391,6,0,B|25:181|25:181|29:198,2,80,6|8|2,0:0|0:0|0:0,0:0:0:0:
64,29,235073,1,8,0:0:0:0:
130,97,235634,2,0,P|199:135|278:138,1,160,2|2,0:0|0:0,0:0:0:0:
370,111,237316,1,8,0:0:0:0:
433,38,237877,6,0,P|458:68|465:107,1,80,2|8,0:0|0:0,0:0:0:0:
412,187,238998,2,0,P|386:217|379:256,1,80,2|8,0:0|0:0,0:0:0:0:
427,340,240120,2,0,L|267:356,1,160,2|2,0:0|0:0,0:0:0:0:
194,295,241802,1,8,0:0:0:0:
105,331,242362,6,0,L|20:324,2,80,2|8|2,0:0|0:0|0:0,0:0:0:0:
95,235,244045,1,8,0:0:0:0:
187,207,244605,2,0,B|212:168|195:131|195:131|178:93|201:54,1,160,2|2,0:0|0:0,0:0:0:0:
290,16,246288,1,8,0:0:0:0:
385,28,246848,6,0,P|432:49|466:71,1,80,2|8,0:0|0:0,0:0:0:0:
429,156,247970,2,0,P|382:135|348:113,1,80,2|8,0:0|0:0,0:0:0:0:
279,65,249091,2,0,B|237:43|177:39|177:39|191:86|173:136|135:158,1,240,2|8,0:0|0:3,0:0:0:0:
43,180,251334,5,4,0:0:0:0:
78,269,251895,2,0,L|85:368,2,80,8|2|8,0:0|0:0|0:0,0:0:0:0:
141,197,253577,2,0,P|195:187|228:190,1,80,2|8,0:0|0:0,0:0:0:0:
275,267,254699,2,0,P|314:266|353:275,1,80,2|8,0:0|0:0,0:0:0:0:
429,335,255820,5,2,0:0:0:0:
485,257,256381,2,0,L|500:178,1,80,8|2,0:0|0:0,0:0:0:0:
480,84,257503,1,8,0:0:0:0:
393,125,258063,2,0,B|346:140|346:140|219:121,1,160,2|2,0:0|0:0,0:0:0:0:
163,61,259746,1,8,0:0:0:0:
68,76,260306,6,0,P|21:112|5:142,2,80,2|8|2,0:0|0:0|0:0,0:0:0:0:
163,60,261989,1,8,0:0:0:0:
128,149,262549,2,0,P|120:207|130:240,1,80,2|8,0:0|0:0,0:0:0:0:
80,312,263671,2,0,P|138:319|171:309,1,80,2|8,0:0|0:0,0:0:0:0:
218,240,264792,6,0,L|301:223,1,80,2|8,0:0|0:0,0:0:0:0:
351,302,265914,2,0,L|434:285,1,80,2|8,0:0|0:0,0:0:0:0:
486,208,267035,1,2,0:0:0:0:
449,119,267596,2,0,B|405:127|377:153|377:153|344:139|298:143,1,160,8|8,0:0|0:0,0:0:0:0:
207,169,269278,5,0,0:0:0:0:
