osu file format v14

[General]
AudioFilename: Spring Day.mp3
AudioLeadIn: 0
PreviewTime: 70774
Countdown: 0
SampleSet: Soft
StackLeniency: 0.7
Mode: 0
LetterboxInBreaks: 0
WidescreenStoryboard: 0

[Editor]
Bookmarks: 18063,53951,62923,125727,143671,152643,198624,206475
DistanceSpacing: 1.1
BeatDivisor: 2
GridSize: 4
TimelineZoom: 1

[Metadata]
Title:Spring Day
TitleUnicode:봄날
Artist:BTS
ArtistUnicode:방탄소년단
Creator:Cerulean Veyron
Version:Average
Source:
Tags:K-pop Kpop You Never Walk Alone BigHit Entertainment 빅히트엔터테인먼트 Bangtan Boys Rap Monster Jungkook Suga Jimin J-Hope V Jin 랩몬스터 진 슈가 제이홉 지민 뷔 정국 Extended Wings Trilogy Repackaged Edition Kawashiro
BeatmapID:1306521
BeatmapSetID:619854

[Difficulty]
HPDrainRate:3
CircleSize:4
OverallDifficulty:3
ApproachRate:5
SliderMultiplier:1.1
SliderTickRate:1

[Events]
//Background and Video events
0,0,"me-after-death.jpg.jpg",0,0
Video,-4757,"mv.avi"
//Break Periods
2,55071,61723
2,144792,151443
2,198624,205275
//Storyboard Layer 0 (Background)
//Storyboard Layer 1 (Fail)
//Storyboard Layer 2 (Pass)
//Storyboard Layer 3 (Foreground)
//Storyboard Sound Samples

[TimingPoints]
120,560.747663551402,4,2,1,60,1,0
53951,-100,4,2,1,50,0,0
71895,-100,4,2,2,80,0,1
89278,-100,4,2,1,70,0,0
89839,-100,4,2,2,80,0,1
107783,-100,4,2,2,70,0,0
125727,-100,4,2,1,60,0,0
143671,-100,4,2,1,50,0,0
161615,-100,4,2,2,80,0,1
178998,-100,4,2,2,70,0,0
179559,-100,4,2,2,80,0,1
197503,-100,4,2,1,50,0,0
213484,-100,4,2,1,70,0,0
215447,-100,4,2,2,80,0,1
232830,-100,4,2,2,80,0,0
233391,-100,4,2,2,80,0,1
250774,-100,4,2,0,100,0,0
251194,-100,4,2,2,80,0,0
251334,-100,4,2,2,80,0,1
251475,-100,4,2,2,70,0,0

[Colours]
Combo1 : 128,128,255
Combo2 : 255,128,128
Combo3 : 95,252,99
Combo4 : 255,104,32

[HitObjects]
256,192,13577,12,0,15820,0:0:0:0:
86,169,17503,6,0,L|75:236,1,55,0|2,0:0|0:0,0:0:0:0:
43,273,18063,2,0,P|98:272|150:290,1,110,4|8,0:0|0:0,0:0:0:0:
190,335,18905,2,0,P|245:336|297:318,1,110,2|2,0:0|0:0,0:0:0:0:
332,269,19746,1,0,0:0:0:0:
453,262,20306,2,0,L|445:316,2,55,0|2|8,0:0|0:0|0:0,0:0:0:0:
496,219,21148,1,2,0:0:0:0:
469,165,21428,2,0,B|435:147|435:147|337:139,1,110,0|0,0:0|0:0,0:0:0:0:
314,176,22269,1,2,0:0:0:0:
261,146,22549,6,0,P|250:103|268:35,1,110,0|8,0:0|0:0,0:0:0:0:
205,31,23391,2,0,L|66:42,1,110,2|2,0:0|0:0,0:0:0:0:
35,33,24232,1,0,0:0:0:0:
22,152,24792,2,0,P|14:179|12:206,1,55,2|0,0:0|0:0,0:0:0:0:
50,254,25353,2,0,P|76:261|103:263,1,55,8|0,0:0|0:0,0:0:0:0:
163,250,25914,2,0,B|169:288|169:288|215:342,1,110,0|2,0:0|0:0,0:0:0:0:
274,358,26755,1,0,0:0:0:0:
309,308,27035,6,0,B|303:270|303:270|256:215,1,110,4|8,0:0|0:0,0:0:0:0:
216,168,27877,2,0,P|270:178|324:169,1,110,2|0,0:0|0:0,0:0:0:0:
373,133,28718,1,0,0:0:0:0:
483,183,29278,2,0,P|497:249|489:308,1,110,2|8,0:0|0:0,0:0:0:0:
439,318,30120,2,0,L|321:249,1,110,0|2,0:0|0:0,0:0:0:0:
284,253,30961,1,0,0:0:0:0:
174,304,31521,6,0,P|126:316|63:306,1,110,0|8,0:0|0:0,0:0:0:0:
29,260,32362,1,2,0:0:0:0:
60,208,32643,2,0,P|108:196|171:206,1,110,2|0,0:0|0:0,0:0:0:0:
205,252,33484,1,2,0:0:0:0:
249,292,33764,2,0,P|282:282|321:256,2,55,0|2|8,0:0|0:0|0:0,0:0:0:0:
199,326,34605,1,0,0:0:0:0:
140,311,34886,2,0,L|111:193,1,110,2|2,0:0|0:0,0:0:0:0:
36,111,36007,6,0,P|86:88|141:87,1,110,4|8,0:0|0:0,0:0:0:0:
193,117,36848,2,0,B|247:129|247:129|300:115,1,110,2|2,0:0|0:0,0:0:0:0:
336,66,37690,2,0,P|362:77|400:79,1,55,2|0,0:0|0:0,0:0:0:0:
442,52,38250,2,0,L|428:183,1,110,4|8,0:0|0:0,0:0:0:0:
373,182,39091,2,0,L|387:313,1,110,2|2,0:0|0:0,0:0:0:0:
390,352,39933,2,0,P|367:367|340:373,1,55,0|2,0:0|0:0,0:0:0:0:
297,331,40493,6,0,L|188:316,1,110,4|8,0:0|0:0,0:0:0:0:
159,263,41334,1,2,0:0:0:0:
108,296,41615,2,0,P|98:321|81:347,2,55,0|2|0,0:0|0:0|0:0,0:0:0:0:
87,239,42456,1,2,0:0:0:0:
124,191,42736,2,0,P|124:129|100:82,1,110,4|8,0:0|0:0,0:0:0:0:
122,29,43577,2,0,P|183:18|233:33,1,110,2|2,0:0|0:0,0:0:0:0:
262,81,44419,1,0,0:0:0:0:
315,189,44979,6,0,P|369:200|423:190,1,110,4|8,0:0|0:0,0:0:0:0:
466,147,45820,1,0,0:0:0:0:
435,95,46101,2,0,B|380:85|380:85|326:93,1,110,2|0,0:0|0:0,0:0:0:0:
273,121,46942,1,2,0:0:0:0:
214,108,47222,2,0,L|152:97,2,55,4|2|8,0:0|0:0|0:0,0:0:0:0:
273,120,48063,2,0,P|230:154|205:204,1,110,2|2,0:0|0:0,0:0:0:0:
202,264,48905,1,0,0:0:0:0:
302,331,49465,6,0,B|374:347|374:347|409:340,1,110,4|8,0:0|0:0,0:0:0:0:
458,304,50306,1,0,0:0:0:0:
420,257,50587,2,0,P|399:202|399:141,1,110,2|0,0:0|0:0,0:0:0:0:
413,93,51428,1,2,0:0:0:0:
447,43,51708,2,0,P|471:29|498:25,2,55,4|2|8,0:0|0:0|0:0,0:0:0:0:
389,24,52549,1,2,0:0:0:0:
336,53,52830,2,0,P|281:57|227:47,1,110,8|8,0:3|0:3,0:0:0:0:
123,109,53951,5,4,0:0:0:0:
471,254,62923,6,0,L|359:278,1,110,4|8,0:0|0:0,0:0:0:0:
314,312,63764,1,2,0:0:0:0:
258,287,64045,2,0,P|232:275|205:270,1,55,0|2,0:0|0:0,0:0:0:0:
154,240,64605,2,0,P|148:266|137:292,1,55,8|0,0:0|0:0,0:0:0:0:
89,329,65166,2,0,L|32:220,1,110,0|8,0:0|0:0,0:0:0:0:
62,113,66288,2,0,P|66:85|62:58,2,55,0|2|10,0:0|0:0|0:0,0:0:0:0:
14,149,67129,1,0,0:0:0:0:
61,186,67409,6,0,P|114:200|167:187,1,110,0|8,0:0|0:0,0:0:0:0:
214,148,68250,1,0,0:0:0:0:
227,89,68531,2,0,B|250:73|250:73|276:69,1,55,2|2,0:0|0:0,0:0:0:0:
330,41,69091,2,0,B|356:44|356:44|379:60,1,55,8|2,0:0|0:0,0:0:0:0:
397,118,69652,2,0,P|450:128|490:165,2,110,8|10|8,0:0|0:0|0:0,0:0:0:0:
398,239,71334,1,8,0:0:0:0:
333,341,71895,6,0,P|279:344|215:334,1,110,6|8,0:0|0:0,0:0:0:0:
169,310,72736,1,2,0:0:0:0:
180,250,73017,2,0,B|142:183|142:183|110:174,1,110,2|8,0:0|0:0,0:0:0:0:
40,74,74138,2,0,L|149:59,1,110,2|8,0:0|0:0,0:0:0:0:
202,30,74979,1,2,0:0:0:0:
255,60,75260,2,0,P|267:89|262:128,1,55,2|0,0:0|0:0,0:0:0:0:
227,158,75820,2,0,P|198:170|159:165,1,55,8|0,0:0|0:0,0:0:0:0:
115,161,76381,6,0,P|135:211|168:255,1,110,2|8,0:0|0:0,0:0:0:0:
218,289,77222,1,2,0:0:0:0:
277,300,77503,2,0,L|403:288,1,110,2|8,0:0|0:0,0:0:0:0:
434,178,78624,2,0,L|308:190,1,110,2|8,0:0|0:0,0:0:0:0:
277,149,79465,1,2,0:0:0:0:
223,120,79746,2,0,L|168:125,1,55,2|0,0:0|0:0,0:0:0:0:
110,142,80306,2,0,P|109:114|104:87,1,55,8|0,0:0|0:0,0:0:0:0:
46,72,80867,6,0,P|24:122|22:179,1,110,2|8,0:0|0:0,0:0:0:0:
57,227,81708,1,2,0:0:0:0:
113,246,81989,2,0,P|150:287|174:337,1,110,2|8,0:0|0:0,0:0:0:0:
263,255,83110,2,0,P|317:257|369:276,1,110,2|8,0:0|0:0,0:0:0:0:
414,317,83951,1,2,0:0:0:0:
469,291,84232,2,0,L|465:236,1,55,2|0,0:0|0:0,0:0:0:0:
443,180,84792,2,0,L|439:125,1,55,8|0,0:0|0:0,0:0:0:0:
465,70,85353,6,0,B|422:88|422:88|358:86,1,110,2|8,0:0|0:0,0:0:0:0:
303,61,86194,1,2,0:0:0:0:
244,48,86475,2,0,P|189:52|143:81,1,110,2|8,0:0|0:0,0:0:0:0:
41,146,87596,2,0,P|95:150|141:179,2,110,2|8|4,0:0|0:0|0:3,0:0:0:0:
59,265,89278,1,8,0:3:0:0:
176,294,89839,6,0,L|296:282,1,110,6|8,0:0|0:0,0:0:0:0:
345,290,90680,1,2,0:0:0:0:
397,321,90961,2,0,P|430:278|437:224,1,110,2|8,0:0|0:0,0:0:0:0:
319,197,92082,2,0,P|325:143|359:100,1,110,2|8,0:0|0:0,0:0:0:0:
410,67,92923,1,2,0:0:0:0:
372,20,93204,2,0,P|344:16|317:17,1,55,2|0,0:0|0:0,0:0:0:0:
268,52,93764,2,0,P|240:55|213:54,1,55,8|0,0:0|0:0,0:0:0:0:
153,47,94325,6,0,B|77:52|77:52|53:76,1,110,2|8,0:0|0:0,0:0:0:0:
20,127,95166,1,2,0:0:0:0:
58,174,95447,2,0,B|134:169|134:169|157:144,1,110,2|8,0:0|0:0,0:0:0:0:
228,242,96568,2,0,B|152:247|152:247|128:271,1,110,2|8,0:0|0:0,0:0:0:0:
102,326,97409,1,2,0:0:0:0:
154,357,97690,2,0,P|181:354|208:348,1,55,2|0,0:0|0:0,0:0:0:0:
262,321,98250,2,0,P|289:323|316:329,1,55,8|0,0:0|0:0,0:0:0:0:
369,359,98811,6,0,L|363:221,1,110,2|8,0:0|0:0,0:0:0:0:
339,194,99652,1,2,0:0:0:0:
394,168,99933,2,0,P|412:143|420:120,1,55,2|0,0:0|0:0,0:0:0:0:
414,60,100493,1,8,0:0:0:0:
295,83,101054,2,0,B|261:87|261:87|189:61,1,110,2|8,0:0|0:0,0:0:0:0:
142,24,101895,1,2,0:0:0:0:
82,34,102176,2,0,P|55:41|34:58,1,55,2|0,0:0|0:0,0:0:0:0:
32,118,102736,2,0,L|38:180,1,55,8|0,0:0|0:0,0:0:0:0:
71,223,103297,6,0,P|110:185|162:167,1,110,2|8,0:0|0:0,0:0:0:0:
223,162,104138,1,2,0:0:0:0:
273,196,104419,2,0,L|287:262,1,55,2|0,0:0|0:0,0:0:0:0:
334,284,104979,1,8,0:0:0:0:
413,193,105540,2,0,L|436:85,2,110,2|8|4,0:0|0:0|0:3,0:0:0:0:
334,284,107222,1,8,0:3:0:0:
219,323,107783,6,0,P|164:329|110:318,1,110,4|8,0:0|0:0,0:0:0:0:
52,212,108905,2,0,P|105:201|160:207,1,110,2|8,0:0|0:0,0:0:0:0:
218,225,109746,1,0,0:0:0:0:
241,169,110026,2,0,L|219:102,2,55,2|0|8,0:0|0:0|0:0,0:0:0:0:
300,183,110867,1,2,0:0:0:0:
359,174,111148,2,0,P|411:158|440:112,1,110,2|8,0:0|0:0,0:0:0:0:
361,22,112269,6,0,L|252:40,1,110,2|8,0:0|0:0,0:0:0:0:
192,34,113110,1,2,0:0:0:0:
134,50,113391,2,0,P|112:101|74:140,1,110,2|8,0:0|0:0,0:0:0:0:
23,172,114232,1,0,0:0:0:0:
10,231,114512,2,0,P|10:266|19:296,2,55,2|0|8,0:0|0:0|0:0,0:0:0:0:
23,172,115353,2,0,P|66:206|118:223,1,110,2|0,0:0|0:0,0:0:0:0:
176,207,116194,2,0,L|256:218,1,55,8|0,0:0|0:0,0:0:0:0:
269,261,116755,6,0,P|251:282|229:299,2,55,2|0|8,0:0|0:0|0:0,0:0:0:0:
303,211,117596,1,2,0:0:0:0:
276,156,117877,2,0,P|255:100|272:44,1,110,2|8,0:0|0:0,0:0:0:0:
384,26,118998,2,0,P|426:67|434:125,1,110,2|8,0:0|0:0,0:0:0:0:
433,176,119839,1,2,0:0:0:0:
458,231,120120,2,0,L|448:312,2,55,2|0|8,0:0|0:0|0:0,0:0:0:0:
433,176,120961,1,0,0:0:0:0:
384,211,121241,6,0,B|349:229|349:229|278:237,1,110,2|8,0:0|0:0,0:0:0:0:
223,214,122082,1,2,0:0:0:0:
199,268,122362,2,0,P|157:303|103:308,1,110,2|8,0:0|0:0,0:0:0:0:
36,207,123484,2,0,P|77:172|131:167,1,110,2|8,0:0|0:0,0:0:0:0:
189,187,124325,1,2,0:0:0:0:
249,178,124605,2,0,B|297:178|328:158|328:158|320:131,1,110,2|8,0:0|0:3,0:0:0:0:
253,31,125727,6,0,L|181:40,2,55,6|2|0,0:0|0:0|0:0,0:0:0:0:
370,60,126848,2,0,L|442:69,2,55,2|0|2,0:0|0:0|0:0,0:0:0:0:
292,153,127970,2,0,P|287:180|288:207,2,55,2|2|0,0:0|0:0|0:0,0:0:0:0:
382,234,129091,2,0,P|382:261|378:288,2,55,2|0|2,0:0|0:0|0:0,0:0:0:0:
368,175,129933,1,2,0:0:0:0:
427,162,130213,6,0,P|444:121|440:53,1,110,0|2,0:0|0:0,0:0:0:0:
326,94,131334,2,0,P|285:77|217:81,1,110,0|0,0:0|0:0,0:0:0:0:
167,109,132176,1,2,0:0:0:0:
108,96,132456,2,0,L|59:70,2,55,2|0|0,0:0|0:0|0:0,0:0:0:0:
167,109,133297,1,2,0:0:0:0:
140,163,133577,2,0,L|132:238,1,55,2|0,0:0|0:0,0:0:0:0:
93,262,134138,1,8,0:0:0:0:
177,349,134699,6,0,L|292:335,1,110,4|8,0:0|0:0,0:0:0:0:
407,345,135820,2,0,L|337:252,1,110,2|8,0:0|0:0,0:0:0:0:
304,208,136662,1,2,0:0:0:0:
251,179,136942,2,0,L|229:229,2,55,2|0|8,0:0|0:0|0:0,0:0:0:0:
280,125,137783,1,2,0:0:0:0:
239,80,138063,2,0,P|214:66|187:61,1,55,0|2,0:0|0:0,0:0:0:0:
136,93,138624,2,0,P|109:98|84:111,1,55,8|2,0:0|0:0,0:0:0:0:
26,97,139185,6,0,L|49:212,1,110,4|8,0:0|0:0,0:0:0:0:
30,263,140026,1,2,0:0:0:0:
75,303,140306,2,0,P|67:328|62:360,2,55,0|2|8,0:0|0:0|0:0,0:0:0:0:
113,256,141148,1,2,0:0:0:0:
167,229,141428,2,0,P|221:221|289:228,1,110,0|8,0:0|0:0,0:0:0:0:
332,249,142269,1,2,0:0:0:0:
380,286,142549,2,0,P|434:290|489:282,1,110,8|8,0:3|0:3,0:0:0:0:
430,176,143671,5,4,0:0:0:0:
67,75,152643,6,0,B|131:102|131:102|171:96,1,110,4|8,0:0|0:0,0:0:0:0:
229,78,153484,1,2,0:0:0:0:
277,41,153764,2,0,P|306:41|345:50,1,55,0|2,0:0|0:0,0:0:0:0:
375,88,154325,2,0,P|402:88|429:83,1,55,8|0,0:0|0:0,0:0:0:0:
483,54,154886,2,0,P|461:105|456:160,1,110,0|8,0:0|0:0,0:0:0:0:
466,281,156007,2,0,L|478:336,2,55,0|2|10,0:0|0:0|0:0,0:0:0:0:
428,234,156848,1,0,0:0:0:0:
379,270,157129,6,0,P|325:287|267:286,1,110,0|8,0:0|0:0,0:0:0:0:
214,269,157970,1,0,0:0:0:0:
159,294,158250,2,0,L|144:346,1,55,2|2,0:0|0:0,0:0:0:0:
84,339,158811,2,0,L|69:286,1,55,8|2,0:0|0:0,0:0:0:0:
100,234,159372,2,0,P|47:220|3:187,2,110,8|10|10,0:0|0:0|0:0,0:0:0:0:
98,113,161054,1,10,0:0:0:0:
197,43,161615,6,0,L|322:29,1,110,6|8,0:0|0:0,0:0:0:0:
366,40,162456,1,2,0:0:0:0:
415,73,162736,2,0,P|435:125|437:179,1,110,2|8,0:0|0:0,0:0:0:0:
319,153,163858,2,0,P|320:207|340:258,1,110,2|8,0:0|0:0,0:0:0:0:
384,301,164699,1,2,0:0:0:0:
349,350,164979,2,0,L|287:353,1,55,2|0,0:0|0:0,0:0:0:0:
242,322,165540,2,0,L|180:325,1,55,8|0,0:0|0:0,0:0:0:0:
137,290,166101,6,0,P|82:292|31:272,1,110,2|8,0:0|0:0,0:0:0:0:
12,215,166942,1,2,0:0:0:0:
65,186,167222,2,0,P|106:145|126:94,1,110,2|8,0:0|0:0,0:0:0:0:
223,26,168344,2,0,P|243:76|242:131,1,110,2|8,0:0|0:0,0:0:0:0:
215,185,169185,1,2,0:0:0:0:
170,225,169465,2,0,L|158:279,1,55,2|0,0:0|0:0,0:0:0:0:
187,332,170026,2,0,P|213:338|241:338,1,55,8|0,0:0|0:0,0:0:0:0:
284,295,170587,6,0,P|352:279|407:291,1,110,2|8,0:0|0:0,0:0:0:0:
448,306,171428,1,2,0:0:0:0:
494,267,171708,2,0,L|481:148,1,110,2|8,0:0|0:0,0:0:0:0:
388,81,172830,2,0,L|375:200,1,110,2|8,0:0|0:0,0:0:0:0:
339,238,173671,1,2,0:0:0:0:
281,256,173951,2,0,P|254:248|231:233,1,55,2|0,0:0|0:0,0:0:0:0:
202,181,174512,2,0,P|209:154|224:131,1,55,8|0,0:0|0:0,0:0:0:0:
265,87,175073,6,0,P|203:95|152:86,1,110,2|8,0:0|0:0,0:0:0:0:
108,51,175914,1,2,0:0:0:0:
53,76,176194,2,0,B|40:111|40:111|33:194,1,110,2|8,0:0|0:0,0:0:0:0:
144,233,177316,2,0,B|157:268|157:268|164:351,2,110,2|8|4,0:0|0:0|0:3,0:0:0:0:
120,114,178998,1,8,0:3:0:0:
230,165,179559,6,0,P|290:178|352:171,1,110,6|8,0:0|0:0,0:0:0:0:
395,153,180400,1,2,0:0:0:0:
427,102,180680,2,0,B|403:68|403:68|332:57,1,110,2|8,0:0|0:0,0:0:0:0:
217,86,181802,2,0,B|149:75|149:75|125:41,1,110,2|8,0:0|0:0,0:0:0:0:
72,13,182643,1,2,0:0:0:0:
32,58,182923,2,0,L|26:118,1,55,2|0,0:0|0:0,0:0:0:0:
81,139,183484,2,0,L|87:199,1,55,8|0,0:0|0:0,0:0:0:0:
59,248,184045,6,0,P|110:226|164:220,1,110,2|8,0:0|0:0,0:0:0:0:
223,238,184886,1,2,0:0:0:0:
217,178,185166,2,0,P|222:123|244:73,1,110,2|8,0:0|0:0,0:0:0:0:
351,130,186288,2,0,P|397:101|450:87,1,110,2|8,0:0|0:0,0:0:0:0:
511,93,187129,1,2,0:0:0:0:
489,148,187409,2,0,P|479:174|477:202,1,55,2|0,0:0|0:0,0:0:0:0:
435,245,187970,2,0,P|409:254|381:256,1,55,8|0,0:0|0:0,0:0:0:0:
336,217,188531,6,0,L|345:335,1,110,2|8,0:0|0:0,0:0:0:0:
299,367,189372,1,2,0:0:0:0:
245,340,189652,2,0,L|241:285,1,55,2|0,0:0|0:0,0:0:0:0:
202,239,190213,1,8,0:0:0:0:
100,305,190774,2,0,P|80:254|86:200,1,110,2|8,0:0|0:0,0:0:0:0:
114,146,191615,1,2,0:0:0:0:
62,115,191895,2,0,P|57:88|61:61,1,55,2|0,0:0|0:0,0:0:0:0:
117,37,192456,2,0,P|143:32|170:36,1,55,8|0,0:0|0:0,0:0:0:0:
228,57,193017,6,0,L|219:166,1,110,2|8,0:0|0:0,0:0:0:0:
265,206,193858,1,2,0:0:0:0:
318,177,194138,2,0,P|345:172|375:176,1,55,2|0,0:0|0:0,0:0:0:0:
425,205,194699,1,8,0:0:0:0:
353,302,195260,2,0,B|425:317|425:317|476:307,2,110,2|8|4,0:0|0:0|0:3,0:0:0:0:
238,263,196942,1,8,0:3:0:0:
121,296,197503,5,4,0:0:0:0:
134,87,206475,6,0,P|118:167|144:244,1,165,4|0,0:0|0:0,0:0:0:0:
188,286,207596,1,8,0:0:0:0:
365,327,208437,1,2,0:0:0:0:
365,327,208718,2,0,P|380:246|354:169,1,165,0|0,0:0|0:0,0:0:0:0:
311,128,209839,1,8,0:0:0:0:
134,87,210680,1,8,0:0:0:0:
134,87,210961,6,0,B|88:109|74:153|74:153|109:169|109:169|116:202,1,165,2|2,0:0|0:0,0:0:0:0:
128,262,212082,1,8,0:0:0:0:
402,135,213484,2,0,L|470:127,2,55,8|8|8,0:3|0:3|0:3,0:0:0:0:
344,116,214325,1,8,0:3:0:0:
288,223,214886,2,0,L|254:179,1,55,4|8,0:3|0:3,0:0:0:0:
218,131,215447,6,0,P|172:113|112:115,1,110,6|8,0:0|0:0,0:0:0:0:
64,152,216288,1,2,0:0:0:0:
80,210,216568,2,0,P|126:228|186:226,1,110,2|8,0:0|0:0,0:0:0:0:
207,345,217690,2,0,P|253:327|313:329,1,110,2|8,0:0|0:0,0:0:0:0:
366,358,218531,1,2,0:0:0:0:
382,300,218811,2,0,P|384:272|377:246,1,55,2|0,0:0|0:0,0:0:0:0:
339,199,219372,2,0,P|312:191|285:193,1,55,8|0,0:0|0:0,0:0:0:0:
230,218,219933,6,0,B|237:178|237:178|215:100,1,110,2|8,0:0|0:0,0:0:0:0:
195,55,220774,1,2,0:0:0:0:
139,33,221054,2,0,P|84:31|32:49,1,110,2|8,0:0|0:0,0:0:0:0:
105,146,222176,2,0,L|88:254,1,110,2|8,0:0|0:0,0:0:0:0:
47,299,223017,1,2,0:0:0:0:
87,344,223297,2,0,P|113:351|140:352,1,55,2|0,0:0|0:0,0:0:0:0:
187,313,223858,2,0,P|213:305|240:304,1,55,8|0,0:0|0:0,0:0:0:0:
286,344,224419,6,0,P|340:350|395:345,1,110,2|8,0:0|0:0,0:0:0:0:
453,327,225260,1,2,0:0:0:0:
503,293,225540,2,0,L|472:166,1,110,2|8,0:0|0:0,0:0:0:0:
356,194,226662,2,0,P|363:129|375:81,1,110,2|8,0:0|0:0,0:0:0:0:
395,29,227503,1,2,0:0:0:0:
335,24,227783,2,0,B|297:27|297:27|281:32,1,55,2|0,0:0|0:0,0:0:0:0:
245,81,228344,2,0,B|229:75|229:75|191:72,1,55,8|0,0:0|0:0,0:0:0:0:
144,34,228905,6,0,L|154:166,1,110,2|8,0:0|0:0,0:0:0:0:
183,196,229746,1,2,0:0:0:0:
130,225,230026,2,0,P|76:235|21:232,1,110,2|8,0:0|0:0,0:0:0:0:
100,324,231148,2,0,P|154:320|208:331,1,110,2|8,0:0|0:0,0:0:0:0:
260,363,231989,1,2,0:0:0:0:
305,323,232269,2,0,L|367:310,1,55,4|4,0:3|0:3,0:0:0:0:
417,329,232830,1,8,0:3:0:0:
487,230,233391,6,0,L|378:215,1,110,6|8,0:0|0:0,0:0:0:0:
332,176,234232,1,2,0:0:0:0:
292,220,234512,2,0,P|246:251|193:263,1,110,2|8,0:0|0:0,0:0:0:0:
115,356,235634,2,0,P|84:310|72:257,1,110,2|8,0:0|0:0,0:0:0:0:
69,196,236475,1,2,0:0:0:0:
107,149,236755,2,0,P|130:134|157:129,1,55,2|0,0:0|0:0,0:0:0:0:
218,128,237316,2,0,P|223:101|237:77,1,55,8|0,0:0|0:0,0:0:0:0:
286,41,237877,6,0,L|414:53,1,110,2|8,0:0|0:0,0:0:0:0:
452,29,238718,1,2,0:0:0:0:
464,88,238998,2,0,P|441:138|397:171,1,110,2|8,0:0|0:0,0:0:0:0:
285,127,240120,2,0,L|175:116,1,110,2|8,0:0|0:0,0:0:0:0:
130,77,240961,1,2,0:0:0:0:
71,90,241241,2,0,B|48:103|48:103|29:127,1,55,2|0,0:0|0:0,0:0:0:0:
25,186,241802,2,0,L|39:250,1,55,8|0,0:0|0:0,0:0:0:0:
21,298,242362,6,0,P|78:290|131:253,1,110,2|8,0:0|0:0,0:0:0:0:
157,213,243204,1,2,0:0:0:0:
217,208,243484,2,0,P|242:198|262:179,1,55,2|0,0:0|0:0,0:0:0:0:
284,123,244045,1,8,0:0:0:0:
376,46,244605,2,0,P|431:46|482:67,1,110,2|8,0:0|0:0,0:0:0:0:
510,122,245447,1,2,0:0:0:0:
470,166,245727,2,0,P|460:192|455:219,1,55,2|0,0:0|0:0,0:0:0:0:
408,257,246288,2,0,P|380:252|355:242,1,55,8|0,0:0|0:0,0:0:0:0:
313,199,246848,6,0,L|302:313,1,110,2|8,0:0|0:0,0:0:0:0:
255,347,247690,1,2,0:0:0:0:
200,322,247970,2,0,P|176:320|141:324,1,55,2|0,0:0|0:0,0:0:0:0:
89,345,248531,1,8,0:0:0:0:
55,229,249091,2,0,P|27:229|0:238,2,55,2|0|8,0:0|0:0|0:0,0:0:0:0:
111,253,249933,1,2,0:0:0:0:
149,206,250213,2,0,P|144:178|145:151,1,55,4|4,0:3|0:3,0:0:0:0:
191,112,250774,2,0,P|196:85|206:59,1,55,8|8,0:3|0:3,0:0:0:0:
253,21,251334,6,0,P|285:72|296:123,1,110,4|8,0:0|0:0,0:0:0:0:
411,157,252456,2,0,P|398:210|368:256,1,110,2|8,0:0|0:0,0:0:0:0:
314,283,253297,1,0,0:0:0:0:
346,334,253577,2,0,L|412:354,2,55,2|0|8,0:0|0:0|0:0,0:0:0:0:
289,357,254419,1,2,0:0:0:0:
239,323,254699,2,0,P|185:310|132:320,1,110,2|8,0:0|0:0,0:0:0:0:
19,362,255820,6,0,L|36:231,1,110,2|8,0:0|0:0,0:0:0:0:
9,197,256662,1,2,0:0:0:0:
47,150,256942,2,0,P|110:149|171:167,1,110,2|8,0:0|0:0,0:0:0:0:
185,213,257783,1,0,0:0:0:0:
237,182,258063,2,0,B|256:157|256:157|263:134,2,55,2|0|8,0:0|0:0|0:0,0:0:0:0:
184,213,258905,2,0,P|239:216|291:235,1,110,2|0,0:0|0:0,0:0:0:0:
337,275,259746,2,0,L|391:282,1,55,8|2,0:0|0:0,0:0:0:0:
442,316,260306,6,0,P|439:343|441:370,2,55,2|0|8,0:0|0:0|0:0,0:0:0:0:
463,259,261148,1,2,0:0:0:0:
482,202,261428,2,0,P|480:147|455:98,1,110,2|8,0:0|0:0,0:0:0:0:
342,56,262549,2,0,L|232:68,1,110,2|8,0:0|0:0,0:0:0:0:
173,56,263391,1,2,0:0:0:0:
126,94,263671,2,0,P|94:91|58:97,2,55,2|0|8,0:0|0:0|0:0,0:0:0:0:
173,132,264512,1,0,0:0:0:0:
138,181,264792,6,0,L|121:306,1,110,2|8,0:0|0:0,0:0:0:0:
156,341,265634,1,2,0:0:0:0:
202,303,265914,2,0,P|246:269|299:258,1,110,2|8,0:0|0:0,0:0:0:0:
398,329,267035,2,0,B|419:280|419:280|416:223,1,110,2|8,0:0|0:0,0:0:0:0:
400,164,267877,1,2,0:0:0:0:
340,171,268157,2,0,P|285:170|235:149,1,110,2|8,0:0|0:0,0:0:0:0:
178,42,269278,5,0,0:0:0:0:
