osu file format v14

[General]
AudioFilename: Spring Day.mp3
AudioLeadIn: 0
PreviewTime: 70774
Countdown: 0
SampleSet: Soft
StackLeniency: 0.7
Mode: 0
LetterboxInBreaks: 0
WidescreenStoryboard: 0

[Editor]
Bookmarks: 18063,53951,62923,125727,143671,152643,198624,206475
DistanceSpacing: 0.5
BeatDivisor: 4
GridSize: 4
TimelineZoom: 0.9

[Metadata]
Title:Spring Day
TitleUnicode:봄날
Artist:BTS
ArtistUnicode:방탄소년단
Creator:Cerulean Veyron
Version:After Winter
Source:
Tags:K-pop Kpop You Never Walk Alone BigHit Entertainment 빅히트엔터테인먼트 Bangtan Boys Rap Monster Jungkook Suga Jimin J-Hope V Jin 랩몬스터 진 슈가 제이홉 지민 뷔 정국 Extended Wings Trilogy Repackaged Edition Kawashiro
BeatmapID:1327122
BeatmapSetID:619854

[Difficulty]
HPDrainRate:7
CircleSize:5.5
OverallDifficulty:8
ApproachRate:9
SliderMultiplier:2
SliderTickRate:1

[Events]
//Background and Video events
0,0,"me-after-death.jpg.jpg",0,0
Video,-4757,"mv.avi"
//Break Periods
2,55073,62323
2,144792,152043
2,198624,205875
//Storyboard Layer 0 (Background)
//Storyboard Layer 1 (Fail)
//Storyboard Layer 2 (Pass)
//Storyboard Layer 3 (Foreground)
//Storyboard Sound Samples

[TimingPoints]
120,560.747663551402,4,2,1,60,1,0
53951,-100,4,2,1,50,0,0
71895,-76.9230769230769,4,2,2,80,0,1
89278,-76.9230769230769,4,2,1,70,0,0
89839,-76.9230769230769,4,2,2,80,0,1
107783,-90.9090909090909,4,2,2,70,0,0
125727,-100,4,2,1,60,0,0
143671,-100,4,2,1,50,0,0
161615,-76.9230769230769,4,2,2,80,0,1
178998,-76.9230769230769,4,2,2,70,0,0
179559,-76.9230769230769,4,2,2,80,0,1
197503,-100,4,2,1,50,0,0
207596,-100,4,2,2,50,0,0
210680,-100,4,2,1,50,0,0
210961,-100,4,2,2,50,0,0
213484,-100,4,2,1,70,0,0
215447,-71.4285714285714,4,2,2,80,0,1
232830,-71.4285714285714,4,2,2,80,0,0
233391,-71.4285714285714,4,2,2,80,0,1
251194,-100,4,2,2,5,0,0
251334,-83.3333333333333,4,2,2,80,0,1
251475,-83.3333333333333,4,2,2,70,0,0

[Colours]
Combo1 : 128,128,255
Combo2 : 255,128,128
Combo3 : 95,252,99
Combo4 : 255,104,32

[HitObjects]
256,192,13577,12,0,15820,0:0:0:0:
378,200,17222,5,2,0:0:0:0:
305,183,17362,1,2,0:0:0:0:
327,255,17503,1,0,0:0:0:0:
358,129,17643,2,0,L|352:73,1,50,0|2,0:0|0:0,0:0:0:0:
350,54,18063,6,0,B|330:158|330:158|306:112,1,150,4|0,0:0|0:0,0:0:0:0:
256,66,18624,2,0,P|217:62|156:69,1,100,8|2,0:0|0:0,0:0:0:0:
65,188,19185,1,0,0:0:0:0:
205,136,19465,1,2,0:0:0:0:
68,199,19746,2,0,P|91:243|132:272,1,100,0|2,0:0|0:0,0:0:0:0:
205,258,20166,1,2,0:0:0:0:
358,319,20306,6,0,L|245:310,1,100,0|2,0:0|0:0,0:0:0:0:
205,258,20727,1,2,0:0:0:0:
368,234,20867,2,0,L|255:225,1,100,8|2,0:0|0:0,0:0:0:0:
215,173,21288,1,0,0:0:0:0:
282,139,21428,2,0,P|292:117|298:87,1,50
223,100,21708,1,0,0:0:0:0:
367,141,21848,1,2,0:0:0:0:
208,104,21989,2,0,L|152:113,1,50,0|2,0:0|0:0,0:0:0:0:
45,60,22269,2,0,L|94:67,1,50,2|0,0:0|0:0,0:0:0:0:
77,231,22549,6,0,B|63:128|63:128|99:162,1,150,0|0,0:0|0:0,0:0:0:0:
144,218,23110,2,0,P|135:266|96:295,1,100,8|2,0:0|0:0,0:0:0:0:
4,176,23671,1,0,0:0:0:0:
147,134,23951,1,2,0:0:0:0:
233,257,24232,2,0,B|245:284|237:309|237:309|253:326|277:330,1,100,0|2,0:0|0:0,0:0:0:0:
351,325,24652,1,0,0:0:0:0:
483,218,24792,5,2,0:0:0:0:
409,203,24933,1,2,0:0:0:0:
351,250,25073,1,0,0:0:0:0:
351,325,25213,1,2,0:0:0:0:
410,371,25353,2,0,P|430:326|417:271,1,100,8|0,0:0|0:0,0:0:0:0:
409,203,25774,2,0,L|401:266,1,50,2|0,0:0|0:0,0:0:0:0:
396,63,26194,1,2,0:0:0:0:
323,46,26334,1,0,0:0:0:0:
212,140,26475,1,2,0:0:0:0:
285,124,26615,1,2,0:0:0:0:
143,96,26755,2,0,P|140:120|138:145,1,50
35,181,27035,6,0,P|108:167|174:199,1,150,4|0,0:0|0:0,0:0:0:0:
208,288,27596,2,0,B|257:278,1,50,8|0,0:0|0:0,0:0:0:0:
294,213,27877,1,2,0:0:0:0:
134,315,28017,2,0,P|144:337|216:365,1,100,2|0,0:0|0:0,0:0:0:0:
283,349,28437,1,0,0:0:0:0:
439,296,28577,2,0,P|389:288|341:300,1,100,2|0,0:0|0:0,0:0:0:0:
400,252,28998,2,0,L|405:202,1,50,2|0,0:0|0:0,0:0:0:0:
439,77,29278,6,0,B|406:114|400:173|400:173|378:167|366:140,1,150,2|0,0:0|0:0,0:0:0:0:
306,101,29839,2,0,L|295:150,1,50,8|0,0:0|0:0,0:0:0:0:
236,197,30120,1,0,0:0:0:0:
125,125,30260,2,0,B|202:112|202:112|196:133,1,100,2|0,0:0|0:0,0:0:0:0:
82,277,30680,1,2,0:0:0:0:
105,205,30821,2,0,L|155:196,1,50
30,223,31101,1,0,0:0:0:0:
164,300,31241,1,2,0:0:0:0:
111,353,31381,1,2,0:0:0:0:
254,284,31521,6,0,P|304:285|351:303,1,100,0|2,0:0|0:0,0:0:0:0:
414,345,31942,1,2,0:0:0:0:
387,223,32082,1,8,0:0:0:0:
431,163,32222,1,0,0:0:0:0:
502,186,32363,1,2,0:0:0:0:
502,261,32503,1,0,0:0:0:0:
431,284,32643,2,0,L|450:230,1,50,2|2,0:0|0:0,0:0:0:0:
485,115,32923,1,0,0:0:0:0:
313,144,33063,2,0,P|336:154|360:157,1,50,2|0,0:0|0:0,0:0:0:0:
243,122,33344,1,2,0:0:0:0:
298,72,33484,1,2,0:0:0:0:
226,49,33624,1,0,0:0:0:0:
261,200,33764,6,0,B|270:240|257:278|257:278|241:263,1,100,0|2,0:0|0:0,0:0:0:0:
189,210,34185,1,2,0:0:0:0:
161,323,34325,2,0,P|136:330|110:332,1,50,8|2,0:0|0:0,0:0:0:0:
21,253,34605,2,0,P|45:247|70:245,1,50,0|0,0:0|0:0,0:0:0:0:
21,135,34886,1,2,0:0:0:0:
21,135,35166,1,2,0:0:0:0:
148,210,35306,1,0,0:0:0:0:
221,75,35447,2,0,P|173:60|119:85,1,100,2|0,0:0|0:0,0:0:0:0:
175,135,35867,1,0,0:0:0:0:
323,53,36007,6,0,P|396:50|444:105,1,150,4|0,0:0|0:0,0:0:0:0:
423,178,36568,2,0,L|438:246,1,50,8|0,0:0|0:0,0:0:0:0:
326,298,36848,2,0,L|336:249,1,50,2|0,0:0|0:0,0:0:0:0:
317,176,37129,1,0,0:0:0:0:
194,262,37409,1,2,0:0:0:0:
80,164,37690,2,0,P|117:130|172:117,1,100,2|0,0:0|0:0,0:0:0:0:
235,141,38110,1,2,0:0:0:0:
390,40,38250,6,0,B|336:29|282:50|282:50|295:99,1,150,4|0,0:0|0:0,0:0:0:0:
355,131,38811,2,0,L|348:180,1,50,8|0,0:0|0:0,0:0:0:0:
445,86,39091,2,0,L|451:135,1,50,2|0,0:0|0:0,0:0:0:0:
494,198,39372,1,0,0:0:0:0:
349,237,39652,1,2,0:0:0:0:
284,101,39933,2,0,P|239:92|185:104,1,100,0|2,0:0|0:0,0:0:0:0:
238,158,40353,1,2,0:0:0:0:
317,28,40493,6,0,B|296:78|296:78|301:156,1,100,4|0,0:0|0:0,0:0:0:0:
311,198,40914,1,0,0:0:0:0:
453,84,41054,2,0,P|404:94|365:127,1,100,8|2,0:0|0:0,0:0:0:0:
472,232,41615,1,0,0:0:0:0:
328,275,41895,1,2,0:0:0:0:
384,323,42035,1,2,0:0:0:0:
249,264,42176,2,0,P|200:268|151:280,1,100,0|2,0:0|0:0,0:0:0:0:
92,326,42596,1,0,0:0:0:0:
191,227,42736,6,0,L|199:169,1,50,4|0,0:0|0:0,0:0:0:0:
316,249,43017,2,0,L|322:298,1,50,2|0,0:0|0:0,0:0:0:0:
275,356,43297,1,8,0:0:0:0:
393,264,43577,1,2,0:0:0:0:
468,254,43718,1,0,0:0:0:0:
421,196,43858,2,0,L|385:148,1,50,0|2,0:0|0:0,0:0:0:0:
316,142,44138,2,0,P|267:148|223:171,1,100,2|0,0:0|0:0,0:0:0:0:
110,270,44699,1,2,0:0:0:0:
94,343,44839,1,2,0:0:0:0:
179,226,44979,6,0,P|140:195|91:190,1,100,4|2,0:0|0:0,0:0:0:0:
33,238,45400,1,2,0:0:0:0:
159,167,45540,2,0,L|176:119,1,50,8|2,0:0|0:0,0:0:0:0:
272,221,45820,2,0,L|255:173,1,50,0|0,0:0|0:0,0:0:0:0:
233,267,46101,2,0,B|259:255|259:255|329:264,1,100,2|2,0:0|0:0,0:0:0:0:
383,317,46521,1,2,0:0:0:0:
442,170,46662,2,0,B|451:240|451:240|439:266,1,100,0|2,0:0|0:0,0:0:0:0:
387,126,47222,6,0,P|431:102|479:112,1,100,4|2,0:0|0:0,0:0:0:0:
511,181,47643,1,2,0:0:0:0:
379,193,47783,2,0,L|329:186,1,50,8|0,0:0|0:0,0:0:0:0:
203,147,48063,1,2,0:0:0:0:
276,128,48204,1,0,0:0:0:0:
130,127,48344,2,0,P|133:177|166:213,1,100,0|2,0:0|0:0,0:0:0:0:
241,214,48764,1,2,0:0:0:0:
104,288,48905,2,0,L|203:279,1,100,0|0,0:0|0:0,0:0:0:0:
273,307,49325,1,2,0:0:0:0:
429,248,49465,6,0,P|380:245|333:261,1,100,4|2,0:0|0:0,0:0:0:0:
273,307,49886,1,2,0:0:0:0:
465,295,50026,2,0,L|453:195,1,100,8|0,0:0|0:0,0:0:0:0:
478,124,50447,1,2,0:0:0:0:
349,178,50587,2,0,B|270:188|270:188|241:177,1,100,2|0,0:0|0:0,0:0:0:0:
190,138,51007,1,2,0:0:0:0:
325,50,51148,2,0,P|316:98|276:126,1,100,0|2,0:0|0:0,0:0:0:0:
262,129,51708,6,0,P|215:111|161:111,1,100,4|2,0:0|0:0,0:0:0:0:
94,133,52129,1,2,0:0:0:0:
191,244,52269,2,0,P|198:209|198:186,1,50,8|0,0:0|0:0,0:0:0:0:
77,240,52549,2,0,P|78:264|84:288,1,50,2|0,0:0|0:0,0:0:0:0:
270,337,52830,1,8,0:3:0:0:
191,244,52971,1,8,0:3:0:0:
200,365,53111,1,4,0:3:0:0:
264,262,53251,1,4,0:3:0:0:
152,307,53391,2,0,L|209:304,1,50,8|8,0:3|0:3,0:0:0:0:
379,297,53671,2,0,L|329:294,1,50,8|8,0:3|0:3,0:0:0:0:
242,188,53951,5,4,0:0:0:0:
397,131,62923,6,0,L|297:118,1,100,4|2,0:0|0:0,0:0:0:0:
230,84,63344,1,2,0:0:0:0:
273,185,63484,2,0,L|342:194,1,50,8|0,0:0|0:0,0:0:0:0:
381,239,63764,1,2,0:0:0:0:
229,242,64045,2,0,P|201:203|206:154,1,100,0|2,0:0|0:0,0:0:0:0:
230,84,64465,1,2,0:0:0:0:
106,73,64605,2,0,L|155:84,1,50,8|2,0:0|0:0,0:0:0:0:
61,156,64886,2,0,L|12:166,1,50,0|0,0:0|0:0,0:0:0:0:
131,274,65166,6,0,B|137:233|122:193|122:193|136:202,1,100,0|2,0:0|0:0,0:0:0:0:
210,222,65587,1,2,0:0:0:0:
252,160,65727,2,0,P|314:159|350:171,1,100,8|2,0:0|0:0,0:0:0:0:
483,239,66288,2,0,P|421:238|385:250,1,100,0|2,0:0|0:0,0:0:0:0:
265,338,66848,1,10,0:0:0:0:
205,292,66989,1,2,0:0:0:0:
332,195,67129,1,0,0:0:0:0:
300,263,67269,1,2,0:0:0:0:
278,127,67409,6,0,P|321:110|378:123,1,100,0|2,0:0|0:0,0:0:0:0:
421,179,67830,1,2,0:0:0:0:
249,190,67970,2,0,L|256:140,1,50,8|0,0:0|0:0,0:0:0:0:
261,66,68250,1,0,0:0:0:0:
91,53,68531,2,0,L|104:152,1,100,2|2,0:0|0:0,0:0:0:0:
64,215,68951,1,2,0:0:0:0:
178,252,69091,2,0,P|153:256|128:256,1,50,8|2,0:0|0:0,0:0:0:0:
287,305,69372,2,0,P|262:300|237:300,1,50,2|2,0:0|0:0,0:0:0:0:
426,321,69652,5,8,0:0:0:0:
353,341,69792,1,2,0:0:0:0:
302,168,69933,1,2,0:0:0:0:
373,146,70073,1,2,0:0:0:0:
287,305,70213,1,10,0:0:0:0:
266,233,70353,1,2,0:0:0:0:
440,182,70493,1,2,0:0:0:0:
461,254,70634,1,2,0:0:0:0:
312,258,70774,5,8,0:0:0:0:
403,204,70914,1,2,0:0:0:0:
361,300,71054,1,2,0:0:0:0:
338,198,71194,1,0,0:0:0:0:
417,267,71334,1,8,0:0:0:0:
366,246,71615,5,4,0:3:0:0:
366,246,71895,6,0,P|288:262|191:202,1,194.999991073609,6|0,0:0|0:0,0:0:0:0:
150,117,72456,2,0,B|138:85|138:85|231:106,1,129.999994049073,8|2,0:0|0:0,0:0:0:0:
421,153,73017,1,2,0:0:0:0:
239,223,73297,1,0,0:0:0:0:
386,95,73577,2,0,P|432:87|463:204,1,194.999991073609,8|0,0:0|0:0,0:0:0:0:
370,223,74138,6,0,B|347:278|347:278|290:313|216:296,1,194.999991073609,2|0,0:0|0:0,0:0:0:0:
178,206,74699,2,0,P|114:191|50:195,1,129.999994049073,8|2,0:0|0:0,0:0:0:0:
192,330,75260,2,0,L|335:343,1,129.999994049073,2|0,0:0|0:0,0:0:0:0:
496,255,75820,2,0,B|367:267|367:267|402:248|414:202,1,194.999991073609,8|0,0:0|0:0,0:0:0:0:
238,135,76381,6,0,P|283:209|350:153,1,194.999991073609,2|0,0:0|0:0,0:0:0:0:
305,67,76942,2,0,B|216:61|216:61|180:81,1,129.999994049073,8|2,0:0|0:0,0:0:0:0:
32,208,77503,1,2,0:0:0:0:
78,19,77783,1,0,0:0:0:0:
100,213,78063,2,0,B|93:255|57:272|57:272|59:311|117:337|149:327,1,194.999991073609,8|0,0:0|0:0,0:0:0:0:
191,238,78624,6,0,P|269:192|337:252,1,194.999991073609,2|0,0:0|0:0,0:0:0:0:
260,313,79185,2,0,L|267:183,1,129.999994049073,8|2,0:0|0:0,0:0:0:0:
387,29,79746,1,2,0:0:0:0:
424,220,80026,1,0,0:0:0:0:
306,65,80306,2,0,B|234:35|144:44|144:44|155:71,1,194.999991073609,8|0,0:0|0:0,0:0:0:0:
215,149,80867,6,0,P|123:163|59:93,1,194.999991073609,2|0,0:0|0:0,0:0:0:0:
155,71,81428,2,0,L|141:209,1,129.999994049073,8|2,0:0|0:0,0:0:0:0:
266,351,81989,2,0,L|252:213,1,129.999994049073,2|0,0:0|0:0,0:0:0:0:
72,149,82549,2,0,L|86:287,1,129.999994049073,8|0,0:0|0:0,0:0:0:0:
324,145,83110,6,0,P|249:137|155:224,1,194.999991073609,2|0,0:0|0:0,0:0:0:0:
199,299,83671,2,0,B|296:313|296:313|339:306,1,129.999994049073,8|2,0:0|0:0,0:0:0:0:
482,188,84232,1,2,0:0:0:0:
294,240,84512,1,0,0:0:0:0:
486,271,84792,2,0,P|477:180|384:127,1,194.999991073609,8|0,0:0|0:0,0:0:0:0:
334,51,85353,6,0,B|296:82|295:131|295:131|243:126|243:126|196:147,1,194.999991073609,2|0,0:0|0:0,0:0:0:0:
132,221,85914,2,0,P|101:156|119:93,1,129.999994049073,8|2,0:0|0:0,0:0:0:0:
243,248,86475,2,0,L|209:381,1,129.999994049073,2|0,0:0|0:0,0:0:0:0:
380,278,87035,2,0,L|347:152,1,129.999994049073,8|0,0:0|0:0,0:0:0:0:
128,117,87596,6,0,P|156:207|242:247,1,194.999991073609,2|0,0:0|0:0,0:0:0:0:
291,162,88157,2,0,L|258:36,1,129.999994049073,8|2,0:0|0:0,0:0:0:0:
451,66,88718,1,4,0:3:0:0:
472,141,88858,1,4,0:3:0:0:
454,217,88998,1,4,0:3:0:0:
404,276,89138,1,4,0:3:0:0:
215,299,89278,5,8,0:3:0:0:
243,171,89419,1,8,0:3:0:0:
370,201,89559,1,8,0:3:0:0:
341,327,89699,1,8,0:3:0:0:
150,167,89839,6,0,P|204:92|297:98,1,194.999991073609,6|0,0:0|0:0,0:0:0:0:
306,195,90400,2,0,P|330:253|392:264,1,129.999994049073,8|2,0:0|0:0,0:0:0:0:
474,87,90961,1,2,0:0:0:0:
500,279,91241,1,0,0:0:0:0:
377,128,91521,2,0,B|316:90|316:90|245:90|208:140,1,194.999991073609,8|0,0:0|0:0,0:0:0:0:
238,234,92082,6,0,P|154:221|108:121,1,194.999991073609,2|0,0:0|0:0,0:0:0:0:
118,227,92643,2,0,B|91:328|91:328|130:313,1,129.999994049073,8|2,0:0|0:0,0:0:0:0:
309,332,93204,2,0,P|259:320|179:331,1,129.999994049073,2|0,0:0|0:0,0:0:0:0:
376,319,93764,2,0,B|399:328|399:328|374:232|374:232|390:206|389:164,1,194.999991073609,8|0,0:0|0:0,0:0:0:0:
177,163,94325,6,0,B|319:184|319:184|321:158|312:133,1,194.999991073609,2|0,0:0|0:0,0:0:0:0:
248,207,94886,2,0,P|243:257|252:343,1,129.999994049073,8|2,0:0|0:0,0:0:0:0:
434,271,95447,1,2,0:0:0:0:
401,78,95727,1,0,0:0:0:0:
213,129,96007,2,0,B|279:122|279:122|285:155|313:171|313:171|339:148|377:147,1,194.999991073609,8|0,0:0|0:0,0:0:0:0:
376,245,96568,6,0,B|339:268|285:268|247:242|247:242|219:255|201:278,1,194.999991073609,2|0,0:0|0:0,0:0:0:0:
112,235,97129,2,0,P|104:301|136:356,1,129.999994049073,8|2,0:0|0:0,0:0:0:0:
200,170,97690,1,2,0:0:0:0:
13,114,97970,1,0,0:0:0:0:
205,83,98250,2,0,P|275:120|269:232,1,194.999991073609,8|0,0:0|0:0,0:0:0:0:
320,139,98811,6,0,B|350:126|350:126|448:135|448:135|425:163|426:194,1,194.999991073609,2|0,0:0|0:0,0:0:0:0:
473,280,99372,2,0,B|443:293|443:293|314:280,1,129.999994049073,8|2,0:0|0:0,0:0:0:0:
160,223,99933,2,0,P|222:206|286:215,1,129.999994049073,2|0,0:0|0:0,0:0:0:0:
114,307,100493,2,0,L|70:175,1,129.999994049073,8|0,0:0|0:0,0:0:0:0:
192,29,101054,6,0,B|150:153|150:153|184:160|213:151,1,194.999991073609,2|0,0:0|0:0,0:0:0:0:
295,99,101615,2,0,P|356:91|424:108,1,129.999994049073,8|2,0:0|0:0,0:0:0:0:
510,282,102176,1,2,0:0:0:0:
356,162,102456,1,0,0:0:0:0:
460,326,102736,2,0,P|368:356|277:326,1,194.999991073609,8|0,0:0|0:0,0:0:0:0:
154,337,103297,6,0,B|256:311|256:311|233:270|241:224,1,194.999991073609,2|0,0:0|0:0,0:0:0:0:
184,144,103858,2,0,P|246:130|306:152,1,129.999994049073,8|2,0:0|0:0,0:0:0:0:
412,317,104419,1,2,0:0:0:0:
241,224,104699,1,0,0:0:0:0:
435,244,104979,2,0,P|426:334|337:347,1,194.999991073609,8|0,0:0|0:0,0:0:0:0:
247,307,105540,6,0,P|183:304|120:320,1,129.999994049073,2|0,0:0|0:0,0:0:0:0:
304,254,106101,2,0,P|246:224|182:212,1,129.999994049073,8|2,0:0|0:0,0:0:0:0:
375,240,106662,1,4,0:3:0:0:
387,163,106802,1,4,0:3:0:0:
303,114,106942,1,4,0:3:0:0:
315,191,107082,1,4,0:3:0:0:
421,222,107222,5,8,0:3:0:0:
436,126,107362,1,8,0:3:0:0:
255,70,107503,1,8,0:3:0:0:
270,166,107643,1,8,0:3:0:0:
150,45,107783,6,0,P|69:49|13:106,1,165.000005035401,4|0,0:0|0:0,0:0:0:0:
29,170,108344,2,0,P|78:196|132:195,1,110.000003356934,8|2,0:0|0:0,0:0:0:0:
230,106,108905,2,0,B|147:191|147:191|191:178,1,165.000005035401,2|0,0:0|0:0,0:0:0:0:
257,174,109465,2,0,L|394:184,1,110.000003356934,8|0,0:0|0:0,0:0:0:0:
497,207,110026,5,2,0:0:0:0:
317,101,110306,1,0,0:0:0:0:
421,244,110587,1,8,0:0:0:0:
349,37,110867,1,2,0:0:0:0:
349,37,111148,2,0,P|270:41|241:113,1,165.000005035401,2|0,0:0|0:0,0:0:0:0:
239,179,111708,2,0,L|180:83,1,110.000003356934,8|0,0:0|0:0,0:0:0:0:
199,250,112269,6,0,P|268:205|349:202,1,165.000005035401,2|0,0:0|0:0,0:0:0:0:
407,236,112830,2,0,B|385:202|385:202|393:133,1,110.000003356934,8|2,0:0|0:0,0:0:0:0:
495,290,113391,2,0,P|424:330|345:313,1,165.000005035401,2|0,0:0|0:0,0:0:0:0:
296,270,113951,2,0,B|214:282|214:282|180:306,1,110.000003356934,8|0,0:0|0:0,0:0:0:0:
81,371,114512,5,2,0:0:0:0:
145,196,114792,1,0,0:0:0:0:
148,350,115073,1,8,0:0:0:0:
97,136,115353,1,2,0:0:0:0:
97,136,115634,2,0,P|175:129|222:194,1,165.000005035401,2|0,0:0|0:0,0:0:0:0:
232,257,116194,2,0,B|248:192|248:192|284:146,1,110.000003356934,8|0,0:0|0:0,0:0:0:0:
339,42,116755,5,2,0:0:0:0:
355,196,117035,1,0,0:0:0:0:
215,133,117316,1,8,0:0:0:0:
420,54,117596,1,2,0:0:0:0:
420,54,117877,2,0,B|435:82|452:99|452:99|440:121|440:121|452:162|425:204,1,165.000005035401,2|0,0:0|0:0,0:0:0:0:
354,196,118437,2,0,P|405:211|424:261,1,110.000003356934,8|0,0:0|0:0,0:0:0:0:
205,235,118998,6,0,B|354:195|354:195|325:168|322:138,1,220.000006713867,2|8,0:0|0:0,0:0:0:0:
448,99,119839,1,2,0:0:0:0:
281,43,120120,2,0,L|172:31,1,110.000003356934,2|0,0:0|0:0,0:0:0:0:
37,126,120680,2,0,L|146:114,1,110.000003356934,8|0,0:0|0:0,0:0:0:0:
105,269,121241,6,0,B|64:215|90:157|90:157|104:176|126:183,1,165.000005035401,2|0,0:0|0:0,0:0:0:0:
192,189,121802,2,0,P|227:148|231:94,1,110.000003356934,8|2,0:0|0:0,0:0:0:0:
115,30,122362,2,0,P|189:61|290:37,1,165.000005035401,2|0,0:0|0:0,0:0:0:0:
335,64,122923,2,0,B|333:40|333:40|419:54,1,110.000003356934,8|0,0:0|0:0,0:0:0:0:
467,177,123484,6,0,B|357:160|357:160|372:219,1,165.000005035401,2|0,0:0|0:0,0:0:0:0:
404,270,124045,2,0,P|362:235|308:234,1,110.000003356934,8|2,0:0|0:0,0:0:0:0:
164,334,124605,1,2,0:0:0:0:
272,351,124745,1,2,0:0:0:0:
289,242,124885,1,2,0:0:0:0:
180,226,125026,1,2,0:0:0:0:
227,287,125166,5,8,0:3:0:0:
244,179,125306,1,8,0:3:0:0:
135,162,125446,1,8,0:3:0:0:
119,271,125587,1,8,0:3:0:0:
202,106,125727,5,6,0:0:0:0:
202,106,125867,1,0,0:0:0:0:
78,90,126007,1,2,0:0:0:0:
78,90,126147,1,2,0:0:0:0:
266,34,126288,2,0,P|314:44|351:76,1,100,0|0,0:0|0:0,0:0:0:0:
352,77,126848,1,2,0:0:0:0:
358,147,126989,1,2,0:0:0:0:
446,236,127129,1,0,0:0:0:0:
458,167,127269,1,0,0:0:0:0:
381,284,127409,2,0,P|420:313|469:314,1,100,2|2,0:0|0:0,0:0:0:0:
495,299,127830,1,2,0:0:0:0:
342,345,127970,5,2,0:0:0:0:
342,345,128110,1,0,0:0:0:0:
205,324,128250,1,2,0:0:0:0:
205,324,128390,1,2,0:0:0:0:
364,348,128531,2,0,L|347:244,1,100
348,249,129091,1,2,0:0:0:0:
281,226,129232,1,2,0:0:0:0:
156,163,129372,1,0,0:0:0:0:
223,140,129513,1,0,0:0:0:0:
106,220,129652,2,0,P|82:177|94:117,1,100,2|2,0:0|0:0,0:0:0:0:
107,105,130073,1,2,0:0:0:0:
206,211,130213,6,0,L|219:322,1,100,0|2,0:0|0:0,0:0:0:0:
221,335,130634,1,0,0:0:0:0:
317,240,130774,2,0,L|330:129,1,100,2|2,0:0|0:0,0:0:0:0:
332,116,131195,1,2,0:0:0:0:
262,272,131334,2,0,P|301:300|349:294,1,100,0|0,0:0|0:0,0:0:0:0:
444,215,131755,2,0,P|404:186|356:192,1,100,2|2,0:0|0:0,0:0:0:0:
389,249,132176,1,2,0:0:0:0:
389,249,132316,1,0,0:0:0:0:
412,106,132456,5,2,0:0:0:0:
424,37,132596,1,2,0:0:0:0:
478,82,132736,1,0,0:0:0:0:
359,62,132877,2,0,L|304:66,1,50,2|0,0:0|0:0,0:0:0:0:
213,137,133157,1,0,0:0:0:0:
213,36,133297,1,2,0:0:0:0:
299,87,133437,1,2,0:0:0:0:
120,73,133577,2,0,L|66:68,1,50,2|2,0:0|0:0,0:0:0:0:
247,153,133858,2,0,L|301:148,1,50,0|2,0:0|0:0,0:0:0:0:
102,196,134138,2,0,P|152:194|191:224,1,100,8|2,0:0|0:0,0:0:0:0:
124,277,134559,1,2,0:0:0:0:
286,211,134699,6,0,L|385:224,1,100,4|2,0:0|0:0,0:0:0:0:
447,258,135120,1,2,0:0:0:0:
273,272,135260,2,0,B|287:231|287:231|281:154,1,100,8|0,0:0|0:0,0:0:0:0:
235,123,135680,1,0,0:0:0:0:
397,92,135820,2,0,L|338:84,1,50,2|0,0:0|0:0,0:0:0:0:
214,33,136101,1,2,0:0:0:0:
328,84,136241,1,2,0:0:0:0:
145,52,136381,2,0,P|96:53|51:73,1,100,8|2,0:0|0:0,0:0:0:0:
19,136,136802,1,0,0:0:0:0:
126,248,136942,5,2,0:0:0:0:
115,141,137082,1,2,0:0:0:0:
132,252,137222,1,0,0:0:0:0:
121,145,137362,1,2,0:0:0:0:
137,257,137503,1,8,0:0:0:0:
55,144,137643,1,0,0:0:0:0:
187,187,137783,1,2,0:0:0:0:
55,230,137923,1,2,0:0:0:0:
137,118,138063,2,0,P|162:105|187:101,1,50,0|0,0:0|0:0,0:0:0:0:
329,62,138344,2,0,P|304:56|282:45,1,50,2|2,0:0|0:0,0:0:0:0:
463,112,138624,1,8,0:0:0:0:
379,145,138764,1,2,0:0:0:0:
345,62,138904,1,2,0:0:0:0:
429,28,139045,1,2,0:0:0:0:
374,162,139185,6,0,B|367:199|367:199|384:258,1,100,4|2,0:0|0:0,0:0:0:0:
390,278,139746,1,8,0:0:0:0:
320,261,139886,1,0,0:0:0:0:
272,312,140026,1,2,0:0:0:0:
293,379,140166,1,2,0:0:0:0:
310,253,140306,2,0,P|261:244|217:266,1,100,0|2,0:0|0:0,0:0:0:0:
200,335,140727,1,2,0:0:0:0:
258,219,140867,2,0,L|263:169,1,50,8|0,0:0|0:0,0:0:0:0:
141,234,141148,2,0,L|146:283,1,50,2|2,0:0|0:0,0:0:0:0:
181,169,141428,5,0,0:0:0:0:
96,172,141568,1,0,0:0:0:0:
205,52,141708,1,2,0:0:0:0:
137,103,141848,1,2,0:0:0:0:
266,90,141989,2,0,P|274:66|276:41,1,50,8|0,0:0|0:0,0:0:0:0:
81,66,142269,2,0,P|73:89|71:114,1,50,2|2,0:0|0:0,0:0:0:0:
179,249,142549,1,8,0:3:0:0:
230,163,142689,1,8,0:3:0:0:
73,127,142829,1,4,0:3:0:0:
82,227,142969,1,4,0:3:0:0:
165,88,143110,2,0,L|161:32,1,50,8|8,0:3|0:3,0:0:0:0:
260,139,143391,2,0,L|256:188,1,50,8|8,0:3|0:3,0:0:0:0:
245,328,143671,5,4,0:0:0:0:
113,162,152643,6,0,L|226:181,1,100,4|2,0:0|0:0,0:0:0:0:
264,232,153063,1,2,0:0:0:0:
362,147,153204,2,0,P|367:122|366:97,1,50,8|0,0:0|0:0,0:0:0:0:
335,30,153484,1,2,0:0:0:0:
298,174,153764,2,0,P|334:208|383:211,1,100,0|2,0:0|0:0,0:0:0:0:
501,118,154325,1,8,0:0:0:0:
466,238,154465,2,0,L|469:188,1,50,2|0,0:0|0:0,0:0:0:0:
401,322,154886,6,0,P|360:334|301:330,1,100,0|2,0:0|0:0,0:0:0:0:
236,296,155306,1,2,0:0:0:0:
236,296,155447,2,0,B|163:288|163:288|136:295,1,100,8|2,0:0|0:0,0:0:0:0:
9,372,156007,1,0,0:0:0:0:
33,223,156288,1,2,0:0:0:0:
176,180,156568,1,10,0:0:0:0:
249,196,156708,1,2,0:0:0:0:
141,107,156848,1,0,0:0:0:0:
90,162,156988,1,2,0:0:0:0:
222,113,157129,5,0,0:0:0:0:
199,41,157269,1,2,0:0:0:0:
249,196,157409,2,0,L|265:257,1,50,2|0,0:0|0:0,0:0:0:0:
395,122,157690,2,0,P|346:117|299:134,1,100,8|0,0:0|0:0,0:0:0:0:
368,268,158250,2,0,B|359:192|359:192|384:215,1,100,2|2,0:0|0:0,0:0:0:0:
432,261,158671,1,2,0:0:0:0:
432,261,158811,2,0,P|420:308|379:333,1,100,8|2,0:0|0:0,0:0:0:0:
307,311,159232,1,2,0:0:0:0:
116,289,159372,5,8,0:0:0:0:
96,217,159512,1,2,0:0:0:0:
152,62,159652,1,2,0:0:0:0:
172,134,159792,1,2,0:0:0:0:
21,160,159933,1,10,0:0:0:0:
93,140,160073,1,2,0:0:0:0:
248,196,160213,1,2,0:0:0:0:
176,216,160353,1,2,0:0:0:0:
334,141,160493,5,10,0:0:0:0:
344,163,160563,1,2,0:0:0:0:
349,188,160633,1,2,0:0:0:0:
348,212,160703,1,2,0:0:0:0:
341,236,160773,1,2,0:0:0:0:
328,258,160843,1,2,0:0:0:0:
311,276,160913,1,2,0:0:0:0:
290,289,160983,1,2,0:0:0:0:
266,297,161053,1,10,0:0:0:0:
117,314,161334,5,4,0:3:0:0:
465,227,161615,6,0,P|457:138|358:120,1,194.999991073609,6|0,0:0|0:0,0:0:0:0:
269,126,162176,2,0,B|177:101|177:101|203:78,1,129.999994049073,8|2,0:0|0:0,0:0:0:0:
395,43,162736,1,2,0:0:0:0:
283,203,163017,1,0,0:0:0:0:
361,24,163297,2,0,P|438:44|457:169,1,194.999991073609,8|0,0:0|0:0,0:0:0:0:
392,208,163858,6,0,B|407:237|445:253|476:247|476:247|462:297|462:297|490:348,1,194.999991073609,2|0,0:0|0:0,0:0:0:0:
387,353,164419,2,0,B|346:275|346:275|324:270|304:274,1,129.999994049073,8|2,0:0|0:0,0:0:0:0:
122,343,164979,2,0,P|63:327|28:253,1,129.999994049073,2|0,0:0|0:0,0:0:0:0:
128,102,165540,2,0,B|143:171|114:259|114:259|188:244,1,194.999991073609,8|0,0:0|0:0,0:0:0:0:
210,175,166101,6,0,B|200:190|198:206|198:206|290:191|290:191|317:212|354:207,1,194.999991073609,2|0,0:0|0:0,0:0:0:0:
345,110,166662,2,0,P|419:108|460:72,1,129.999994049073,8|2,0:0|0:0,0:0:0:0:
264,73,167222,1,2,0:0:0:0:
429,177,167503,1,0,0:0:0:0:
277,52,167783,2,0,P|182:48|111:111,1,194.999991073609,8|0,0:0|0:0,0:0:0:0:
18,141,168344,6,0,B|132:156|132:156|166:182|167:225,1,194.999991073609,2|0,0:0|0:0,0:0:0:0:
85,278,168905,2,0,L|214:263,1,129.999994049073,8|2,0:0|0:0,0:0:0:0:
407,287,169465,1,2,0:0:0:0:
193,346,169746,1,0,0:0:0:0:
445,348,170026,2,0,P|473:261|396:213,1,194.999991073609,8|0,0:0|0:0,0:0:0:0:
314,265,170587,6,0,B|184:247|184:247|143:268|99:264,1,194.999991073609,2|0,0:0|0:0,0:0:0:0:
65,185,171148,2,0,P|119:152|184:154,1,129.999994049073,8|2,0:0|0:0,0:0:0:0:
374,197,171708,2,0,B|277:206|277:206|243:201,1,129.999994049073,2|0,0:0|0:0,0:0:0:0:
400,318,172269,2,0,P|342:295|322:235,1,129.999994049073,8|0,0:0|0:0,0:0:0:0:
509,63,172830,6,0,B|415:118|415:118|373:120|341:80,1,194.999991073609,2|0,0:0|0:0,0:0:0:0:
255,128,173391,2,0,P|195:106|131:110,1,129.999994049073,8|2,0:0|0:0,0:0:0:0:
6,259,173951,1,2,0:0:0:0:
183,176,174232,1,0,0:0:0:0:
57,324,174512,2,0,P|15:229|99:208,1,194.999991073609,8|0,0:0|0:0,0:0:0:0:
285,241,175073,6,0,P|208:295|117:270,1,194.999991073609,2|0,0:0|0:0,0:0:0:0:
194,210,175634,2,0,B|177:122|177:122|192:72,1,129.999994049073,8|2,0:0|0:0,0:0:0:0:
381,112,176194,2,0,P|314:124|243:121,1,129.999994049073,2|0,0:0|0:0,0:0:0:0:
435,192,176755,2,0,L|449:52,1,129.999994049073,8|0,0:0|0:0,0:0:0:0:
480,295,177316,6,0,P|387:300|331:224,1,194.999991073609,2|0,0:0|0:0,0:0:0:0:
233,221,177877,2,0,B|255:127|255:127|249:86,1,129.999994049073,8|2,0:0|0:0,0:0:0:0:
47,53,178437,1,4,0:3:0:0:
57,130,178577,1,4,0:3:0:0:
67,207,178718,1,4,0:3:0:0:
79,284,178858,1,4,0:3:0:0:
308,329,178998,5,8,0:3:0:0:
107,339,179138,1,8,0:3:0:0:
323,300,179278,1,8,0:3:0:0:
92,310,179418,1,8,0:3:0:0:
334,272,179559,6,0,B|427:260|427:260|471:228|469:172,1,194.999991073609,6|0,0:0|0:0,0:0:0:0:
410,94,180120,2,0,B|380:116|375:158|393:191|393:191|370:193,1,129.999994049073,8|2,0:0|0:0,0:0:0:0:
177,215,180680,1,2,0:0:0:0:
326,89,180961,1,0,0:0:0:0:
230,259,181241,2,0,P|142:273|115:187,1,194.999991073609,8|0,0:0|0:0,0:0:0:0:
66,102,181802,6,0,P|134:93|216:178,1,194.999991073609,2|0,0:0|0:0,0:0:0:0:
184,85,182362,2,0,L|313:74,1,129.999994049073,8|2,0:0|0:0,0:0:0:0:
483,171,182923,2,0,L|353:160,1,129.999994049073,2|0,0:0|0:0,0:0:0:0:
211,295,183484,2,0,B|286:317|356:287|356:287|312:245,1,194.999991073609,8|0,0:0|0:0,0:0:0:0:
228,227,184045,6,0,B|208:359|208:359|173:360|153:334,1,194.999991073609,2|0,0:0|0:0,0:0:0:0:
56,345,184605,2,0,P|70:283|124:243,1,129.999994049073,8|2,0:0|0:0,0:0:0:0:
314,218,185166,1,2,0:0:0:0:
133,144,185447,1,0,0:0:0:0:
325,114,185727,2,0,B|376:130|434:107|434:107|417:134|417:134|450:142|468:167,1,194.999991073609,8|0,0:0|0:0,0:0:0:0:
489,254,186288,6,0,P|461:315|332:319,1,194.999991073609,2|0,0:0|0:0,0:0:0:0:
256,287,186848,2,0,B|339:253|339:253|377:263,1,129.999994049073,8|2,0:0|0:0,0:0:0:0:
208,360,187409,1,2,0:0:0:0:
250,169,187690,1,0,0:0:0:0:
136,327,187970,2,0,B|93:339|56:322|56:322|66:294|66:294|39:255|59:214,1,194.999991073609,8|0,0:0|0:0,0:0:0:0:
227,270,188531,6,0,P|193:192|126:244,1,194.999991073609,2|0,0:0|0:0,0:0:0:0:
183,165,189091,2,0,B|175:120|175:120|123:53,1,129.999994049073,8|2,0:0|0:0,0:0:0:0:
261,191,189652,2,0,P|317:157|381:150,1,129.999994049073,2|0,0:0|0:0,0:0:0:0:
369,345,190213,2,0,L|342:217,1,129.999994049073,8|0,0:0|0:0,0:0:0:0:
126,308,190774,6,0,P|195:348|293:292,1,194.999991073609,2|0,0:0|0:0,0:0:0:0:
205,250,191334,2,0,B|124:286|124:286|127:244,1,129.999994049073,8|2,0:0|0:0,0:0:0:0:
322,228,191895,1,2,0:0:0:0:
138,161,192176,1,0,0:0:0:0:
333,163,192456,2,0,P|386:202|321:295,1,194.999991073609,8|0,0:0|0:0,0:0:0:0:
501,237,193017,6,0,B|391:225|391:225|427:195|436:156,1,194.999991073609,2|0,0:0|0:0,0:0:0:0:
399,66,193577,2,0,B|363:54|363:54|271:67,1,129.999994049073,8|2,0:0|0:0,0:0:0:0:
77,93,194138,2,0,P|139:115|203:110,1,129.999994049073,2|0,0:0|0:0,0:0:0:0:
91,271,194699,2,0,L|121:144,1,129.999994049073,8|0,0:0|0:0,0:0:0:0:
329,221,195260,6,0,B|286:228|286:228|243:217|243:217|202:226,1,129.999994049073,2|0,0:0|0:0,0:0:0:0:
420,192,195820,2,0,B|392:290|392:290|437:281,1,129.999994049073,8|2,0:0|0:0,0:0:0:0:
480,99,196381,1,4,0:3:0:0:
379,76,196521,1,4,0:3:0:0:
308,152,196661,1,4,0:3:0:0:
338,251,196801,1,4,0:3:0:0:
440,275,196942,5,8,0:3:0:0:
510,198,197082,1,8,0:3:0:0:
338,251,197222,1,8,0:3:0:0:
510,198,197362,1,8,0:3:0:0:
409,177,197503,5,4,0:0:0:0:
446,226,206475,6,0,P|351:208|267:259,1,200,4|0,0:0|0:0,0:0:0:0:
132,324,207316,1,0,0:0:0:0:
57,333,207456,1,0,0:0:0:0:
198,282,207596,2,0,L|313:293,1,100,8|0,0:0|0:0,0:0:0:0:
361,331,208017,1,0,0:0:0:0:
417,192,208157,2,0,P|431:239|421:287,1,100,0|2,0:0|0:0,0:0:0:0:
505,163,208718,6,0,B|359:186|359:186|308:179,1,200,0|0,0:0|0:0,0:0:0:0:
162,144,209559,1,0,0:0:0:0:
88,157,209699,1,0,0:0:0:0:
183,80,209839,2,0,P|220:112|227:166,1,100,8|0,0:0|0:0,0:0:0:0:
179,217,210260,1,0,0:0:0:0:
105,230,210400,1,0,0:0:0:0:
250,269,210680,1,8,0:0:0:0:
324,282,210820,1,8,0:0:0:0:
174,297,210961,6,0,B|234:209|234:209|279:184|323:200,1,200,2|0,0:0|0:0,0:0:0:0:
439,297,211802,1,2,0:0:0:0:
456,148,212082,2,0,P|454:207|420:241,1,100,8|0,0:0|0:0,0:0:0:0:
386,174,212503,1,0,0:0:0:0:
386,174,212643,1,0,0:0:0:0:
381,144,213484,5,8,0:3:0:0:
231,157,213764,1,8,0:3:0:0:
441,155,214045,1,8,0:3:0:0:
170,145,214325,1,8,0:3:0:0:
488,111,214605,1,8,0:3:0:0:
123,189,214885,5,4,0:3:0:0:
60,254,215026,1,4,0:3:0:0:
174,359,215166,1,8,0:3:0:0:
237,294,215307,1,8,0:3:0:0:
60,254,215447,6,0,B|114:243|161:255|161:255|209:222|209:222|268:214,1,209.999993591309,6|0,0:0|0:0,0:0:0:0:
346,285,216007,2,0,P|300:233|302:165,1,139.999995727539,8|2,0:0|0:0,0:0:0:0:
470,15,216568,1,2,0:0:0:0:
464,238,216848,1,0,0:0:0:0:
350,44,217129,2,0,B|276:31|214:52|214:52|230:83|230:83|212:94|207:111,1,209.999993591309,8|0,0:0|0:0,0:0:0:0:
253,214,217690,6,0,P|153:203|100:116,1,209.999993591309,2|0,0:0|0:0,0:0:0:0:
139,222,218250,2,0,L|118:360,1,139.999995727539,8|2,0:0|0:0,0:0:0:0:
265,146,218811,2,0,L|286:284,1,139.999995727539,2|0,0:0|0:0,0:0:0:0:
440,121,219372,2,0,P|342:130|315:225,1,209.999993591309,8|0,0:0|0:0,0:0:0:0:
497,169,219933,6,0,B|443:44|443:44|368:36,1,209.999993591309,2|0,0:0|0:0,0:0:0:0:
265,76,220493,2,0,L|120:91,1,139.999995727539,8|2,0:0|0:0,0:0:0:0:
19,288,221054,1,2,0:0:0:0:
204,161,221334,1,0,0:0:0:0:
71,342,221615,2,0,B|108:362|154:354|154:354|189:325|189:325|230:315|266:331,1,209.999993591309,8|0,0:0|0:0,0:0:0:0:
349,255,222176,6,0,P|432:268|512:177,1,209.999993591309,2|0,0:0|0:0,0:0:0:0:
402,157,222736,2,0,L|430:18,1,139.999995727539,8|2,0:0|0:0,0:0:0:0:
233,129,223297,2,0,L|260:266,1,139.999995727539,2|0,0:0|0:0,0:0:0:0:
46,199,223858,2,0,P|113:214|179:195,1,139.999995727539,8|0,0:0|0:0,0:0:0:0:
367,72,224419,6,0,P|279:94|320:176,1,209.999993591309,2|0,0:0|0:0,0:0:0:0:
432,174,224979,2,0,P|485:210|500:283,1,139.999995727539,8|2,0:0|0:0,0:0:0:0:
276,264,225540,1,2,0:0:0:0:
480,355,225820,1,0,0:0:0:0:
289,236,226101,2,0,B|154:231|154:231|115:221|91:192,1,209.999993591309,8|0,0:0|0:0,0:0:0:0:
200,162,226662,6,0,B|306:164|306:164|342:181,1,139.999995727539,2|0,0:0|0:0,0:0:0:0:
174,331,227222,2,0,B|67:328|67:328|37:314,1,139.999995727539,8|2,0:0|0:0,0:0:0:0:
254,260,227783,2,0,P|282:321|348:333,1,139.999995727539,2|0,0:0|0:0,0:0:0:0:
360,109,228344,2,0,B|327:264|327:264|370:236,1,209.999993591309,8|0,0:0|0:0,0:0:0:0:
411,43,228905,6,0,P|314:35|277:126,1,209.999993591309,2|0,0:0|0:0,0:0:0:0:
376,179,229465,2,0,L|511:143,1,139.999995727539,8|2,0:0|0:0,0:0:0:0:
378,324,230026,2,0,L|242:288,1,139.999995727539,2|0,0:0|0:0,0:0:0:0:
19,308,230587,2,0,P|119:312|180:231,1,209.999993591309,8|0,0:0|0:0,0:0:0:0:
59,67,231148,6,0,L|71:207,1,139.999995727539,2|0,0:0|0:0,0:0:0:0:
276,119,231708,2,0,P|206:111|139:129,1,139.999995727539,8|2,0:0|0:0,0:0:0:0:
331,246,232269,1,4,0:3:0:0:
378,27,232549,1,4,0:3:0:0:
433,244,232830,2,0,B|428:282|449:309|449:309|419:337|382:328|382:328|346:317|314:332,1,209.999993591309,8|0,0:3|0:0,0:0:0:0:
98,349,233391,6,0,P|57:262|140:210,1,209.999993591309,6|0,0:0|0:0,0:0:0:0:
154,127,233951,2,0,L|173:269,1,139.999995727539,8|2,0:0|0:0,0:0:0:0:
377,357,234512,1,2,0:0:0:0:
233,185,234792,1,0,0:0:0:0:
426,298,235073,2,0,P|503:236|478:139,1,209.999993591309,8|0,0:0|0:0,0:0:0:0:
381,196,235634,6,0,B|271:218|271:218|237:186|242:127,1,209.999993591309,2|0,0:0|0:0,0:0:0:0:
296,30,236194,2,0,P|227:23|162:48,1,139.999995727539,8|2,0:0|0:0,0:0:0:0:
75,254,236755,2,0,L|44:89,1,139.999995727539,2|0,0:0|0:0,0:0:0:0:
250,216,237316,2,0,B|228:325|228:325|272:289|321:300,1,209.999993591309,8|0,0:0|0:0,0:0:0:0:
426,339,237877,6,0,P|415:239|327:190,1,209.999993591309,2|0,0:0|0:0,0:0:0:0:
433,228,238437,2,0,B|455:151|455:151|444:85,1,139.999995727539,8|2,0:0|0:0,0:0:0:0:
229,30,238998,1,2,0:0:0:0:
345,221,239278,1,0,0:0:0:0:
174,75,239559,2,0,B|148:67|125:97|125:97|98:131|55:117|55:117|23:137|14:176,1,209.999993591309,8|0,0:0|0:0,0:0:0:0:
18,289,240120,6,0,B|26:331|55:352|55:352|121:315|139:242,1,209.999993591309,2|0,0:0|0:0,0:0:0:0:
331,294,240680,2,0,P|268:324|198:328,1,139.999995727539,8|2,0:0|0:0,0:0:0:0:
208,104,241241,1,2,0:0:0:0:
385,240,241521,1,0,0:0:0:0:
173,166,241802,2,0,P|144:74|232:38,1,209.999993591309,8|0,0:0|0:0,0:0:0:0:
473,113,242362,6,0,L|263:127,1,209.999993591309,2|0,0:0|0:0,0:0:0:0:
190,214,242923,2,0,L|343:223,1,139.999995727539,8|2,0:0|0:0,0:0:0:0:
111,172,243484,2,0,P|75:112|57:39,1,139.999995727539,2|0,0:0|0:0,0:0:0:0:
114,262,244045,2,0,B|67:351|67:351|36:375,1,139.999995727539,8|0,0:0|0:0,0:0:0:0:
189,214,244605,6,0,P|293:199|394:225,1,209.999993591309,2|0,0:0|0:0,0:0:0:0:
196,299,245166,2,0,L|157:164,1,139.999995727539,8|2,0:0|0:0,0:0:0:0:
320,9,245727,1,2,0:0:0:0:
297,231,246007,1,0,0:0:0:0:
338,10,246288,2,0,P|429:33|461:155,1,209.999993591309,8|0,0:0|0:0,0:0:0:0:
332,246,246848,6,0,B|326:176|356:114|356:114|314:118|314:118|274:98,1,209.999993591309,2|0,0:0|0:0,0:0:0:0:
185,51,247409,2,0,P|113:50|60:95,1,139.999995727539,8|2,0:0|0:0,0:0:0:0:
138,301,247970,2,0,L|157:163,1,139.999995727539,2|0,0:0|0:0,0:0:0:0:
365,234,248531,2,0,B|303:267|303:267|261:273|221:253|212:208|226:177,1,209.999993591309,8|0,0:0|0:0,0:0:0:0:
309,110,249091,6,0,P|368:113|455:93,1,139.999995727539,2|0,0:0|0:0,0:0:0:0:
227,48,249652,2,0,P|168:45|81:65,1,139.999995727539,8|2,0:0|0:0,0:0:0:0:
14,273,250213,1,4,0:3:0:0:
233,316,250493,1,4,0:3:0:0:
157,105,250774,2,0,B|157:134|135:157|135:157|149:192|149:192|116:209|110:247|122:277|146:283,1,209.999993591309,8|8,0:3|0:3,0:0:0:0:
375,271,251334,6,0,P|300:226|213:242,1,179.999994506836,4|0,0:0|0:0,0:0:0:0:
262,296,251895,2,0,L|241:163,1,119.999996337891,8|2,0:0|0:0,0:0:0:0:
383,142,252456,2,0,B|352:163|317:163|317:163|285:145|285:145|242:150|216:126,1,179.999994506836,2|0,0:0|0:0,0:0:0:0:
267,74,253017,2,0,L|125:105,1,119.999996337891,8|0,0:0|0:0,0:0:0:0:
9,129,253577,5,2,0:0:0:0:
140,190,253858,1,0,0:0:0:0:
69,65,254138,1,8,0:0:0:0:
54,208,254419,1,2,0:0:0:0:
149,100,254699,2,0,P|233:71|324:113,1,179.999994506836,2|0,0:0|0:0,0:0:0:0:
376,66,255260,2,0,L|369:185,1,119.999996337891,8|0,0:0|0:0,0:0:0:0:
235,339,255820,6,0,P|315:351|346:255,1,179.999994506836,2|0,0:0|0:0,0:0:0:0:
281,284,256381,2,0,B|198:314|198:314|166:307,1,119.999996337891,8|2,0:0|0:0,0:0:0:0:
27,270,256942,2,0,P|101:222|190:228,1,179.999994506836,2|0,0:0|0:0,0:0:0:0:
247,184,257503,2,0,P|302:206|361:204,1,119.999996337891,8|2,0:0|0:0,0:0:0:0:
466,106,258063,5,2,0:0:0:0:
328,63,258344,1,0,0:0:0:0:
185,75,258624,1,8,0:0:0:0:
410,38,258905,1,2,0:0:0:0:
410,38,259185,2,0,P|392:121|310:146,1,179.999994506836,2|0,0:0|0:0,0:0:0:0:
245,115,259746,2,0,L|125:107,1,119.999996337891,8|0,0:0|0:0,0:0:0:0:
21,207,260306,5,2,0:0:0:0:
143,283,260587,1,0,0:0:0:0:
274,224,260867,1,8,0:0:0:0:
94,226,261148,1,2,0:0:0:0:
94,226,261428,2,0,P|71:309|141:360,1,179.999994506836,2|0,0:0|0:0,0:0:0:0:
204,332,261989,2,0,B|240:320|240:320|321:326,1,119.999996337891,8|0,0:0|0:0,0:0:0:0:
435,238,262549,6,0,B|287:226|287:226|331:188|322:140,1,239.999992675781,2|8,0:0|0:0,0:0:0:0:
239,28,263391,1,2,0:0:0:0:
135,128,263671,2,0,P|206:160|252:158,1,119.999996337891,2|0,0:0|0:0,0:0:0:0:
135,67,264232,2,0,B|91:139|91:139|87:174,1,119.999996337891,8|0,0:0|0:0,0:0:0:0:
3,291,264792,6,0,P|44:217|130:232,1,179.999994506836,2|0,0:0|0:0,0:0:0:0:
77,284,265353,2,0,L|192:250,1,119.999996337891,8|2,0:0|0:0,0:0:0:0:
148,114,265914,2,0,L|332:167,1,179.999994506836,2|0,0:0|0:0,0:0:0:0:
369,110,266475,2,0,P|346:163|363:219,1,119.999996337891,8|0,0:0|0:0,0:0:0:0:
499,268,267035,6,0,B|434:258|434:258|371:281|371:281|324:272,1,179.999994506836,2|0,0:0|0:0,0:0:0:0:
275,325,267596,2,0,P|298:271|281:215,1,119.999996337891,8|2,0:0|0:0,0:0:0:0:
83,266,268157,2,0,B|152:283|232:268|232:268|209:228,1,179.999994506836,2|0,0:0|0:0,0:0:0:0:
181,179,268718,1,8,0:0:0:0:
257,86,269278,5,0,0:0:0:0:
