osu file format v14

[General]
AudioFilename: run.mp3
AudioLeadIn: 0
PreviewTime: 189095
Countdown: 0
SampleSet: Soft
StackLeniency: 0.7
Mode: 0
LetterboxInBreaks: 0
WidescreenStoryboard: 0

[Editor]
DistanceSpacing: 1.2
BeatDivisor: 4
GridSize: 4
TimelineZoom: 1

[Metadata]
Title:RUN
TitleUnicode:RUN
Artist:BTS
ArtistUnicode:방탄소년단
Creator:wasinkingspeedq
Version:Normal
Source:
Tags:Big Hit.entertainment kpop bantansoyeondan Rapmonster Suga Jin Jhope Jimin V Jungkook 화양연화 pt.2 the 4th mini album
BeatmapID:955613
BeatmapSetID:422427

[Difficulty]
HPDrainRate:3
CircleSize:3
OverallDifficulty:3
ApproachRate:4
SliderMultiplier:1.1
SliderTickRate:1

[Events]
//Background and Video events
0,0,"BG3.jpg",0,0
//Break Periods
2,86889,99805
2,159069,171985
//Storyboard Layer 0 (Background)
//Storyboard Layer 1 (Fail)
//Storyboard Layer 2 (Pass)
//Storyboard Layer 3 (Foreground)
//Storyboard Sound Samples

[TimingPoints]
14509,451.127819548872,4,2,1,75,1,0
43381,-100,4,2,2,60,0,0
54208,-100,4,2,0,60,0,0
57817,-100,4,2,1,85,0,1
86689,-100,4,2,2,75,0,0
101125,-100,4,2,1,75,0,0
115561,-100,4,2,1,60,0,0
126388,-100,4,2,0,60,0,0
129997,-100,4,2,1,85,0,1
158869,-100,4,2,0,60,0,0
189546,-100,4,2,1,85,0,1
218418,-100,4,2,1,75,0,0

[Colours]
Combo1 : 255,159,113
Combo2 : 128,255,255
Combo3 : 255,255,128
Combo4 : 192,192,192

[HitObjects]
48,288,14508,6,0,B|84:288|84:288|120:296|120:296|168:296,1,110,0|8,0:0|0:0,0:0:0:0:
256,208,15411,1,0,0:0:0:0:
352,296,15862,1,8,0:0:0:0:
416,180,16313,2,0,B|416:144|416:144|408:108|408:108|408:64,1,110,0|8,0:0|0:0,0:0:0:0:
280,32,17215,2,0,P|216:28|164:48,1,110,0|8,0:0|0:0,0:0:0:0:
184,176,18118,6,0,P|248:180|300:160,1,110,0|8,0:0|0:0,0:0:0:0:
280,32,19020,2,0,B|316:36|316:36|356:32|356:32|400:36,1,110,0|8,0:0|0:0,0:0:0:0:
480,132,19922,1,0,0:0:0:0:
424,252,20373,2,0,L|424:320,2,55,8|0|0,0:0|0:0|0:0,0:0:0:0:
324,164,21275,1,8,0:0:0:0:
260,280,21727,6,0,B|226:276|226:276|186:280|186:280|150:276,1,110,4|8,0:0|0:0,0:0:0:0:
48,192,22629,2,0,P|36:124|52:80,1,110,0|8,0:0|0:0,0:0:0:0:
172,44,23531,2,0,L|236:40,2,55,0|0|8,0:0|0:0|0:0,0:0:0:0:
256,148,24433,2,0,L|376:144,1,110,0|8,0:0|0:0,0:0:0:0:
488,92,25336,6,0,P|500:148|488:208,1,110,0|8,0:0|0:0,0:0:0:0:
408,300,26238,2,0,B|372:296|372:296|332:304|332:304|280:300,1,110,8|0,0:0|0:0,0:0:0:0:
180,244,27140,2,0,L|108:248,2,55,0|8|8,0:0|0:0|0:0,0:0:0:0:
252,136,28042,2,0,P|303:119|354:135,1,110,8|8,0:0|0:0,0:0:0:0:
408,256,28945,6,0,P|356:272|305:256,1,110,4|8,0:0|0:0,0:0:0:0:
252,136,29847,2,0,L|320:132,2,55,0|0|8,0:0|0:0|0:0,0:0:0:0:
156,48,30749,2,0,L|36:52,1,110,0|8,0:0|0:0,0:0:0:0:
142,139,31651,2,0,L|270:135,1,110,0|8,0:0|0:0,0:0:0:0:
324,248,32554,6,0,B|360:252|360:252|400:244|400:244|444:248,1,110,0|8,0:0|0:0,0:0:0:0:
480,124,33456,2,0,L|476:64,2,55,0|0|8,0:0|0:0|0:0,0:0:0:0:
432,246,34358,2,0,L|436:370,1,110,0|8,0:0|0:0,0:0:0:0:
324,284,35260,2,0,L|320:168,1,110,0|8,0:0|0:0,0:0:0:0:
388,60,36163,5,0,0:0:0:0:
452,176,36614,1,8,0:0:0:0:
320,174,37065,2,0,B|284:178|284:178|240:170|240:170|188:174,1,110,0|4,0:0|0:0,0:0:0:0:
112,260,37967,2,0,L|32:264,2,55,0|0|8,0:0|0:0|0:0,0:0:0:0:
204,356,38869,2,0,B|232:356|256:364|256:364|284:356|324:356,1,110,0|4,0:0|0:0,0:0:0:0:
428,292,39772,6,0,P|444:220|408:176,1,110,0|8,0:0|0:0,0:0:0:0:
324,108,40674,2,0,L|444:48,1,110,8|0,0:0|0:0,0:0:0:0:
427,191,41576,2,0,L|328:240,1,110,0|8,0:0|0:0,0:0:0:0:
252,132,42478,1,8,0:0:0:0:
176,240,42930,1,8,0:0:0:0:
52,192,43381,6,0,B|52:156|52:156|60:116|60:116|60:80,1,110,4|0,0:0|0:0,0:0:0:0:
180,28,44283,2,0,L|300:32,1,110,0|8,0:0|0:0,0:0:0:0:
368,136,45185,2,0,L|248:132,1,110
140,192,46087,2,0,P|128:268|144:320,1,110,0|8,0:0|0:0,0:0:0:0:
256,352,46990,5,0,0:0:0:0:
336,248,47441,2,0,B|368:244|368:244|416:252|416:252|452:248,1,110
412,120,48343,1,8,0:0:0:0:
280,100,48794,2,0,L|160:104,1,110
72,192,49696,2,0,L|4:196,2,55,0|0|8,0:0|0:0|0:0,0:0:0:0:
196,232,50599,6,0,P|200:164|172:112,1,110
72,192,51501,2,0,P|68:260|96:312,1,110,0|8,0:0|0:0,0:0:0:0:
200,364,52403,1,0,0:0:0:0:
256,244,52854,2,0,B|292:240|292:240|332:248|332:248|388:244,1,110
424,364,53757,1,8,0:0:0:0:
508,260,54208,6,0,B|516:236|508:204|508:204|500:172|508:144,1,110,10|10,0:0|0:0,0:0:0:0:
388,92,55110,2,0,B|352:88|352:88|312:96|312:96|276:92,1,110,10|10,0:0|0:0,0:0:0:0:
256,224,56012,2,0,L|256:280,2,55,10|10|10,0:0|0:0|0:0,0:0:0:0:
204,52,57817,6,0,B|150:46|150:46|94:54,2,110,4|8|0,0:0|0:0|0:0,0:0:0:0:
256,172,59170,1,8,0:0:0:0:
360,88,59621,2,0,B|392:92|392:92|436:84|436:84|484:88,2,110,0|8|0,0:0|0:0|0:0,0:0:0:0:
256,172,60975,1,8,0:0:0:0:
148,244,61426,6,0,P|128:192|136:128,2,110,0|8|0,0:0|0:0|0:0,0:0:0:0:
256,320,62779,1,8,0:0:0:0:
360,240,63230,2,0,B|416:244|416:244|484:216,1,110,0|8,0:0|0:0,0:0:0:0:
444,92,64133,2,0,B|388:88|388:88|320:116,1,110,0|8,0:0|0:0,0:0:0:0:
256,212,65035,6,0,L|148:184,1,110,0|8,0:0|0:0,0:0:0:0:
28,232,65937,2,0,P|20:164|40:112,1,110,0|8,0:0|0:0,0:0:0:0:
140,52,66839,1,0,0:0:0:0:
256,112,67290,2,0,B|292:108|292:108|332:116|332:116|384:112,1,110,8|0,0:0|0:0,0:0:0:0:
472,192,68193,1,8,0:0:0:0:
424,316,68644,6,0,P|368:352|312:348,1,110,0|8,0:0|0:0,0:0:0:0:
256,240,69546,1,0,0:0:0:0:
185,352,69997,2,0,P|131:348|88:316,1,110,8|0,0:0|0:0,0:0:0:0:
44,192,70899,2,0,B|48:156|48:156|40:116|40:116|44:72,1,110,8|8,0:0|0:0,0:0:0:0:
168,36,71802,1,8,0:0:0:0:
256,132,72253,6,0,P|320:96|368:96,2,110,4|8|0,0:0|0:0|0:0,0:0:0:0:
348,228,73606,1,8,0:0:0:0:
440,136,74057,2,0,P|448:72|416:20,1,110,0|8,0:0|0:0,0:0:0:0:
336,124,74960,2,0,P|328:188|360:240,1,110,0|8,0:0|0:0,0:0:0:0:
428,332,75862,6,0,P|356:360|316:356,2,110,0|8|0,0:0|0:0|0:0,0:0:0:0:
347,227,77215,1,8,0:0:0:0:
220,192,77666,2,0,L|144:196,2,55,0|0|8,0:0|0:0|0:0,0:0:0:0:
148,304,78569,2,0,B|88:308|88:308|44:300|28:272,1,110,0|8,0:0|0:0,0:0:0:0:
12,160,79471,6,8,P|16:88|40:56,1,110,0|8,0:0|0:0,0:0:0:0:
168,44,80373,2,8,L|248:48,2,55,0|0|8,0:0|0:0|0:0,0:0:0:0:
256,144,81275,2,0,L|368:152,1,110,0|8,0:0|0:0,0:0:0:0:
484,92,82178,2,0,P|500:156|488:208,1,110,0|8,0:0|0:0,0:0:0:0:
396,288,83080,6,0,L|332:284,2,55,4|0|8,0:0|0:0|0:0,0:0:0:0:
491,198,83982,1,0,0:0:0:0:
368,148,84433,2,0,B|332:144|332:144|292:152|292:152|240:148,1,110,8|0,0:0|0:0,0:0:0:0:
156,232,85336,2,8,P|144:300|160:348,2,110
256,144,86689,1,0,0:0:0:0:
124,228,101125,6,0,B|96:224|96:224|48:232,2,55,0|0|8,0:0|0:0|0:0,0:0:0:0:
256,216,102027,2,0,B|252:176|252:176|260:140|260:140|256:96,1,110,0|8,0:0|0:0,0:0:0:0:
380,56,102930,2,0,L|448:60,2,55,0|0|8,0:0|0:0|0:0,0:0:0:0:
257,107,103832,2,0,P|173:143|149:135,1,110,0|8,0:0|0:0,0:0:0:0:
40,84,104734,6,0,L|44:24,2,55,0|0|8,0:0|0:0|0:0,0:0:0:0:
60,216,105636,2,0,B|56:252|56:252|64:292|64:292|60:336,1,110,0|8,0:0|0:0,0:0:0:0:
188,364,106539,2,0,L|248:368,2,55,0|0|8,0:0|0:0|0:0,0:0:0:0:
256,252,107441,2,0,L|372:256,1,110,0|8,0:0|0:0,0:0:0:0:
428,140,108343,6,0,L|424:84,2,55,0|0|8,0:0|0:0|0:0,0:0:0:0:
472,261,109245,2,0,P|414:270|356:249,1,110,0|8,0:0|0:0,0:0:0:0:
256,180,110148,1,0,0:0:0:0:
152,260,110599,1,8,0:0:0:0:
64,164,111050,2,0,L|60:96,2,55,0|0|8,0:0|0:0|0:0,0:0:0:0:
152,260,111952,6,0,P|208:284|260:280,1,110,0|8,0:0|0:0,0:0:0:0:
336,176,112854,2,0,P|280:152|228:156,2,110,8|0|0,0:0|0:0|0:0,0:0:0:0:
436,264,114208,2,0,P|464:200|460:144,1,110,8|8,0:0|0:0,0:0:0:0:
388,52,115110,1,8,0:0:0:0:
256,32,115561,6,0,B|220:36|220:36|180:28|180:28|136:32,1,110
64,132,116463,2,0,L|180:128,1,110,2|0,0:0|0:0,0:0:0:0:
256,232,117366,1,0,0:0:0:0:
344,332,117817,2,0,P|408:344|464:324,2,110,0|2|0,0:0|0:0|0:0,0:0:0:0:
256,232,119170,6,0,P|192:220|136:240,1,110
64,332,120072,1,2,0:0:0:0:
20,208,120524,1,0,0:0:0:0:
92,100,120975,2,0,L|216:80,1,110
312,156,121877,2,0,L|436:136,1,110,2|0,0:0|0:0,0:0:0:0:
336,240,122779,6,0,P|256:224|232:184,1,110
164,100,123681,2,0,L|60:152,1,110,2|0,0:0|0:0,0:0:0:0:
142,254,124584,2,0,L|246:202,1,110
348,128,125486,2,0,B|384:132|384:132|424:124|424:124|456:126,1,110,2|0,0:0|0:0,0:0:0:0:
420,252,126388,5,10,0:0:0:0:
292,228,126839,2,0,L|168:212,1,110,10|10,0:0|0:0,0:0:0:0:
68,276,127742,1,10,0:0:0:0:
184,340,128193,2,0,L|248:348,2,55,10|10|10,0:0|0:0|0:0,0:0:0:0:
348,128,129997,6,0,P|408:144|456:124,2,110,4|8|0,0:0|0:0|0:0,0:0:0:0:
256,32,131351,1,8,0:0:0:0:
144,104,131802,2,0,L|152:228,1,110,0|8,0:0|0:0,0:0:0:0:
161,344,132704,2,0,P|214:331|256:296,1,110,0|8,0:0|0:0,0:0:0:0:
149,212,133606,6,0,P|96:225|56:261,2,110,0|8|0,0:0|0:0|0:0,0:0:0:0:
161,344,134960,1,8,0:0:0:0:
256,252,135411,2,0,B|292:256|292:256|332:248|332:248|376:252,1,110,0|8,0:0|0:0,0:0:0:0:
468,332,136313,2,0,P|492:272|480:212,1,110,0|8,0:0|0:0,0:0:0:0:
432,108,137215,6,0,B|399:105|399:105|359:113|359:113|323:109,1,110,0|8,0:0|0:0,0:0:0:0:
256,224,138118,1,0,0:0:0:0:
188,109,138569,2,0,B|152:113|152:113|112:105|112:105|80:108,2,110,8|0|8,0:0|0:0|0:0,0:0:0:0:
200,240,139922,2,0,B|232:240|256:232|256:232|276:240|308:240,1,110,0|8,0:0|0:0,0:0:0:0:
432,192,140824,6,0,L|492:196,2,55,0|0|8,0:0|0:0|0:0,0:0:0:0:
308,240,141727,2,0,P|284:304|292:352,2,110,0|8|0,0:0|0:0|0:0,0:0:0:0:
432,192,143080,2,0,P|456:128|448:80,1,110,8|8,0:0|0:0,0:0:0:0:
332,36,143982,1,8,0:0:0:0:
256,144,144433,6,0,B|200:160|200:160|136:152,2,110,4|8|0,0:0|0:0|0:0,0:0:0:0:
192,28,145787,2,0,B|140:21|140:21|84:37,1,110,8|0,0:0|0:0,0:0:0:0:
40,160,146689,2,0,L|36:232,1,55,8|0,0:0|0:0,0:0:0:0:
72,272,147140,2,0,P|120:324|164:332,1,110,0|8,0:0|0:0,0:0:0:0:
256,248,148042,6,0,P|307:265|340:308,2,110,0|8|0,0:0|0:0|0:0,0:0:0:0:
140,188,149396,2,0,L|248:136,1,110,8|0,0:0|0:0,0:0:0:0:
364,176,150298,2,0,L|432:144,2,55,8|0|0,0:0|0:0|0:0,0:0:0:0:
256,248,151200,1,8,0:0:0:0:
140,188,151651,6,0,B|104:184|104:184|64:192|64:192|16:188,1,110,0|8,0:0|0:0,0:0:0:0:
132,104,152554,2,0,P|196:124|220:176,1,110,0|8,0:0|0:0,0:0:0:0:
256,284,153456,2,0,L|364:260,1,110,0|8,0:0|0:0,0:0:0:0:
440,152,154358,2,0,L|500:140,2,55,0|0|8,0:0|0:0|0:0,0:0:0:0:
332,76,155260,5,4,0:0:0:0:
256,184,155712,1,8,0:0:0:0:
364,256,156163,2,0,L|376:324,2,55,0|0|8,0:0|0:0|0:0,0:0:0:0:
256,184,157065,2,0,B|220:188|220:188|180:180|180:180|144:184,1,110,0|8,0:0|0:0,0:0:0:0:
48,96,157967,1,8,0:0:0:0:
172,52,158418,1,8,0:0:0:0:
147,183,158869,1,2,0:0:0:0:
256,80,173305,5,4,0:0:0:0:
360,164,173757,2,0,P|440:172|480:160,2,110,0|2|0,0:0|0:0|0:0,0:0:0:0:
256,80,175110,2,0,L|144:120,1,110
28,72,176012,2,0,P|20:136|44:196,1,110,2|0,0:0|0:0,0:0:0:0:
124,276,176915,6,0,L|184:288,1,55
232,248,177366,2,0,L|348:264,1,110,0|2,0:0|0:0,0:0:0:0:
452,192,178268,1,0,0:0:0:0:
376,84,178719,2,0,P|308:80|264:112,2,110,0|0|2,0:0|0:0|0:0,0:0:0:0:
240,312,180524,6,2,P|191:336|137:328,2,110
332,216,181877,1,0,0:0:0:0:
368,88,182328,2,2,B|404:84|404:84|444:92|444:92|484:88,2,110
256,16,183681,1,0,0:0:0:0:
144,88,184133,5,8,0:0:0:0:
256,156,184584,1,8,0:0:0:0:
372,220,185035,1,8,0:0:0:0:
256,288,185486,1,8,0:0:0:0:
256,156,185937,1,4,0:0:0:0:
256,192,186388,12,0,187741,0:0:0:0:
40,72,189546,6,0,L|40:188,1,110,4|8,0:0|0:0,0:0:0:0:
76,308,190448,2,0,B|112:308|112:308|152:300|152:300|196:300,1,110,0|8,0:0|0:0,0:0:0:0:
256,188,191351,2,0,L|256:132,2,55,0|0|8,0:0|0:0|0:0,0:0:0:0:
326,300,192253,2,0,B|360:300|360:300|400:308|400:308|436:308,1,110,0|8,0:0|0:0,0:0:0:0:
496,192,193155,6,0,P|504:132|480:76,1,110,0|8,0:0|0:0,0:0:0:0:
360,48,194057,1,0,0:0:0:0:
256,128,194508,1,8,0:0:0:0:
132,80,194960,2,0,L|68:88,2,55,0|0|8,0:0|0:0|0:0,0:0:0:0:
256,128,195862,2,0,B|292:132|292:132|332:124|332:124|376:128,1,110,0|8,0:0|0:0,0:0:0:0:
480,192,196764,5,0,0:0:0:0:
396,296,197215,1,8,0:0:0:0:
324,184,197666,2,0,L|328:120,2,55,0|0|8,0:0|0:0|0:0,0:0:0:0:
256,296,198569,2,0,B|223:293|223:293|183:301|183:301|147:297,1,110,0|8,0:0|0:0,0:0:0:0:
36,224,199471,2,0,P|28:148|48:100,1,110,0|8,0:0|0:0,0:0:0:0:
148,48,200373,6,0,L|204:44,2,55,0|0|8,0:0|0:0|0:0,0:0:0:0:
236,144,201275,2,0,B|272:140|272:140|312:148|312:148|356:144,1,110,0|8,0:0|0:0,0:0:0:0:
448,64,202178,2,0,P|476:120|464:184,1,110,0|8,0:0|0:0,0:0:0:0:
396,272,203080,1,8,0:0:0:0:
288,196,203531,1,8,0:0:0:0:
160,160,203982,6,0,B|108:184|108:184|52:180,2,110,4|8|0,0:0|0:0|0:0,0:0:0:0:
256,68,205336,2,0,B|308:44|308:44|364:48,1,110,8|0,0:0|0:0,0:0:0:0:
464,132,206238,2,0,L|476:208,1,55,8|0,0:0|0:0,0:0:0:0:
428,236,206689,2,0,P|372:292|336:308,1,110,0|8,0:0|0:0,0:0:0:0:
256,208,207591,6,0,B|252:172|252:172|260:132|260:132|256:80,2,110,0|8|0,0:0|0:0|0:0,0:0:0:0:
168,308,208945,1,8,0:0:0:0:
60,232,209396,2,0,L|-8:236,2,55,0|0|8,0:0|0:0|0:0,0:0:0:0:
168,308,210298,1,0,0:0:0:0:
256,208,210749,1,8,0:0:0:0:
348,300,211200,6,0,P|400:348|448:356,1,110,0|8,0:0|0:0,0:0:0:0:
508,244,212102,2,0,P|456:196|408:188,1,110,0|8,0:0|0:0,0:0:0:0:
312,112,213005,2,0,B|276:116|276:116|236:108|236:108|180:112,1,110,0|8,0:0|0:0,0:0:0:0:
74,84,213907,2,0,P|72:138|96:188,1,110,0|8,0:0|0:0,0:0:0:0:
164,300,214809,6,0,L|236:296,1,55,4|0,0:0|0:0,0:0:0:0:
264,248,215260,2,0,L|376:240,1,110,8|0,0:0|0:0,0:0:0:0:
496,192,216163,2,0,P|504:260|488:312,2,110,8|0|8,0:0|0:0|0:0,0:0:0:0:
405,95,217516,1,8,0:0:0:0:
300,176,217967,1,8,0:0:0:0:
168,164,218418,6,0,B|135:167|135:167|95:159|95:159|59:163,2,110,0|8|0,0:0|0:0|0:0,0:0:0:0:
256,264,219772,1,8,0:0:0:0:
344,164,220223,2,0,B|376:167|376:167|416:159|416:159|452:163,1,110,0|8,0:0|0:0,0:0:0:0:
364,264,221125,2,0,P|276:236|260:208,1,110,0|8,0:0|0:0,0:0:0:0:
256,96,222027,5,0,0:0:0:0:
124,76,222478,2,0,L|0:112,2,110,8|0|8,0:0|0:0|0:0,0:0:0:0:
256,96,223832,2,0,P|272:160|252:216,1,110,0|8,0:0|0:0,0:0:0:0:
144,257,224734,2,0,P|128:205|140:152,1,110,0|8,0:0|0:0,0:0:0:0:
256,96,225636,6,0,B|292:100|292:100|332:92|332:92|372:96,1,110,0|8,0:0|0:0,0:0:0:0:
452,192,226539,1,0,0:0:0:0:
336,256,226990,1,8,0:0:0:0:
256,152,227441,1,0,0:0:0:0:
160,240,227892,2,0,B|156:276|156:276|160:316|160:316|156:352,2,110,8|0|8,0:0|0:0|0:0,0:0:0:0:
84,132,229245,5,0,0:0:0:0:
184,48,229696,1,8,0:0:0:0:
256,160,230148,2,0,P|320:176|376:148,1,110,0|8,0:0|0:0,0:0:0:0:
476,100,231050,2,0,P|492:164|472:212,1,110,0|8,0:0|0:0,0:0:0:0:
376,288,231952,1,8,0:0:0:0:
256,340,232403,1,8,0:0:0:0:
