osu file format v14

[General]
AudioFilename: BTS - Not Today.mp3
AudioLeadIn: 0
PreviewTime: 69331
Countdown: 0
SampleSet: None
StackLeniency: 0.3
Mode: 0
LetterboxInBreaks: 0
WidescreenStoryboard: 0

[Editor]
Bookmarks: 173581
DistanceSpacing: 1.1
BeatDivisor: 8
GridSize: 4
TimelineZoom: 2.5

[Metadata]
Title:Not Today
TitleUnicode:Not Today
Artist:BTS
ArtistUnicode:방탄소년단
Creator:DeRandom Otaku
Version:Turtle's Normal
Source:
Tags:Rap monster jungkook suga jimin j-hope v jin hot yoongi 랩몬스터 진 슈가 제이홉 지민 뷔 정국 k-pop kpop log off now DT3 Diamond Turtle Shyotamaze Deppyforce Neoskylove HabiHolic Cerulean Veyron CV You Never Walk Alone big hit entertainment bantansoyeondan bangtan boys
BeatmapID:1235814
BeatmapSetID:575767

[Difficulty]
HPDrainRate:4
CircleSize:3.5
OverallDifficulty:4.5
ApproachRate:5
SliderMultiplier:1.5
SliderTickRate:1

[Events]
//Background and Video events
0,0,"BG.jpg",0,0
//Break Periods
2,174872,182079
//Storyboard Layer 0 (Background)
//Storyboard Layer 1 (Fail)
//Storyboard Layer 2 (Pass)
//Storyboard Layer 3 (Foreground)
//Storyboard Sound Samples

[TimingPoints]
127,545.454545454546,4,2,2,40,1,0
8854,-100,4,3,2,60,0,0
17036,-100,4,3,4,70,0,0
17581,-100,4,2,2,50,0,0
52490,-100,4,3,1,50,0,0
61217,-100,4,3,1,60,0,0
69399,-100,4,3,4,70,0,0
69945,-100,4,3,3,80,0,1
86308,-100,4,2,2,80,0,1
86854,-100,4,2,2,20,0,0
87399,-100,4,3,5,80,0,1
87536,-100,4,3,3,80,0,1
91763,-100,4,3,5,80,0,1
91899,-100,4,3,3,80,0,1
103763,-100,4,3,3,30,0,1
104854,-100,4,2,2,50,0,0
118490,-100,4,2,0,20,0,0
119036,-100,4,2,2,50,0,0
119581,-100,4,2,0,20,0,0
120127,-100,4,2,2,50,0,0
122308,-100,4,3,1,50,0,0
131036,-100,4,3,1,60,0,0
139217,-100,4,3,4,70,0,0
139763,-100,4,3,3,80,0,1
156127,-100,4,2,2,80,0,1
156672,-100,4,2,2,20,0,0
157217,-100,4,3,5,80,0,1
157354,-100,4,3,3,80,0,1
161581,-100,4,3,5,80,0,1
161717,-100,4,3,3,80,0,1
173581,-100,4,2,2,30,0,1
174672,-100,4,2,2,40,0,0
187763,-100,4,3,1,60,0,0
191581,-100,4,3,4,70,0,0
192127,-100,4,3,3,80,0,1
208490,-100,4,2,2,80,0,1
209036,-100,4,2,2,20,0,0
209581,-100,4,3,5,80,0,1
209717,-100,4,3,3,80,0,1
213945,-100,4,3,5,80,0,1
214081,-100,4,3,3,80,0,1
226490,-100,4,2,0,20,0,1
227036,-100,4,3,4,70,0,0

[Colours]
Combo1 : 255,128,64
Combo2 : 131,43,164
Combo3 : 170,85,85
Combo4 : 55,255,55

[HitObjects]
62,101,127,6,0,P|131:66|203:89,1,150,4|0,0:0|0:0,0:0:0:0:
250,147,945,1,8,0:0:0:0:
250,147,1217,2,0,B|306:155|306:155|326:147|326:147|346:139|346:139|402:147,1,150,0|0,0:0|0:0,0:0:0:0:
450,301,2308,6,0,P|381:336|309:313,1,150,0|0,0:0|0:0,0:0:0:0:
262,256,3126,1,8,0:0:0:0:
262,256,3399,2,0,B|206:248|206:248|186:256|186:256|166:264|166:264|110:256,1,150,0|0,0:0|0:0,0:0:0:0:
63,193,4217,1,2,0:0:0:0:
113,127,4490,6,0,B|153:111|189:127|189:127|225:143|259:129,1,150,4|0,0:0|0:0,0:0:0:0:
303,59,5308,1,8,0:0:0:0:
303,59,5581,2,0,P|341:121|315:189,1,150,0|0,0:0|0:0,0:0:0:0:
191,298,6672,6,0,B|231:314|267:298|267:298|303:282|337:295,1,150,0|0,0:0|0:0,0:0:0:0:
382,365,7490,1,8,0:0:0:0:
382,365,7763,2,0,P|419:302|393:235,1,150,0|0,0:0|0:0,0:0:0:0:
333,178,8581,1,8,0:0:0:0:
272,120,8854,6,0,B|216:120|216:120|200:112|200:112|184:104|184:104|120:104,1,150,4|8,0:0|0:0,0:0:0:0:
66,258,9945,2,0,P|135:287|215:263,1,150,0|8,0:0|0:0,0:0:0:0:
272,120,11036,2,0,B|328:120|328:120|344:112|344:112|360:104|360:104|424:104,1,150,0|8,0:0|0:0,0:0:0:0:
478,258,12127,2,0,P|409:287|329:263,1,150,0|8,0:0|0:0,0:0:0:0:
272,120,13217,6,0,B|256:80|272:32|272:32|240:40|208:32,2,150,12|8|8,0:0|0:0|0:0,0:0:0:0:
339,270,14854,1,8,0:0:0:0:
454,152,15399,6,0,P|412:147|378:157,1,75,8|10,0:0|0:0,0:0:0:0:
307,193,15945,2,0,P|265:198|231:188,1,75,8|10,0:0|0:0,0:0:0:0:
157,157,16490,2,0,L|153:75,1,75,10|8,0:0|0:0,0:0:0:0:
203,16,17036,1,0,0:0:0:0:
330,120,17581,6,0,L|322:269,1,150,4|8,0:0|0:0,0:0:0:0:
260,325,18399,2,0,B|228:341|188:325|188:325|148:309|108:325,1,150,2|2,0:0|0:0,0:0:0:0:
43,365,19217,1,8,0:0:0:0:
10,202,19763,6,0,P|43:147|82:210,1,150,2|8,0:0|0:0,0:0:0:0:
99,276,20581,2,0,B|155:276|155:276|171:268|171:268|187:260|187:260|251:260,1,150,2|2,0:0|0:0,0:0:0:0:
326,243,21399,2,0,P|319:206|320:168,1,75,8|2,0:0|0:0,0:0:0:0:
390,124,21945,6,0,P|326:87|254:121,1,150,4|8,0:0|0:0,0:0:0:0:
214,182,22763,2,0,L|47:175,1,150,2|2,0:0|0:0,0:0:0:0:
29,100,23581,1,8,0:0:0:0:
181,36,24127,6,0,B|213:20|253:36|253:36|293:52|333:36,1,150,2|8,0:0|0:0,0:0:0:0:
406,14,24945,2,0,P|351:47|414:86,1,150,2|2,0:0|0:0,0:0:0:0:
480,81,25763,2,0,P|474:119|482:164,1,75,8|2,0:0|0:0,0:0:0:0:
503,234,26308,6,0,L|336:232,1,150,4|8,0:0|0:0,0:0:0:0:
354,315,27127,2,0,B|330:312|298:315|298:315|282:307|282:307|266:299|266:299|235:304|202:299,1,150,2|2,0:0|0:0,0:0:0:0:
131,331,27945,2,0,L|123:236,1,75,8|2,0:0|0:0,0:0:0:0:
199,221,28490,6,0,P|236:157|202:85,1,150,2|8,0:0|0:0,0:0:0:0:
130,67,29308,1,2,0:0:0:0:
189,9,29581,2,0,L|278:13,1,75,0|2,0:0|0:0,0:0:0:0:
301,86,30127,2,0,P|343:75|394:88,1,75,8|2,0:0|0:0,0:0:0:0:
388,160,30672,6,0,P|355:215|316:152,1,150,4|8,0:0|0:0,0:0:0:0:
301,86,31490,2,0,P|268:31|229:94,1,150,2|2,0:0|0:0,0:0:0:0:
225,161,32308,1,8,0:0:0:0:
111,281,32854,6,0,B|144:267|184:283|184:283|224:299|256:283,1,150,2|8,0:0|0:0,0:0:0:0:
325,237,33672,1,2,0:0:0:0:
325,237,33945,2,0,L|328:162,1,75,0|2,0:0|0:0,0:0:0:0:
275,97,34490,2,0,P|233:86|182:99,1,75,8|2,0:0|0:0,0:0:0:0:
230,168,35036,6,0,B|222:216|222:216|230:240|230:240|238:264|238:264|230:320,1,150,4|8,0:0|0:0,0:0:0:0:
162,361,35854,2,0,P|229:334|291:371,1,150,2|2,0:0|0:0,0:0:0:0:
354,317,36672,2,0,L|360:238,1,75,8|2,0:0|0:0,0:0:0:0:
315,172,37217,5,2,0:0:0:0:
315,172,37490,2,0,P|275:162|211:167,1,75,0|8,0:0|0:0,0:0:0:0:
183,221,38036,1,2,0:0:0:0:
183,221,38308,2,0,B|199:189|183:149|183:149|167:109|183:69,1,150,0|8,0:0|0:0,0:0:0:0:
241,19,39127,1,2,0:0:0:0:
303,72,39399,6,0,P|376:105|446:79,1,150,4|8,0:0|0:0,0:0:0:0:
470,7,40217,2,0,L|483:180,1,150,2|2,0:0|0:0,0:0:0:0:
440,228,41036,2,0,P|405:221|352:226,1,75,8|2,0:0|0:0,0:0:0:0:
309,283,41581,5,2,0:0:0:0:
309,283,41854,2,0,L|212:279,1,75,8|8,0:0|0:0,0:0:0:0:
168,329,42399,1,2,0:0:0:0:
103,277,42672,2,0,B|95:226|95:226|103:202|103:202|111:178|111:178|103:130,1,150,0|8,0:0|0:0,0:0:0:0:
25,103,43490,1,2,0:0:0:0:
82,44,43763,6,0,P|159:61|233:49,1,150,4|8,0:0|0:0,0:0:0:0:
311,26,44581,1,2,0:0:0:0:
311,26,44854,2,0,L|305:113,1,75,0|2,0:0|0:0,0:0:0:0:
247,158,45399,2,0,L|253:245,1,75,8|2,0:0|0:0,0:0:0:0:
195,292,45945,6,0,P|260:260|331:280,1,150,2|8,0:0|0:0,0:0:0:0:
398,328,46763,1,2,0:0:0:0:
398,328,47036,2,0,P|411:293|405:247,1,75,0|2,0:0|0:0,0:0:0:0:
464,195,47581,2,0,P|451:160|457:114,1,75,8|2,0:0|0:0,0:0:0:0:
508,61,48127,6,0,B|457:69|457:69|433:61|433:61|409:53|409:53|361:61,1,150,4|8,0:0|0:0,0:0:0:0:
290,103,48945,2,0,P|224:70|153:90,1,150,2|2,0:0|0:0,0:0:0:0:
97,149,49763,1,8,0:0:0:0:
248,213,50308,5,2,0:0:0:0:
119,316,50854,2,0,P|156:312|193:317,1,75,8|2,0:0|0:0,0:0:0:0:
262,365,51399,1,0,0:0:0:0:
337,330,51672,2,0,B|341:306|341:306|337:294|337:294|333:282|333:282|337:250,1,75,2|8,0:0|0:0,0:0:0:0:
389,193,52217,1,2,0:0:0:0:
323,141,52490,6,0,B|291:157|251:141|251:141|211:125|171:141,1,150,4|8,0:0|0:0,0:0:0:0:
105,179,53308,1,2,0:0:0:0:
52,243,53581,2,0,P|23:162|68:105,1,150,0|8,0:0|0:0,0:0:0:0:
128,77,54399,1,2,0:0:0:0:
201,40,54672,6,0,P|276:43|352:40,1,150,0|8,0:0|0:0,0:0:0:0:
422,80,55490,1,2,0:0:0:0:
422,80,55763,2,0,L|430:169,1,75,2|0,0:0|0:0,0:0:0:0:
511,148,56308,2,0,L|503:237,1,75,10|2,0:0|0:0,0:0:0:0:
444,280,56854,6,0,B|404:296|356:280|356:280|366:309|356:344,1,150,4|8,0:0|0:0,0:0:0:0:
279,366,57672,1,2,0:0:0:0:
204,331,57945,2,0,B|180:328|148:331|148:331|132:323|132:323|116:315|116:315|85:320|52:315,1,150,0|8,0:0|0:0,0:0:0:0:
41,234,58763,1,2,0:0:0:0:
23,152,59036,6,0,P|104:123|161:168,1,150,0|8,0:0|0:0,0:0:0:0:
185,230,59854,1,2,0:0:0:0:
185,230,60127,2,0,P|224:234|268:232,1,75,2|0,0:0|0:0,0:0:0:0:
305,301,60672,2,0,P|344:297|388:299,1,75,10|2,0:0|0:0,0:0:0:0:
441,353,61217,6,0,B|425:321|441:281|441:281|457:241|441:201,1,150,4|8,0:0|0:0,0:0:0:0:
374,160,62036,1,0,0:0:0:0:
305,113,62308,2,0,L|228:122,2,75,0|2|8,0:0|0:0|0:0,0:0:0:0:
327,33,63127,1,2,0:0:0:0:
327,33,63399,6,0,L|173:51,1,150,4|8,0:0|0:0,0:0:0:0:
117,107,64217,1,0,0:0:0:0:
56,164,64490,2,0,P|45:203|50:247,1,75,2|0,0:0|0:0,0:0:0:0:
129,248,65036,2,0,P|140:287|135:331,1,75,8|2,0:0|0:0,0:0:0:0:
73,373,65581,6,0,P|154:344|211:389,2,150,12|8|12,0:0|0:0|0:0,0:0:0:0:
195,262,67217,1,8,0:0:0:0:
87,136,67763,6,0,P|129:131|163:141,1,75,12|8,0:0|0:0,0:0:0:0:
234,177,68309,2,0,P|276:182|310:172,1,75,12|8,0:0|0:0,0:0:0:0:
384,141,68854,2,0,L|388:59,1,75,12|12,0:0|0:0,0:0:0:0:
338,0,69400,1,0,0:0:0:0:
211,104,69945,6,0,L|219:253,1,150,4|8,0:1|0:0,0:0:0:0:
281,307,70763,1,2,0:0:0:0:
340,250,71036,2,0,B|388:242|388:242|412:250|412:250|436:258|436:258|492:250,1,150,8|8,0:0|0:0,0:0:0:0:
478,168,71854,1,2,0:0:0:0:
478,168,72127,6,0,P|413:134|348:165,1,150,8|8,0:0|0:0,0:0:0:0:
271,135,72945,1,2,0:0:0:0:
205,185,73217,1,8,0:0:0:0:
132,144,73490,1,2,0:0:0:0:
77,205,73763,2,0,L|74:280,1,75,4|2,0:2|0:0,0:0:0:0:
8,330,74308,6,0,P|80:320|159:330,1,150,4|8,0:1|0:0,0:0:0:0:
238,350,75127,1,2,0:0:0:0:
312,314,75399,2,0,B|328:282|312:242|312:242|296:202|312:162,1,150,8|8,0:0|0:0,0:0:0:0:
376,118,76217,1,2,0:0:0:0:
376,118,76490,6,0,P|311:84|246:115,1,150,8|8,0:0|0:0,0:0:0:0:
165,100,77308,1,2,0:0:0:0:
183,180,77581,1,8,0:0:0:0:
147,254,77854,1,2,0:0:0:0:
219,292,78127,2,0,L|298:293,1,75,8|2,0:0|0:0,0:0:0:0:
342,359,78672,6,0,B|334:308|334:308|342:284|342:284|350:260|350:260|342:212,1,150,4|8,0:1|0:0,0:0:0:0:
275,164,79490,1,2,0:0:0:0:
275,164,79763,2,0,L|199:159,1,75,8|2,0:0|0:0,0:0:0:0:
184,240,80308,2,0,L|108:245,1,75,8|2,0:0|0:0,0:0:0:0:
56,309,80854,6,0,B|64:258|64:258|56:234|56:234|48:210|48:210|56:162,1,150,4|8,0:1|0:0,0:0:0:0:
114,104,81672,1,2,0:0:0:0:
114,104,81945,2,0,P|148:98|187:104,1,75,8|2,0:0|0:0,0:0:0:0:
231,173,82490,2,0,P|265:179|304:173,1,75,4|2,0:2|0:0,0:0:0:0:
363,114,83036,6,0,B|355:165|355:165|363:189|363:189|371:213|371:213|363:261,1,150,4|8,0:1|0:0,0:0:0:0:
295,307,83854,1,2,0:0:0:0:
295,307,84127,2,0,L|209:304,2,75,8|2|8,0:0|0:0|0:0,0:0:0:0:
278,226,84945,1,2,0:0:0:0:
214,173,85217,6,0,P|295:144|352:189,2,150,8|8|8,0:0|0:0|0:0,0:0:0:0:
159,329,86854,1,4,0:0:0:0:
15,247,87399,6,0,L|18:169,2,75,4|2|8,0:2|0:0|0:0,0:0:0:0:
81,296,88217,2,0,L|84:374,2,75,2|8|2,0:0|0:0|0:0,0:0:0:0:
137,235,89036,2,0,P|176:222|226:222,1,75,8|2,0:0|0:0,0:0:0:0:
268,277,89581,6,0,P|335:304|397:267,1,150,8|8,0:0|0:0,0:0:0:0:
329,220,90399,1,2,0:0:0:0:
279,154,90671,1,8,0:0:0:0:
320,81,90944,1,2,0:0:0:0:
259,26,91217,2,0,L|184:23,1,75,4|2,0:2|0:0,0:0:0:0:
110,60,91763,6,0,P|101:101|110:148,1,75,4|2,0:2|0:0,0:0:0:0:
142,207,92308,1,8,0:0:0:0:
88,270,92581,2,0,L|9:272,2,75,2|8|2,0:0|0:0|0:0,0:0:0:0:
161,308,93399,2,0,P|202:318|246:313,1,75,8|2,0:0|0:0,0:0:0:0:
299,265,93945,6,0,B|315:233|299:193|299:193|283:153|299:113,1,150,8|8,0:0|0:0,0:0:0:0:
320,40,94763,1,2,0:0:0:0:
240,58,95036,1,8,0:0:0:0:
166,22,95309,1,2,0:0:0:0:
128,94,95582,2,0,L|127:173,1,75,4|2,0:2|0:0,0:0:0:0:
72,230,96127,6,0,B|120:222|120:222|144:230|144:230|168:238|168:238|224:230,1,150,4|8,0:1|0:0,0:0:0:0:
285,183,96945,1,2,0:0:0:0:
353,228,97217,2,0,L|356:308,1,75,8|2,0:0|0:0,0:0:0:0:
424,347,97763,1,8,0:0:0:0:
431,184,98308,6,0,B|383:192|383:192|359:184|359:184|335:176|335:176|279:184,1,150,8|8,0:0|0:0,0:0:0:0:
218,231,99126,1,2,0:0:0:0:
150,186,99399,2,0,L|147:106,1,75,8|2,0:0|0:0,0:0:0:0:
79,67,99944,1,4,0:2:0:0:
87,238,100490,6,0,P|154:265|218:230,1,150,4|8,0:1|0:0,0:0:0:0:
150,186,101308,1,2,0:0:0:0:
195,118,101581,2,0,L|275:115,1,75,8|2,0:0|0:0,0:0:0:0:
314,47,102126,1,8,0:0:0:0:
369,203,102672,6,0,P|450:232|507:187,2,150,8|8|8,0:0|0:0|0:0,0:0:0:0:
314,47,104308,2,0,L|236:51,1,75,4|4,0:0|0:0,0:0:0:0:
201,124,104854,6,0,P|134:97|72:134,1,150,4|8,0:0|0:0,0:0:0:0:
79,216,105672,2,0,P|146:243|208:206,1,150,2|2,0:0|0:0,0:0:0:0:
251,275,106490,1,8,0:0:0:0:
310,120,107036,6,0,B|254:120|254:120|238:112|238:112|222:104|222:104|158:104,1,150,2|8,0:0|0:0,0:0:0:0:
146,184,107854,2,0,B|204:184|204:184|220:192|220:192|236:200|236:200|292:200,1,150,2|2,0:0|0:0,0:0:0:0:
370,172,108672,2,0,P|411:164|448:172,1,75,8|2,0:0|0:0,0:0:0:0:
488,239,109217,6,0,B|472:207|488:167|488:167|504:127|488:87,1,150,4|8,0:0|0:0,0:0:0:0:
421,47,110036,2,0,B|389:63|349:47|349:47|309:31|269:47,1,150,2|2,0:0|0:0,0:0:0:0:
223,109,110854,1,8,0:0:0:0:
346,217,111399,6,0,L|180:221,1,150,2|8,0:0|0:0,0:0:0:0:
210,301,112217,2,0,L|44:297,1,150,2|2,0:0|0:0,0:0:0:0:
19,224,113036,2,0,P|19:182|31:135,1,75,8|2,0:0|0:0,0:0:0:0:
99,112,113581,6,0,L|182:105,2,75,4|2|8,0:0|0:0|0:0,0:0:0:0:
88,30,114399,1,2,0:0:0:0:
88,30,114672,2,0,L|171:23,1,75,2|0,0:0|0:0,0:0:0:0:
240,52,115217,1,8,0:0:0:0:
240,52,115490,6,0,P|254:86|243:148,1,75,2|0,0:0|0:0,0:0:0:0:
217,198,116036,2,0,P|203:232|205:269,2,75,2|8|2,0:0|0:0|0:0,0:0:0:0:
299,197,116854,2,0,L|378:198,1,75,2|0,0:0|0:0,0:0:0:0:
450,166,117399,2,0,P|458:129|457:85,1,75,8|2,0:0|0:0,0:0:0:0:
388,47,117945,6,0,L|309:48,1,75,6|2,0:0|0:0,0:0:0:0:
193,162,118763,1,2,0:0:0:0:
193,162,119036,2,0,L|272:163,1,75,10|2,0:0|0:0,0:0:0:0:
388,277,119854,1,2,0:0:0:0:
388,277,120127,6,0,P|349:270|309:278,1,75,2|0,0:0|0:0,0:0:0:0:
270,341,120672,2,0,P|231:348|191:340,1,75,2|0,0:0|0:0,0:0:0:0:
114,328,121217,1,2,0:0:0:0:
32,344,121490,2,0,B|28:320|28:320|32:308|32:308|36:296|36:296|32:264,1,75,2|2,0:0|0:0,0:0:0:0:
96,118,122308,6,0,P|168:105|229:146,1,150,4|8,0:0|0:0,0:0:0:0:
265,220,123127,1,2,0:0:0:0:
235,296,123399,2,0,B|267:312|307:296|307:296|347:280|387:296,1,150,0|8,0:0|0:0,0:0:0:0:
435,232,124217,1,2,0:0:0:0:
489,170,124490,6,0,P|492:95|489:19,1,150,0|8,0:0|0:0,0:0:0:0:
407,10,125308,1,2,0:0:0:0:
407,10,125581,2,0,P|367:18|328:18,1,75,2|0,0:0|0:0,0:0:0:0:
265,67,126127,2,0,P|225:59|186:59,1,75,10|2,0:0|0:0,0:0:0:0:
124,107,126672,6,0,B|127:131|124:163|124:163|132:179|132:179|140:195|140:195|135:226|140:259,1,150,4|8,0:0|0:0,0:0:0:0:
208,298,127490,1,2,0:0:0:0:
290,292,127763,2,0,B|306:252|290:204|290:204|319:214|354:204,1,150,0|8,0:0|0:0,0:0:0:0:
415,156,128581,1,2,0:0:0:0:
478,102,128854,6,0,P|412:72|348:105,1,150,0|8,0:0|0:0,0:0:0:0:
268,127,129672,1,2,0:0:0:0:
268,127,129945,2,0,B|232:115|232:115|192:115,1,75,2|0,0:0|0:0,0:0:0:0:
136,57,130490,2,0,B|100:69|100:69|60:69,1,75,10|2,0:0|0:0,0:0:0:0:
3,10,131036,6,0,B|11:58|11:58|3:82|3:82|-5:106|-5:106|3:157,1,150,4|8,0:0|0:0,0:0:0:0:
59,216,131854,1,0,0:0:0:0:
115,275,132127,2,0,P|152:282|197:273,2,75,0|2|8,0:0|0:0|0:0,0:0:0:0:
76,347,132945,1,2,0:0:0:0:
76,347,133217,6,0,P|149:360|223:349,1,150,4|8,0:0|0:0,0:0:0:0:
290,299,134036,1,0,0:0:0:0:
356,249,134308,2,0,B|361:215|361:215|356:167,1,75,2|0,0:0|0:0,0:0:0:0:
285,131,134854,2,0,B|280:97|280:97|285:49,1,75,8|2,0:0|0:0,0:0:0:0:
353,10,135399,6,0,P|272:39|215:-6,2,150,12|8|12,0:0|0:0|0:0,0:0:0:0:
231,121,137035,1,8,0:0:0:0:
339,247,137581,6,0,P|297:252|263:242,1,75,12|8,0:0|0:0,0:0:0:0:
192,206,138127,2,0,P|150:201|116:211,1,75,12|8,0:0|0:0,0:0:0:0:
42,242,138672,2,0,L|38:324,1,75,12|12,0:0|0:0,0:0:0:0:
88,383,139218,1,0,0:0:0:0:
240,320,139763,6,0,P|242:245|239:170,1,150,4|8,0:1|0:0,0:0:0:0:
167,129,140581,1,2,0:0:0:0:
220,64,140854,2,0,B|252:48|292:64|292:64|332:80|372:64,1,150,8|8,0:0|0:0,0:0:0:0:
416,2,141672,1,2,0:0:0:0:
416,2,141945,6,0,P|450:67|419:132,1,150,8|8,0:0|0:0,0:0:0:0:
484,182,142763,1,2,0:0:0:0:
443,253,143035,1,8,0:0:0:0:
484,324,143308,1,2,0:0:0:0:
413,367,143581,2,0,L|338:370,1,75,4|2,0:2|0:0,0:0:0:0:
292,301,144127,6,0,B|224:321|224:321|148:301,1,150,4|8,0:1|0:0,0:0:0:0:
93,238,144945,1,2,0:0:0:0:
132,165,145217,2,0,B|180:157|180:157|204:165|204:165|228:173|228:173|284:165,1,150,8|8,0:0|0:0,0:0:0:0:
354,132,146036,1,2,0:0:0:0:
354,132,146309,6,0,P|320:197|351:262,1,150,8|8,0:0|0:0,0:0:0:0:
280,305,147127,1,2,0:0:0:0:
205,270,147399,1,8,0:0:0:0:
160,339,147672,1,2,0:0:0:0:
85,303,147945,2,0,L|80:227,1,75,8|2,0:0|0:0,0:0:0:0:
21,170,148490,6,0,B|45:173|77:170|77:170|93:178|93:178|109:186|109:186|140:181|173:186,1,150,4|8,0:1|0:0,0:0:0:0:
234,232,149308,1,2,0:0:0:0:
234,232,149581,2,0,L|311:235,1,75,8|2,0:0|0:0,0:0:0:0:
318,317,150127,2,0,L|392:314,1,75,8|2,0:0|0:0,0:0:0:0:
446,376,150672,6,0,B|441:349|446:318|446:318|438:302|438:302|430:286|430:286|433:254|430:230,1,150,4|8,0:1|0:0,0:0:0:0:
469,157,151490,1,2,0:0:0:0:
469,157,151763,2,0,B|433:153|433:153|389:157,1,75,8|2,0:0|0:0,0:0:0:0:
349,225,152308,2,0,B|313:229|313:229|269:225,1,75,4|2,0:2|0:0,0:0:0:0:
262,143,152854,6,0,B|238:140|206:143|206:143|190:135|190:135|174:127|174:127|143:132|110:127,1,150,4|8,0:1|0:0,0:0:0:0:
59,81,153672,1,2,0:0:0:0:
59,81,153945,2,0,L|66:5,2,75,8|2|8,0:0|0:0|0:0,0:0:0:0:
41,161,154763,1,2,0:0:0:0:
112,203,155036,6,0,P|141:284|96:341,2,150,8|8|8,0:0|0:0|0:0,0:0:0:0:
6,81,156673,1,4,0:0:0:0:
162,30,157217,6,0,L|257:25,2,75,4|2|8,0:2|0:0|0:0,0:0:0:0:
191,107,158036,2,0,L|286:102,2,75,2|8|2,0:0|0:0|0:0,0:0:0:0:
218,184,158854,2,0,P|181:186|136:184,1,75,8|2,0:0|0:0,0:0:0:0:
128,265,159399,6,0,P|61:292|-1:255,1,150,8|8,0:0|0:0,0:0:0:0:
68,208,160217,1,2,0:0:0:0:
85,127,160490,1,8,0:0:0:0:
40,57,160763,1,2,0:0:0:0:
114,21,161036,2,0,L|201:24,1,75,4|2,0:2|0:0,0:0:0:0:
244,84,161581,6,0,P|279:93|327:81,1,75,4|2,0:2|0:0,0:0:0:0:
370,23,162127,1,8,0:0:0:0:
415,91,162399,2,0,L|418:173,2,75,2|8|2,0:0|0:0|0:0,0:0:0:0:
495,74,163217,2,0,L|498:156,1,75,8|2,0:0|0:0,0:0:0:0:
474,228,163763,6,0,B|442:212|402:228|402:228|362:244|322:228,1,150,8|8,0:0|0:0,0:0:0:0:
268,173,164581,1,2,0:0:0:0:
189,200,164854,1,8,0:0:0:0:
125,146,165127,1,2,0:0:0:0:
75,212,165399,2,0,L|74:302,1,75,4|2,0:2|0:0,0:0:0:0:
17,347,165945,6,0,B|41:344|73:347|73:347|89:339|89:339|105:331|105:331|136:336|169:331,1,150,4|8,0:1|0:0,0:0:0:0:
241,358,166763,1,2,0:0:0:0:
295,297,167036,2,0,P|302:260|296:223,1,75,8|2,0:0|0:0,0:0:0:0:
242,163,167581,1,8,0:0:0:0:
365,53,168127,6,0,B|341:56|309:53|309:53|293:61|293:61|277:69|277:69|246:64|213:69,1,150,8|8,0:0|0:0,0:0:0:0:
141,42,168945,1,2,0:0:0:0:
86,103,169218,2,0,P|79:139|85:176,1,75,8|2,0:0|0:0,0:0:0:0:
140,237,169763,1,4,0:2:0:0:
36,357,170308,6,0,P|103:384|167:349,1,150,4|8,0:1|0:0,0:0:0:0:
213,280,171127,1,2,0:0:0:0:
274,335,171400,2,0,P|310:341|347:335,1,75,8|2,0:0|0:0,0:0:0:0:
408,281,171945,1,8,0:0:0:0:
324,138,172490,6,0,P|405:109|462:154,2,150,8|8|8,0:0|0:0|0:0,0:0:0:0:
269,293,174126,2,0,P|216:274|150:298,1,112.5,4|0,0:0|0:0,0:0:0:0:
140,322,174672,5,4,0:1:0:0:
256,192,183399,12,4,187763,0:0:0:0:
96,108,189945,5,4,0:0:0:0:
169,145,190217,1,8,0:0:0:0:
226,85,190490,1,4,0:0:0:0:
308,88,190763,1,8,0:0:0:0:
363,148,191036,2,0,B|367:172|367:172|363:184|363:184|359:196|359:196|363:228,1,75,12|12,0:0|0:0,0:0:0:0:
296,271,191581,1,0,0:0:0:0:
434,360,192127,6,0,P|366:331|310:362,1,112.5,4|0,0:1|0:0,0:0:0:0:
303,371,192672,2,0,L|227:368,1,75,8|2,0:0|0:0,0:0:0:0:
214,286,193217,2,0,P|146:257|90:288,1,112.5,8|2,0:0|0:0,0:0:0:0:
83,297,193763,2,0,L|7:294,1,75,8|2,0:0|0:0,0:0:0:0:
4,211,194308,6,0,B|-12:179|4:139|4:139|20:99|4:59,1,150,8|8,0:0|0:0,0:0:0:0:
71,14,195127,1,2,0:0:0:0:
153,15,195399,1,8,0:0:0:0:
235,16,195672,1,2,0:0:0:0:
317,17,195945,2,0,P|322:59|319:94,1,75,4|2,0:2|0:0,0:0:0:0:
317,174,196490,6,0,B|281:166|281:166|265:174|265:174|249:182|249:182|205:174,1,112.5,4|0,0:1|0:0,0:0:0:0:
171,159,197036,2,0,L|167:249,1,75,8|2,0:0|0:0,0:0:0:0:
187,314,197581,2,0,B|223:306|223:306|239:314|239:314|255:322|255:322|299:314,1,112.5,8|2,0:0|0:0,0:0:0:0:
333,299,198127,2,0,L|337:389,1,75,8|2,0:0|0:0,0:0:0:0:
417,380,198672,6,0,L|410:230,1,150,8|8,0:0|0:0,0:0:0:0:
334,197,199490,1,2,0:0:0:0:
257,163,199763,1,8,0:0:0:0:
180,129,200036,1,2,0:0:0:0:
103,94,200308,2,0,P|96:132|105:169,1,75,8|2,0:0|0:0,0:0:0:0:
161,228,200854,6,0,P|107:210|44:242,1,112.5,4|0,0:1|0:0,0:0:0:0:
30,260,201399,1,8,0:0:0:0:
45,341,201672,1,2,0:0:0:0:
45,341,201945,2,0,L|124:345,1,75,8|2,0:0|0:0,0:0:0:0:
194,309,202490,2,0,L|273:305,1,75,8|2,0:0|0:0,0:0:0:0:
335,354,203036,6,0,P|317:300|349:237,1,112.5,4|0,0:1|0:0,0:0:0:0:
367,223,203581,1,8,0:0:0:0:
328,150,203854,1,2,0:0:0:0:
328,150,204127,2,0,P|294:154|250:151,1,75,8|2,0:0|0:0,0:0:0:0:
209,221,204672,2,0,P|175:217|131:220,1,75,4|2,0:2|0:0,0:0:0:0:
69,270,205217,6,0,P|51:216|83:153,1,112.5,4|0,0:1|0:0,0:0:0:0:
101,139,205762,1,8,0:0:0:0:
75,60,206036,2,0,L|-3:57,2,75,2|8|2,0:0|0:0|0:0,0:0:0:0:
128,123,206854,2,0,L|206:120,1,75,8|2,0:0|0:0,0:0:0:0:
254,55,207399,6,0,P|335:26|392:71,2,150,8|8|8,0:0|0:0|0:0,0:0:0:0:
199,211,209036,1,4,0:0:0:0:
343,289,209581,6,0,L|420:282,1,75,4|2,0:2|0:0,0:0:0:0:
471,219,210127,1,8,0:0:0:0:
411,161,210399,2,0,L|418:84,1,75,2|8,0:0|0:0,0:0:0:0:
481,33,210945,1,2,0:0:0:0:
402,8,211217,2,0,P|366:-2|306:9,1,75,8|2,0:0|0:0,0:0:0:0:
295,76,211763,6,0,P|228:103|166:66,1,150,8|8,0:0|0:0,0:0:0:0:
108,125,212581,1,2,0:0:0:0:
144,199,212854,1,8,0:0:0:0:
93,264,213127,1,2,0:0:0:0:
158,313,213399,2,0,L|238:315,1,75,4|2,0:2|0:0,0:0:0:0:
308,349,213945,5,4,0:2:0:0:
316,267,214217,1,2,0:0:0:0:
324,185,214490,1,8,0:0:0:0:
372,118,214763,2,0,P|333:103|288:112,1,75,2|8,0:0|0:0,0:0:0:0:
238,161,215308,1,2,0:0:0:0:
168,117,215581,2,0,L|164:36,1,75,8|2,0:0|0:0,0:0:0:0:
83,22,216127,6,0,L|90:171,1,150,8|8,0:0|0:0,0:0:0:0:
150,228,216945,1,2,0:0:0:0:
224,192,217218,1,8,0:0:0:0:
289,243,217491,1,2,0:0:0:0:
338,178,217763,2,0,L|340:98,1,75,4|2,0:2|0:0,0:0:0:0:
285,40,218308,6,0,P|339:58|402:26,1,112.5,4|0,0:1|0:0,0:0:0:0:
416,8,218853,1,8,0:0:0:0:
473,67,219127,1,2,0:0:0:0:
417,128,219399,2,0,L|421:208,1,75,8|2,0:0|0:0,0:0:0:0:
503,207,219945,2,0,L|499:287,1,75,8|2,0:0|0:0,0:0:0:0:
430,327,220490,6,0,P|376:309|313:341,1,112.5,8|0,0:0|0:0,0:0:0:0:
299,359,221035,1,8,0:0:0:0:
242,300,221309,1,2,0:0:0:0:
298,239,221581,2,0,L|294:159,1,75,8|2,0:0|0:0,0:0:0:0:
212,160,222127,2,0,L|216:80,1,75,4|2,0:2|0:0,0:0:0:0:
241,6,222672,6,0,B|221:6|205:-2|205:-2|189:6|189:6|173:14|173:14|153:6|129:6,1,112.5,4|0,0:1|0:0,0:0:0:0:
102,28,223217,1,8,0:0:0:0:
130,105,223490,1,2,0:0:0:0:
74,166,223763,2,0,L|78:246,1,75,8|2,0:0|0:0,0:0:0:0:
160,245,224308,2,0,L|156:325,1,75,8|2,0:0|0:0,0:0:0:0:
217,375,224854,6,0,P|136:346|79:391,2,150,8|8|8,0:0|0:0|0:0,0:0:0:0:
281,222,226490,2,0,L|359:226,1,75,0|0,0:0|0:0,0:0:0:0:
405,292,227036,5,0,0:0:0:0:
