osu file format v14

[General]
AudioFilename: BTS - Not Today.mp3
AudioLeadIn: 0
PreviewTime: 69331
Countdown: 0
SampleSet: Soft
StackLeniency: 0.3
Mode: 0
LetterboxInBreaks: 0
WidescreenStoryboard: 0

[Editor]
DistanceSpacing: 1.2
BeatDivisor: 4
GridSize: 4
TimelineZoom: 2.5

[Metadata]
Title:Not Today
TitleUnicode:Not Today
Artist:BTS
ArtistUnicode:방탄소년단
Creator:DeRandom Otaku
Version:Tomorrow
Source:
Tags:Rap monster jungkook suga jimin j-hope v jin hot yoongi 랩몬스터 진 슈가 제이홉 지민 뷔 정국 k-pop kpop log off now DT3 Diamond Turtle Shyotamaze Deppyforce Neoskylove HabiHolic Cerulean Veyron CV You Never Walk Alone big hit entertainment bantansoyeondan bangtan boys
BeatmapID:1219126
BeatmapSetID:575767

[Difficulty]
HPDrainRate:6
CircleSize:4
OverallDifficulty:8
ApproachRate:9.5
SliderMultiplier:2.2
SliderTickRate:1

[Events]
//Background and Video events
0,0,"BG.jpg",0,0
//Break Periods
2,174872,182874
//Storyboard Layer 0 (Background)
//Storyboard Layer 1 (Fail)
//Storyboard Layer 2 (Pass)
//Storyboard Layer 3 (Foreground)
//Storyboard Sound Samples

[TimingPoints]
127,545.454545454546,4,2,2,40,1,0
127,-133.333333333333,4,2,2,40,0,0
8854,-133.333333333333,4,3,2,60,0,0
17036,-83.3333333333333,4,3,4,70,0,0
17513,-83.3333333333333,4,2,2,5,0,0
17581,-100,4,2,2,50,0,0
33945,-86.9565217391304,4,2,2,50,0,0
35036,-80,4,2,2,50,0,0
52490,-111.111111111111,4,3,1,60,0,0
61217,-83.3333333333333,4,3,1,60,0,0
65581,-74.0740740740741,4,3,1,60,0,0
69399,-153.846153846154,4,3,4,70,0,0
69877,-153.846153846154,4,2,0,5,0,0
69945,-64.5161290322581,4,3,3,80,0,1
73763,-142.857142857143,4,3,3,80,0,1
74240,-142.857142857143,4,3,3,5,0,1
74308,-64.5161290322581,4,3,3,80,0,1
86308,-133.333333333333,4,2,2,80,0,1
86854,-153.846153846154,4,2,2,30,0,0
87331,-153.846153846154,4,2,0,5,0,0
87399,-64.5161290322581,4,3,5,80,0,1
87536,-64.5161290322581,4,3,3,80,0,1
91217,-133.333333333333,4,3,3,80,0,1
91695,-133.333333333333,4,3,3,5,0,1
91763,-64.5161290322581,4,3,5,80,0,1
91899,-64.5161290322581,4,3,3,80,0,1
99945,-133.333333333333,4,3,3,80,0,1
100422,-133.333333333333,4,3,3,5,0,1
100490,-64.5161290322581,4,3,3,80,0,1
103763,-153.846153846154,4,3,3,30,0,1
104854,-100,4,2,2,50,0,0
113581,-83.3333333333333,4,2,2,50,0,0
118490,-83.3333333333333,4,2,0,20,0,0
119036,-83.3333333333333,4,2,2,50,0,0
119581,-83.3333333333333,4,2,0,20,0,0
120127,-83.3333333333333,4,2,2,50,0,0
122308,-100,4,3,1,60,0,0
131036,-83.3333333333333,4,3,1,60,0,0
135399,-74.0740740740741,4,3,1,60,0,0
139217,-153.846153846154,4,3,4,70,0,0
139695,-153.846153846154,4,2,0,5,0,0
139763,-62.5,4,3,3,80,0,1
143581,-133.333333333333,4,3,3,80,0,1
144058,-133.333333333333,4,3,3,5,0,1
144127,-62.5,4,3,3,80,0,1
156127,-153.846153846154,4,2,2,80,0,1
156672,-181.818181818182,4,2,2,30,0,0
157149,-181.818181818182,4,2,0,5,0,0
157217,-62.5,4,3,5,80,0,1
157354,-62.5,4,3,3,80,0,1
161036,-153.846153846154,4,3,3,80,0,1
161513,-153.846153846154,4,3,3,5,0,1
161581,-62.5,4,3,5,80,0,1
161717,-62.5,4,3,3,80,0,1
169763,-153.846153846154,4,3,3,80,0,1
170240,-153.846153846154,4,3,3,5,0,1
170308,-62.5,4,3,3,80,0,1
173581,-133.333333333333,4,2,2,30,0,1
174672,-133.333333333333,4,2,2,40,0,0
183399,-90.9090909090909,4,2,2,40,0,0
187763,-90.9090909090909,4,3,1,60,0,0
189945,-74.0740740740741,4,3,1,60,0,0
191581,-125,4,3,4,70,0,0
192058,-125,4,2,0,5,0,0
192127,-60.6060606060606,4,3,3,80,0,1
195945,-144.927536231884,4,3,3,80,0,1
196422,-144.927536231884,4,3,3,5,0,1
196490,-60.6060606060606,4,3,3,80,0,1
208490,-133.333333333333,4,2,2,80,0,1
209036,-133.333333333333,4,2,2,30,0,0
209513,-133.333333333333,4,2,0,5,0,0
209581,-60.6060606060606,4,3,5,80,0,1
209717,-60.6060606060606,4,3,3,80,0,1
213399,-153.846153846154,4,3,3,80,0,1
213877,-153.846153846154,4,3,3,5,0,1
213945,-60.6060606060606,4,3,5,80,0,1
214081,-60.6060606060606,4,3,3,80,0,1
222127,-144.927536231884,4,3,3,80,0,1
222604,-144.927536231884,4,3,3,5,0,1
222672,-60.6060606060606,4,3,3,80,0,1
226490,-60.6060606060606,4,2,2,30,0,1
227036,-60.6060606060606,4,3,4,70,0,0

[Colours]
Combo1 : 255,128,64
Combo2 : 131,43,164
Combo3 : 170,85,85
Combo4 : 55,255,55

[HitObjects]
82,260,127,6,0,P|140:281|197:261,1,123.750004720688,4|8,0:0|0:0,0:0:0:0:
137,106,672,2,0,L|140:189,1,82.5000031471254,0|8,0:0|0:0,0:0:0:0:
196,36,1217,6,0,P|138:15|81:35,1,123.750004720688,0|8,0:0|0:0,0:0:0:0:
140,189,1763,2,0,L|137:106,1,82.5000031471254,0|8,0:0|0:0,0:0:0:0:
342,78,2308,6,0,L|346:218,1,123.750004720688,0|8,0:0|0:0,0:0:0:0:
319,244,2854,1,0,0:0:0:0:
368,35,3127,1,8,0:0:0:0:
170,78,3399,6,0,L|166:218,1,123.750004720688,0|8,0:0|0:0,0:0:0:0:
193,244,3945,1,0,0:0:0:0:
144,35,4218,1,2,0:0:0:0:
319,244,4490,6,0,B|375:244|375:244|389:238|389:238|447:238,1,123.750004720688,4|8,0:0|0:0,0:0:0:0:
301,168,5036,2,0,P|263:188|241:230,1,82.5000031471254,0|8,0:0|0:0,0:0:0:0:
301,168,5581,6,0,B|245:168|245:168|231:162|231:162|173:162,1,123.750004720688,0|8,0:0|0:0,0:0:0:0:
319,92,6127,2,0,P|355:110|376:145,1,82.5000031471254,0|8,0:0|0:0,0:0:0:0:
426,247,6672,6,0,P|382:205|377:145,1,123.750004720688,0|8,0:0|0:0,0:0:0:0:
465,165,7217,1,0,0:0:0:0:
465,165,7490,1,8,0:0:0:0:
302,243,7763,6,0,L|433:247,1,123.750004720688,0|8,0:0|0:0,0:0:0:0:
480,302,8308,1,0,0:0:0:0:
424,357,8445,2,0,L|400:356,2,20.6250007867813,0|0|8,0:0|0:0|0:0,0:0:0:0:
480,302,8717,1,0,0:0:0:0:
302,243,8854,6,0,P|302:182|345:121,1,123.750004720688,4|0,0:0|0:0,0:0:0:0:
377,71,9399,2,0,P|333:78|290:67,1,82.5000031471254,8|0,0:0|0:0,0:0:0:0:
210,243,9945,6,0,P|210:182|167:121,1,123.750004720688,0|0,0:0|0:0,0:0:0:0:
135,71,10490,2,0,P|179:78|222:67,1,82.5000031471254,8|0,0:0|0:0,0:0:0:0:
377,71,11036,6,0,L|366:208,1,123.750004720688,0|2,0:0|0:0,0:0:0:0:
360,276,11581,2,0,L|367:191,1,82.5000031471254,8|2,0:0|0:0,0:0:0:0:
135,71,12127,6,0,L|146:208,1,123.750004720688,0|2,0:0|0:0,0:0:0:0:
152,276,12672,2,0,L|145:191,1,82.5000031471254,8|2,0:0|0:0,0:0:0:0:
352,85,13217,6,0,B|476:85|476:85|445:130,1,165.000006294251,12|8,0:0|0:0,0:0:0:0:
160,277,14308,2,0,B|36:277|36:277|67:232,1,165.000006294251,8|8,0:0|0:0,0:0:0:0:
352,85,15399,5,8,0:0:0:0:
352,277,15672,1,10,0:0:0:0:
160,277,15945,1,8,0:0:0:0:
160,85,16217,1,10,0:0:0:0:
320,117,16490,5,10,0:0:0:0:
320,245,16627,1,10,0:0:0:0:
192,245,16763,1,8,0:0:0:0:
192,117,16900,1,10,0:0:0:0:
256,181,17036,6,0,B|205:195|165:174|165:174|136:186|136:186|91:159|30:191,1,230.99999295044,0|0,0:0|0:0,0:0:0:0:
89,265,17581,6,0,L|82:92,1,165,4|0,0:0|0:0,0:0:0:0:
30,36,18127,2,0,P|78:52|142:32,1,110,8|2,0:0|0:0,0:0:0:0:
282,118,18672,2,0,P|334:103|386:119,1,110,0|2,0:0|0:0,0:0:0:0:
207,169,19217,2,0,P|193:141|209:60,1,110,8|0,0:0|0:0,0:0:0:0:
300,282,19763,6,0,L|282:117,1,165,2|0,0:0|0:0,0:0:0:0:
207,169,20308,1,8,0:0:0:0:
204,65,20581,2,0,P|189:117|207:169,1,110,2|0,0:0|0:0,0:0:0:0:
282,117,20990,1,2,0:0:0:0:
290,199,21126,1,2,0:0:0:0:
299,281,21262,1,0,0:0:0:0:
307,363,21399,1,8,0:0:0:0:
282,117,21672,1,2,0:0:0:0:
307,363,21945,6,0,L|476:363,1,165,4|0,0:0|0:0,0:0:0:0:
299,281,22490,2,0,L|418:281,1,110,8|2,0:0|0:0,0:0:0:0:
290,199,23036,2,0,L|409:199,1,110,0|2,0:0|0:0,0:0:0:0:
281,117,23581,2,0,L|400:117,1,110,8|0,0:0|0:0,0:0:0:0:
299,281,24127,6,0,L|281:116,1,165,2|0,0:0|0:0,0:0:0:0:
208,88,24672,2,0,P|233:53|300:41,1,110,8|2,0:0|0:0,0:0:0:0:
281,117,25081,1,0,0:0:0:0:
354,146,25217,2,0,P|329:181|262:193,1,110,0|2,0:0|0:0,0:0:0:0:
281,117,25627,1,0,0:0:0:0:
354,146,25763,2,0,P|379:163|406:190,1,55,8|0,0:0|0:0,0:0:0:0:
298,270,26036,2,0,P|273:253|246:226,1,55,2|0,0:0|0:0,0:0:0:0:
195,140,26308,6,0,L|221:327,1,165,4|0,0:0|0:0,0:0:0:0:
108,299,26854,2,0,L|233:304,1,110,8|2,0:0|0:0,0:0:0:0:
305,136,27399,2,0,L|180:141,1,110,0|2,0:0|0:0,0:0:0:0:
382,183,27945,2,0,P|396:133|369:73,1,110,8|2,0:0|0:0,0:0:0:0:
305,136,28354,1,0,0:0:0:0:
458,212,28490,5,2,0:0:0:0:
471,218,28763,1,0,0:0:0:0:
318,142,28899,2,0,L|322:212,1,55,0|8,0:0|0:0,0:0:0:0:
474,273,29172,1,0,0:0:0:0:
321,197,29308,2,0,L|325:267,1,55,2|0,0:0|0:0,0:0:0:0:
477,328,29581,2,0,L|470:206,1,110,0|2,0:0|0:0,0:0:0:0:
464,108,29990,1,0,0:0:0:0:
471,218,30127,2,0,L|464:108,1,110,8|2,0:0|0:0,0:0:0:0:
394,41,30536,1,0,0:0:0:0:
233,52,30672,6,0,B|311:52|311:52|324:41|324:41|415:41,1,165,4|0,0:0|0:0,0:0:0:0:
159,104,31217,2,0,P|141:53|159:0,1,110,8|2,0:0|0:0,0:0:0:0:
160,206,31763,2,0,P|142:155|159:104,1,110,0|2,0:0|0:0,0:0:0:0:
289,150,32308,2,0,L|235:155,1,55,8|0,0:0|0:0,0:0:0:0:
159,104,32581,2,0,L|104:99,1,55,0|0,0:0|0:0,0:0:0:0:
26,149,32854,5,2,0:0:0:0:
26,252,32990,2,0,P|43:200|25:148,1,110,8|8,0:0|0:0,0:0:0:0:
121,223,33399,1,8,0:0:0:0:
121,223,33536,1,8,0:0:0:0:
159,104,33672,2,0,P|159:77|149:43,1,55,2|8,0:0|0:0,0:0:0:0:
121,223,33945,6,0,L|130:294,1,63.250001206398,0|2,0:0|0:0,0:0:0:0:
308,350,34217,2,0,L|315:287,1,63.250001206398,2|0,0:0|0:0,0:0:0:0:
106,246,34490,2,0,L|115:317,1,63.250001206398,8|0,0:0|0:0,0:0:0:0:
293,373,34762,2,0,L|300:310,1,63.250001206398,2|0,0:0|0:0,0:0:0:0:
258,153,35036,6,0,P|294:156|337:153,1,68.75,4|0,0:0|0:0,0:0:0:0:
443,145,35308,1,2,0:0:0:0:
443,145,35445,1,0,0:0:0:0:
320,86,35581,2,0,L|327:158,1,68.75,8|0,0:0|0:0,0:0:0:0:
449,213,35854,2,0,L|442:141,1,68.75,2|2,0:0|0:0,0:0:0:0:
391,267,36127,6,0,P|437:291|515:256,2,137.5,0|2|8,0:0|0:0|0:0,0:0:0:0:
278,179,36945,1,2,0:0:0:0:
278,179,37217,5,2,0:0:0:0:
257,258,37354,2,0,B|317:259|317:259|325:267|325:267|402:267,1,137.5,0|0,0:0|0:0,0:0:0:0:
484,212,37763,1,8,0:0:0:0:
484,212,37899,1,0,0:0:0:0:
391,267,38036,2,0,L|396:351,1,68.75,2|0,0:0|0:0,0:0:0:0:
311,264,38308,6,0,P|339:204|404:187,1,137.5,0|2,0:0|0:0,0:0:0:0:
484,212,38717,1,0,0:0:0:0:
396,119,38854,2,0,L|404:188,1,68.75,8|0,0:0|0:0,0:0:0:0:
311,265,39127,2,0,L|320:188,1,68.75,2|0,0:0|0:0,0:0:0:0:
321,70,39399,6,0,P|287:64|251:69,1,68.75,4|0,0:0|0:0,0:0:0:0:
126,188,39672,2,0,P|159:193|194:189,1,68.75,2|0,0:0|0:0,0:0:0:0:
164,34,39945,2,0,P|158:67|162:101,1,68.75,8|0,0:0|0:0,0:0:0:0:
166,277,40217,1,2,0:0:0:0:
166,277,40354,1,2,0:0:0:0:
194,189,40490,5,0,0:0:0:0:
244,313,40627,1,0,0:0:0:0:
166,277,40763,1,2,0:0:0:0:
272,225,40899,1,0,0:0:0:0:
114,209,41036,1,8,0:0:0:0:
349,102,41308,1,2,0:0:0:0:
349,102,41581,6,0,L|420:109,1,68.75,2|0,0:0|0:0,0:0:0:0:
495,204,41854,1,8,0:0:0:0:
417,234,41990,1,8,0:0:0:0:
418,109,42127,2,0,P|427:75|451:46,1,68.75,8|0,0:0|0:0,0:0:0:0:
417,234,42399,2,0,P|408:268|384:297,1,68.75,2|0,0:0|0:0,0:0:0:0:
213,281,42672,5,0,0:0:0:0:
213,281,42808,2,0,P|258:231|325:230,1,137.5,2|0,0:0|0:0,0:0:0:0:
387,294,43217,1,8,0:0:0:0:
296,316,43354,1,0,0:0:0:0:
325,230,43490,2,0,P|319:188|304:151,1,68.75,2|0,0:0|0:0,0:0:0:0:
203,76,43763,6,0,L|208:166,1,68.75,4|0,0:0|0:0,0:0:0:0:
193,228,44036,1,2,0:0:0:0:
114,119,44172,1,0,0:0:0:0:
311,164,44308,2,0,P|346:170|380:190,1,68.75,8|0,0:0|0:0,0:0:0:0:
193,228,44581,2,0,P|158:222|124:202,1,68.75,2|0,0:0|0:0,0:0:0:0:
256,50,44854,5,0,0:0:0:0:
256,50,45127,1,2,0:0:0:0:
345,124,45263,1,2,0:0:0:0:
167,124,45399,1,8,0:0:0:0:
148,124,45672,1,2,0:0:0:0:
129,124,45945,6,0,L|134:203,1,68.75,2|0,0:0|0:0,0:0:0:0:
252,287,46217,2,0,L|256:218,1,68.75,0|0,0:0|0:0,0:0:0:0:
195,342,46490,2,0,P|225:361|266:363,1,68.75,8|0,0:0|0:0,0:0:0:0:
133,192,46763,2,0,P|99:195|70:214,1,68.75,2|0,0:0|0:0,0:0:0:0:
252,287,47036,5,0,0:0:0:0:
252,287,47308,1,2,0:0:0:0:
133,192,47445,1,2,0:0:0:0:
309,219,47581,1,8,0:0:0:0:
321,222,47854,1,2,0:0:0:0:
333,225,48127,6,0,P|339:186|331:148,1,68.75,4|0,0:0|0:0,0:0:0:0:
216,100,48399,1,2,0:0:0:0:
248,188,48536,1,0,0:0:0:0:
300,66,48672,2,0,L|381:76,1,68.75,8|0,0:0|0:0,0:0:0:0:
248,188,48945,1,2,0:0:0:0:
216,100,49082,1,2,0:0:0:0:
141,266,49217,6,0,L|146:334,1,68.75,0|0,0:0|0:0,0:0:0:0:
242,256,49490,2,0,L|248:188,1,68.75,2|0,0:0|0:0,0:0:0:0:
374,153,49763,2,0,P|320:187|245:187,1,137.5,8|2,0:0|0:0,0:0:0:0:
248,188,50308,5,2,0:0:0:0:
218,279,50445,2,0,B|275:279|275:279|289:286|289:286|363:286,1,137.5,0|0,0:0|0:0,0:0:0:0:
447,150,50854,2,0,P|440:189|449:221,1,68.75,8|0,0:0|0:0,0:0:0:0:
353,352,51127,2,0,P|360:319|353:286,1,68.75,2|0,0:0|0:0,0:0:0:0:
339,158,51399,6,0,P|289:185|211:159,1,137.5,0|2,0:0|0:0,0:0:0:0:
135,128,51763,5,0,0:0:0:0:
135,128,51854,5,0,0:0:0:0:
135,128,51945,6,0,L|138:213,1,68.75,8|0,0:0|0:0,0:0:0:0:
274,95,52217,2,0,L|271:10,1,68.75,2|0,0:0|0:0,0:0:0:0:
138,197,52490,6,0,P|138:271|196:324,1,148.49999546814,4|2,0:0|0:0,0:0:0:0:
271,227,53036,2,0,P|246:227|222:234,1,49.4999984893799,8|0,0:0|0:0,0:0:0:0:
103,282,53308,1,2,0:0:0:0:
188,321,53445,1,2,0:0:0:0:
222,234,53581,6,0,P|245:228|270:227,1,49.4999984893799,0|2,0:0|0:0,0:0:0:0:
358,284,53854,2,0,P|382:283|406:277,1,49.4999984893799,2|0,0:0|0:0,0:0:0:0:
465,231,54127,2,0,L|458:348,1,98.9999969787599,8|2,0:0|0:0,0:0:0:0:
369,200,54536,1,2,0:0:0:0:
369,200,54672,6,0,L|374:101,1,98.9999969787599,0|0,0:0|0:0,0:0:0:0:
427,37,55081,1,2,0:0:0:0:
427,37,55217,2,0,L|489:45,1,49.4999984893799,8|0,0:0|0:0,0:0:0:0:
375,101,55490,6,0,L|313:93,1,49.4999984893799,2|0,0:0|0:0,0:0:0:0:
245,36,55763,2,0,L|195:42,1,49.4999984893799,2|2,0:0|0:0,0:0:0:0:
347,183,56036,2,0,L|285:175,1,49.4999984893799,0|0,0:0|0:0,0:0:0:0:
217,118,56309,2,0,L|167:124,1,49.4999984893799,10|0,0:0|0:0,0:0:0:0:
319,265,56581,1,2,0:0:0:0:
189,200,56717,1,2,0:0:0:0:
189,200,56854,6,0,B|174:251|174:251|187:348,1,148.49999546814,4|2,0:0|0:0,0:0:0:0:
186,345,57399,1,8,0:0:0:0:
319,265,57536,1,0,0:0:0:0:
358,361,57672,1,2,0:0:0:0:
402,239,57808,1,2,0:0:0:0:
251,307,57945,6,0,P|240:275|239:240,1,49.4999984893799,0|2,0:0|0:0,0:0:0:0:
278,176,58217,2,0,P|274:151|265:128,1,49.4999984893799,2|0,0:0|0:0,0:0:0:0:
142,170,58490,2,0,P|146:195|155:218,1,49.4999984893799,8|0,0:0|0:0,0:0:0:0:
238,259,58763,1,2,0:0:0:0:
186,104,58899,1,2,0:0:0:0:
186,104,59036,6,0,P|139:90|90:110,1,98.9999969787599,0|0,0:0|0:0,0:0:0:0:
142,170,59445,1,2,0:0:0:0:
212,34,59581,2,0,L|271:38,1,49.4999984893799,8|0,0:0|0:0,0:0:0:0:
335,100,59854,6,0,P|340:69|350:47,1,49.4999984893799,2|0,0:0|0:0,0:0:0:0:
435,181,60127,2,0,P|430:150|420:128,1,49.4999984893799,2|2,0:0|0:0,0:0:0:0:
336,261,60399,2,0,P|341:230|351:208,1,49.4999984893799,0|0,0:0|0:0,0:0:0:0:
436,342,60672,2,0,P|431:311|421:289,1,49.4999984893799,10|0,0:0|0:0,0:0:0:0:
331,339,60945,1,2,0:0:0:0:
411,256,61081,1,2,0:0:0:0:
191,215,61217,6,0,P|191:151|247:92,1,131.99999597168,4|0,0:0|0:0,0:0:0:0:
376,37,61627,1,0,0:0:0:0:
342,181,61763,2,0,P|310:186|278:180,1,65.9999979858399,8|0,0:0|0:0,0:0:0:0:
139,142,62036,1,0,0:0:0:0:
213,24,62172,1,2,0:0:0:0:
278,180,62308,6,0,L|274:268,1,65.9999979858399,0|0,0:0|0:0,0:0:0:0:
210,90,62581,2,0,L|214:2,1,65.9999979858399,2|0,0:0|0:0,0:0:0:0:
275,245,62854,2,0,L|271:333,1,65.9999979858399,8|0,0:0|0:0,0:0:0:0:
210,90,63127,1,2,0:0:0:0:
275,245,63263,1,2,0:0:0:0:
145,234,63399,6,0,B|187:234|187:234|234:245|234:245|291:245,1,131.99999597168,4|0,0:0|0:0,0:0:0:0:
402,220,63808,1,0,0:0:0:0:
278,179,63945,2,0,P|273:209|278:254,1,65.9999979858399,8|0,0:0|0:0,0:0:0:0:
400,285,64217,2,0,P|404:254|399:209,1,65.9999979858399,0|0,0:0|0:0,0:0:0:0:
376,74,64490,6,0,L|465:86,1,65.9999979858399,2|0,0:0|0:0,0:0:0:0:
278,178,64763,2,0,L|213:187,1,65.9999979858399,0|2,0:0|0:0,0:0:0:0:
311,65,65036,2,0,L|400:77,1,65.9999979858399,8|0,0:0|0:0,0:0:0:0:
213,187,65308,1,2,0:0:0:0:
372,166,65445,1,2,0:0:0:0:
152,135,65581,6,0,P|134:184|183:261,1,148.500000566483,12|2,0:0|0:0,0:0:0:0:
307,290,65990,1,0,0:0:0:0:
213,187,66127,1,8,0:0:0:0:
234,358,66263,1,0,0:0:0:0:
307,187,66399,1,2,0:0:0:0:
380,358,66536,1,0,0:0:0:0:
307,290,66672,5,12,0:0:0:0:
487,308,66808,1,0,0:0:0:0:
398,178,66945,1,2,0:0:0:0:
380,358,67081,1,0,0:0:0:0:
469,223,67217,1,8,0:0:0:0:
307,290,67354,1,0,0:0:0:0:
487,308,67490,1,2,0:0:0:0:
325,212,67627,1,0,0:0:0:0:
479,47,67763,6,0,L|476:123,1,74.2500002832413,12|0,0:0|0:0,0:0:0:0:
320,106,68036,2,0,L|322:31,1,74.2500002832413,8|0,0:0|0:0,0:0:0:0:
394,199,68308,1,12,0:0:0:0:
401,53,68445,1,0,0:0:0:0:
256,169,68581,2,0,P|240:133|241:88,1,74.2500002832413,8|0,0:0|0:0,0:0:0:0:
401,53,68854,5,12,0:0:0:0:
360,290,68990,1,8,0:0:0:0:
239,99,69127,1,12,0:0:0:0:
488,189,69263,1,8,0:0:0:0:
225,235,69399,6,0,B|187:231|172:240|172:240|151:236|151:236|132:244|96:238,1,125.124994272232,0|0,0:0|0:0,0:0:0:0:
62,156,69945,6,0,L|57:331,1,170.500001300812,4|2,0:1|0:0,0:0:0:0:
225,235,70354,1,0,0:0:0:0:
98,73,70490,2,0,P|59:64|14:78,1,85.2500006504059,8|0,0:0|0:0,0:0:0:0:
188,305,70763,2,0,P|226:313|271:299,1,85.2500006504059,2|0,0:0|0:0,0:0:0:0:
252,136,71036,6,0,B|214:110|214:110|225:243,1,170.500001300812,8|2,0:0|0:0,0:0:0:0:
331,349,71445,1,2,0:0:0:0:
337,126,71581,2,0,L|242:137,1,85.2500006504059,8|0,0:0|0:0,0:0:0:0:
331,349,71854,2,0,L|426:338,1,85.2500006504059,2|0,0:0|0:0,0:0:0:0:
224,235,72127,6,0,B|117:235|161:283|52:282,1,170.500001300812,8|2,0:0|0:0,0:0:0:0:
199,329,72536,1,0,0:0:0:0:
96,106,72672,2,0,P|83:146|81:189,1,85.2500006504059,8|0,0:0|0:0,0:0:0:0:
199,329,72945,6,0,P|241:326|281:313,1,85.2500006504059,2|0,0:0|0:0,0:0:0:0:
179,91,73217,2,0,P|136:93|96:106,1,85.2500006504059,8|0,0:0|0:0,0:0:0:0:
282,313,73490,2,0,P|294:272|297:230,1,85.2500006504059,2|2,0:0|0:0,0:0:0:0:
108,256,73763,6,0,B|201:256|201:256|165:219,1,134.749995887756,4|0,0:2|0:0,0:0:0:0:
67,187,74308,6,0,P|30:239|71:327,1,170.500001300812,4|2,0:1|0:0,0:0:0:0:
226,161,74717,1,0,0:0:0:0:
256,352,74854,2,0,P|300:358|346:350,1,85.2500006504059,8|0,0:0|0:0,0:0:0:0:
226,161,75127,2,0,P|182:155|136:163,1,85.2500006504059,2|0,0:0|0:0,0:0:0:0:
305,266,75399,6,0,B|346:253|380:269|380:269|398:257|398:257|430:273|475:254,1,170.500001300812,8|2,0:0|0:0,0:0:0:0:
341,352,75808,1,2,0:0:0:0:
435,173,75945,2,0,B|435:130|435:130|414:89,1,85.2500006504059,8|0,0:0|0:0,0:0:0:0:
207,81,76217,2,0,B|207:124|207:124|228:165,1,85.2500006504059,2|0,0:0|0:0,0:0:0:0:
341,352,76490,6,0,B|269:352|269:352|248:341|248:341|172:341,1,170.500001300812,8|2,0:0|0:0,0:0:0:0:
27,274,76899,1,0,0:0:0:0:
227,162,77036,2,0,L|217:260,1,85.2500006504059,8|0,0:0|0:0,0:0:0:0:
341,352,77308,6,0,L|331:254,1,85.2500006504059,2|0,0:0|0:0,0:0:0:0:
213,165,77581,2,0,L|203:263,1,85.2500006504059,8|0,0:0|0:0,0:0:0:0:
362,358,77853,2,0,L|352:260,1,85.2500006504059,2|2,0:0|0:0,0:0:0:0:
328,102,78127,5,8,0:0:0:0:
279,279,78263,1,8,0:0:0:0:
279,279,78331,1,8,0:0:0:0:
279,279,78399,1,2,0:0:0:0:
440,214,78536,1,2,0:0:0:0:
213,165,78672,6,0,B|162:182|109:165|109:165|145:182|147:231,1,170.500001300812,4|2,0:1|0:0,0:0:0:0:
162,44,79081,1,0,0:0:0:0:
69,231,79217,2,0,L|77:322,1,85.2500006504059,8|0,0:0|0:0,0:0:0:0:
284,216,79490,6,0,L|291:131,1,85.2500006504059,2|0,0:0|0:0,0:0:0:0:
195,317,79763,1,8,0:0:0:0:
354,333,79899,1,0,0:0:0:0:
186,301,80036,1,2,0:0:0:0:
363,347,80172,1,2,0:0:0:0:
177,285,80308,2,0,P|135:286|92:307,1,85.2500006504059,8|0,0:0|0:0,0:0:0:0:
372,361,80581,2,0,P|414:360|457:339,1,85.2500006504059,2|0,0:0|0:0,0:0:0:0:
366,89,80854,6,0,L|390:259,1,170.500001300812,4|2,0:1|0:0,0:0:0:0:
478,112,81263,1,0,0:0:0:0:
259,188,81399,2,0,P|301:201|349:191,1,85.2500006504059,8|0,0:0|0:0,0:0:0:0:
169,82,81672,6,0,P|127:75|86:88,1,85.2500006504059,2|0,0:0|0:0,0:0:0:0:
43,260,81945,1,8,0:0:0:0:
134,167,82081,1,0,0:0:0:0:
147,357,82217,1,2,0:0:0:0:
238,264,82353,1,2,0:0:0:0:
43,260,82490,2,0,B|36:217|36:217|50:170,1,85.2500006504059,4|0,0:2|0:0,0:0:0:0:
238,264,82763,2,0,B|245:307|245:307|231:354,1,85.2500006504059,2|2,0:0|0:0,0:0:0:0:
135,167,83036,6,0,P|214:186|238:264,1,170.500001300812,4|2,0:1|0:0,0:0:0:0:
296,128,83445,1,0,0:0:0:0:
156,249,83581,2,0,L|46:244,1,85.2500006504059,8|0,0:0|0:0,0:0:0:0:
296,128,83854,5,2,0:0:0:0:
238,264,83990,1,0,0:0:0:0:
199,62,84127,1,8,0:0:0:0:
315,233,84263,1,0,0:0:0:0:
363,27,84399,1,2,0:0:0:0:
296,128,84536,1,2,0:0:0:0:
482,117,84672,2,0,L|476:234,1,85.2500006504059,8|0,0:0|0:0,0:0:0:0:
194,147,84945,2,0,L|200:30,1,85.2500006504059,2|0,0:0|0:0,0:0:0:0:
320,264,85217,5,8,0:0:0:0:
326,278,85763,5,8,0:0:0:0:
352,88,85899,1,2,0:0:0:0:
355,76,86308,6,0,L|219:89,1,123.750004720688,8|2,0:0|0:0,0:0:0:0:
158,40,86854,2,0,P|187:90|165:154,1,125.124994272232,4|0,0:0|0:0,0:0:0:0:
95,180,87399,6,0,P|91:138|109:100,1,85.2500006504059,4|0,0:2|0:0,0:0:0:0:
202,271,87672,1,2,0:0:0:0:
168,151,87808,1,0,0:0:0:0:
281,282,87945,2,0,P|262:322|227:346,1,85.2500006504059,8|0,0:0|0:0,0:0:0:0:
168,151,88217,2,0,P|208:140|249:151,1,85.2500006504059,2|0,0:0|0:0,0:0:0:0:
384,259,88490,5,8,0:0:0:0:
209,220,88627,1,0,0:0:0:0:
383,175,88763,2,0,B|391:218|391:218|384:259,1,85.2500006504059,2|2,0:0|0:0,0:0:0:0:
229,345,89036,1,8,0:0:0:0:
250,151,89172,1,0,0:0:0:0:
385,343,89308,2,0,B|392:302|392:302|384:259,1,85.2500006504059,2|0,0:0|0:0,0:0:0:0:
214,80,89581,6,0,P|171:151|219:224,1,170.500001300812,8|2,0:0|0:0,0:0:0:0:
385,343,89990,1,0,0:0:0:0:
333,139,90127,2,0,P|289:138|249:150,1,85.2500006504059,8|0,0:0|0:0,0:0:0:0:
443,177,90399,6,0,P|450:144|434:83,1,85.2500006504059,2|0,0:0|0:0,0:0:0:0:
250,151,90672,2,0,P|243:184|259:245,1,85.2500006504059,8|0,0:0|0:0,0:0:0:0:
293,57,90945,2,0,P|253:46|200:62,1,85.2500006504059,2|2,0:0|0:0,0:0:0:0:
112,236,91217,6,0,B|157:249|186:236|186:236|216:247|267:230,1,144.375005507469,4|0,0:2|0:0,0:0:0:0:
338,233,91763,6,0,P|295:228|253:234,1,85.2500006504059,4|0,0:2|0:0,0:0:0:0:
58,317,92036,1,2,0:0:0:0:
149,135,92172,1,0,0:0:0:0:
240,317,92308,2,0,P|253:280|253:228,1,85.2500006504059,8|0,0:0|0:0,0:0:0:0:
58,317,92581,2,0,P|44:276|43:234,1,85.2500006504059,2|0,0:0|0:0,0:0:0:0:
44,62,92854,5,8,0:0:0:0:
149,220,92990,1,0,0:0:0:0:
254,62,93127,2,0,P|302:62|339:84,1,85.2500006504059,2|2,0:0|0:0,0:0:0:0:
362,257,93399,1,8,0:0:0:0:
280,138,93536,1,0,0:0:0:0:
415,315,93672,2,0,P|377:333|335:332,1,85.2500006504059,2|2,0:0|0:0,0:0:0:0:
280,138,93945,6,0,P|355:178|355:269,1,170.500001300812,8|2,0:0|0:0,0:0:0:0:
256,355,94354,1,0,0:0:0:0:
211,179,94490,2,0,P|201:135|217:90,1,85.2500006504059,8|0,0:0|0:0,0:0:0:0:
461,163,94763,6,0,B|419:171|419:171|361:162,1,85.2500006504059,2|0,0:0|0:0,0:0:0:0:
129,99,95036,2,0,B|171:91|171:91|229:100,1,85.2500006504059,8|0,0:0|0:0,0:0:0:0:
461,195,95308,2,0,B|419:203|419:203|361:194,1,85.2500006504059,2|2,0:0|0:0,0:0:0:0:
413,34,95581,5,4,0:2:0:0:
287,145,95717,1,0,0:0:0:0:
287,145,95786,1,0,0:0:0:0:
287,145,95854,1,2,0:0:0:0:
461,195,95990,1,2,0:0:0:0:
161,97,96127,6,0,L|170:286,1,170.500001300812,4|2,0:1|0:0,0:0:0:0:
260,354,96536,1,0,0:0:0:0:
287,145,96672,2,0,P|246:145|195:165,1,85.2500006504059,8|0,0:0|0:0,0:0:0:0:
85,277,96945,6,0,L|187:266,1,85.2500006504059,2|0,0:0|0:0,0:0:0:0:
372,136,97217,2,0,L|270:147,1,85.2500006504059,8|0,0:0|0:0,0:0:0:0:
260,354,97490,2,0,L|344:344,1,85.2500006504059,2|2,0:0|0:0,0:0:0:0:
166,115,97763,2,0,P|137:178|171:269,1,170.500001300812,8|2,0:0|0:0,0:0:0:0:
170,268,98172,1,0,0:0:0:0:
246,67,98308,6,0,L|74:78,1,170.500001300812,8|2,0:0|0:0,0:0:0:0:
287,145,98717,1,0,0:0:0:0:
76,159,98854,2,0,P|64:113|82:70,1,85.2500006504059,8|0,0:0|0:0,0:0:0:0:
287,145,99127,6,0,L|280:238,1,85.2500006504059,2|0,0:0|0:0,0:0:0:0:
164,353,99399,2,0,L|170:267,1,85.2500006504059,8|0,0:0|0:0,0:0:0:0:
392,282,99672,2,0,L|385:367,1,85.2500006504059,2|2,0:0|0:0,0:0:0:0:
287,145,99945,6,0,B|293:71|293:71|287:58|287:58|296:51|296:51|299:0,1,144.375005507469,4|0,0:2|0:0,0:0:0:0:
210,166,100490,6,0,P|265:221|353:188,1,170.500001300812,4|2,0:1|0:0,0:0:0:0:
481,62,100899,1,0,0:0:0:0:
293,60,101036,2,0,L|287:145,1,85.2500006504059,8|0,0:0|0:0,0:0:0:0:
407,254,101308,6,0,P|380:218|344:196,1,85.2500006504059,2|0,0:0|0:0,0:0:0:0:
242,363,101581,2,0,P|277:338|300:303,1,85.2500006504059,8|0,0:0|0:0,0:0:0:0:
132,198,101854,2,0,P|157:232|192:255,1,85.2500006504059,2|2,0:0|0:0,0:0:0:0:
379,71,102127,2,0,P|296:86|239:147,1,170.500001300812,8|2,0:0|0:0,0:0:0:0:
239,147,102536,1,0,0:0:0:0:
480,192,102672,5,8,0:0:0:0:
497,192,103217,5,8,0:0:0:0:
239,147,103354,1,2,0:0:0:0:
218,146,103763,6,0,L|223:267,1,107.249995090485,8|2,0:0|0:0,0:0:0:0:
171,315,104308,1,4,0:0:0:0:
171,315,104581,1,4,0:0:0:0:
218,146,104854,6,0,L|331:154,1,110,4|0,0:0|0:0,0:0:0:0:
328,153,105399,2,0,P|321:184|324:217,1,55,8|0,0:0|0:0,0:0:0:0:
328,290,105672,1,2,0:0:0:0:
328,290,105808,1,2,0:0:0:0:
400,187,105945,5,0,0:0:0:0:
459,302,106081,1,0,0:0:0:0:
400,187,106217,2,0,P|400:155|406:129,1,55,2|0,0:0|0:0,0:0:0:0:
414,31,106490,1,8,0:0:0:0:
414,31,106763,2,0,L|354:34,1,55,0|0,0:0|0:0,0:0:0:0:
256,39,107036,6,0,B|256:93|256:93|236:152,1,110,2|0,0:0|0:0,0:0:0:0:
238,147,107581,2,0,L|302:154,1,55,8|0,0:0|0:0,0:0:0:0:
382,167,107854,1,2,0:0:0:0:
382,167,107990,1,0,0:0:0:0:
292,152,108127,5,0,0:0:0:0:
353,57,108263,1,2,0:0:0:0:
382,167,108399,2,0,P|385:197|380:225,1,55,2|0,0:0|0:0,0:0:0:0:
369,357,108672,1,8,0:0:0:0:
369,357,108945,2,0,L|294:352,1,55,2|0,0:0|0:0,0:0:0:0:
202,342,109217,6,0,P|227:284|227:224,1,110,4|0,0:0|0:0,0:0:0:0:
229,238,109763,2,0,L|296:244,1,55,8|0,0:0|0:0,0:0:0:0:
388,263,110036,1,2,0:0:0:0:
388,263,110172,1,2,0:0:0:0:
284,243,110308,5,0,0:0:0:0:
359,136,110445,1,0,0:0:0:0:
388,263,110581,2,0,L|379:337,1,55,2|0,0:0|0:0,0:0:0:0:
224,169,110854,1,8,0:0:0:0:
224,169,111127,2,0,L|279:166,1,55,0|0,0:0|0:0,0:0:0:0:
172,226,111399,6,0,P|185:175|158:118,1,110,2|0,0:0|0:0,0:0:0:0:
163,124,111945,2,0,P|159:90|167:62,1,55,8|0,0:0|0:0,0:0:0:0:
251,98,112217,1,2,0:0:0:0:
251,98,112354,1,0,0:0:0:0:
163,124,112490,5,0,0:0:0:0:
236,207,112627,1,2,0:0:0:0:
251,98,112763,2,0,P|251:63|245:36,1,55,2|0,0:0|0:0,0:0:0:0:
236,207,113036,2,0,P|271:207|298:201,1,55,8|0,0:0|0:0,0:0:0:0:
403,155,113308,1,2,0:0:0:0:
402,179,113377,1,0,0:0:0:0:
401,203,113445,1,2,0:0:0:0:
400,227,113513,1,0,0:0:0:0:
399,251,113581,6,0,P|367:251|328:268,1,65.9999979858399,4|0,0:0|0:0,0:0:0:0:
256,323,113854,1,2,0:0:0:0:
176,262,113990,2,0,P|145:251|112:251,1,65.9999979858399,0|8,0:0|0:0,0:0:0:0:
129,355,114263,1,0,0:0:0:0:
176,263,114399,1,2,0:0:0:0:
256,323,114536,1,2,0:0:0:0:
335,262,114672,6,0,P|366:251|399:251,1,65.9999979858399,2|0,0:0|0:0,0:0:0:0:
399,132,114945,2,0,P|366:132|335:121,1,65.9999979858399,0|0,0:0|0:0,0:0:0:0:
256,61,115217,1,8,0:0:0:0:
256,61,115490,1,2,0:0:0:0:
336,121,115627,1,0,0:0:0:0:
176,121,115763,6,0,L|186:205,1,65.9999979858399,0|0,0:0|0:0,0:0:0:0:
347,200,116036,1,2,0:0:0:0:
336,121,116172,1,0,0:0:0:0:
274,238,116308,1,8,0:0:0:0:
263,159,116444,1,0,0:0:0:0:
194,266,116581,1,2,0:0:0:0:
183,187,116717,1,2,0:0:0:0:
347,200,116854,6,0,P|379:200|418:180,1,65.9999979858399,2|0,0:0|0:0,0:0:0:0:
260,60,117127,2,0,P|228:60|189:80,1,65.9999979858399,0|0,0:0|0:0,0:0:0:0:
45,149,117399,1,8,0:0:0:0:
45,149,117672,2,0,P|49:181|45:216,1,65.9999979858399,2|0,0:0|0:0,0:0:0:0:
44,337,117945,6,0,L|126:328,1,65.9999979858399,6|0,0:0|0:0,0:0:0:0:
231,183,118217,2,0,L|149:192,1,65.9999979858399,2|0,0:0|0:0,0:0:0:0:
50,299,118490,2,0,L|132:290,1,65.9999979858399,2|0,0:0|0:0,0:0:0:0:
237,144,118762,1,2,0:0:0:0:
164,151,118898,1,0,0:0:0:0:
311,175,119036,6,0,P|316:138|306:104,1,65.9999979858399,10|0,0:0|0:0,0:0:0:0:
95,122,119308,2,0,P|90:159|100:193,1,65.9999979858399,2|0,0:0|0:0,0:0:0:0:
229,49,119581,2,0,P|192:44|158:54,1,65.9999979858399,2|0,0:0|0:0,0:0:0:0:
176,265,119854,1,2,0:0:0:0:
199,135,119990,1,0,0:0:0:0:
246,300,120127,6,0,P|220:330|183:343,1,65.9999979858399,2|0,0:0|0:0,0:0:0:0:
48,228,120399,2,0,P|68:202|97:187,1,65.9999979858399,0|0,0:0|0:0,0:0:0:0:
248,221,120672,1,2,0:0:0:0:
199,135,120808,1,0,0:0:0:0:
275,228,120945,2,0,B|304:228|304:228|316:233|316:233|340:233,1,65.9999979858399,0|0,0:0|0:0,0:0:0:0:
407,173,121217,6,0,P|380:226|411:299,1,131.99999597168,2|2,0:0|0:0,0:0:0:0:
468,242,121581,5,0,0:0:0:0:
468,242,121672,5,0,0:0:0:0:
468,242,121763,6,0,L|487:179,1,65.9999979858399,2|8,0:0|0:0,0:0:0:0:
402,292,122036,2,0,L|421:355,1,65.9999979858399,2|8,0:0|0:0,0:0:0:0:
407,173,122308,6,0,L|297:182,1,110,4|0,0:0|0:0,0:0:0:0:
206,165,122717,1,2,0:0:0:0:
290,127,122854,2,0,P|297:154|297:182,1,55,8|0,0:0|0:0,0:0:0:0:
246,254,123127,1,2,0:0:0:0:
300,323,123263,1,2,0:0:0:0:
246,254,123399,6,0,L|176:264,1,55,0|2,0:0|0:0,0:0:0:0:
300,323,123672,2,0,L|370:313,1,55,2|0,0:0|0:0,0:0:0:0:
405,257,123945,2,0,P|392:314|414:362,1,110,8|2,0:0|0:0,0:0:0:0:
483,303,124354,1,2,0:0:0:0:
483,303,124490,6,0,P|496:246|474:198,1,110,0|0,0:0|0:0,0:0:0:0:
431,101,124899,1,2,0:0:0:0:
431,101,125036,2,0,L|501:104,1,55,8|0,0:0|0:0,0:0:0:0:
346,134,125308,6,0,P|339:103|344:74,1,55,2|0,0:0|0:0,0:0:0:0:
261,171,125581,2,0,P|254:140|259:111,1,55,2|2,0:0|0:0,0:0:0:0:
176,208,125854,2,0,P|169:177|174:148,1,55,0|0,0:0|0:0,0:0:0:0:
91,245,126127,2,0,P|84:214|89:185,1,55,10|0,0:0|0:0,0:0:0:0:
93,87,126399,1,2,0:0:0:0:
180,212,126536,1,2,0:0:0:0:
180,212,126672,6,0,P|195:261|175:322,1,110,4|0,0:0|0:0,0:0:0:0:
103,264,127081,1,2,0:0:0:0:
180,212,127217,2,0,L|240:217,1,55,8|0,0:0|0:0,0:0:0:0:
103,264,127490,2,0,L|43:259,1,55,2|2,0:0|0:0,0:0:0:0:
80,127,127763,6,0,P|83:163|79:190,1,55,0|2,0:0|0:0,0:0:0:0:
209,79,128036,2,0,P|212:115|208:142,1,55,2|0,0:0|0:0,0:0:0:0:
338,31,128308,2,0,P|341:67|337:94,1,55,8|0,0:0|0:0,0:0:0:0:
325,219,128581,1,2,0:0:0:0:
213,83,128717,1,2,0:0:0:0:
213,83,128854,6,0,L|82:100,1,110,0|0,0:0|0:0,0:0:0:0:
42,171,129263,1,2,0:0:0:0:
169,189,129399,2,0,P|170:157|163:130,1,55,8|0,0:0|0:0,0:0:0:0:
148,282,129672,6,0,L|216:275,1,55,2|0,0:0|0:0,0:0:0:0:
379,213,129945,2,0,L|311:220,1,55,2|2,0:0|0:0,0:0:0:0:
148,300,130217,2,0,L|216:293,1,55,0|0,0:0|0:0,0:0:0:0:
379,231,130490,2,0,L|311:238,1,55,10|0,0:0|0:0,0:0:0:0:
148,318,130763,1,2,0:0:0:0:
295,241,130899,1,2,0:0:0:0:
77,203,131036,6,0,P|77:151|138:93,1,131.99999597168,4|0,0:0|0:0,0:0:0:0:
143,251,131445,1,0,0:0:0:0:
143,251,131581,2,0,P|110:274|76:283,1,65.9999979858399,8|0,0:0|0:0,0:0:0:0:
159,177,131854,1,0,0:0:0:0:
203,317,131990,1,2,0:0:0:0:
223,127,132127,6,0,P|196:107|165:96,1,65.9999979858399,0|0,0:0|0:0,0:0:0:0:
202,317,132399,2,0,P|233:306|260:285,1,65.9999979858399,2|0,0:0|0:0,0:0:0:0:
280,96,132672,2,0,P|249:107|223:127,1,65.9999979858399,8|0,0:0|0:0,0:0:0:0:
260,286,132945,1,2,0:0:0:0:
291,183,133081,1,2,0:0:0:0:
364,342,133217,6,0,P|300:335|259:285,1,131.99999597168,4|0,0:0|0:0,0:0:0:0:
380,209,133627,1,0,0:0:0:0:
380,209,133763,2,0,P|365:238|341:260,1,65.9999979858399,8|0,0:0|0:0,0:0:0:0:
215,166,134036,2,0,P|229:136|253:114,1,65.9999979858399,0|0,0:0|0:0,0:0:0:0:
239,293,134308,6,0,L|163:288,1,65.9999979858399,2|0,0:0|0:0,0:0:0:0:
149,162,134581,2,0,L|225:167,1,65.9999979858399,0|2,0:0|0:0,0:0:0:0:
305,298,134854,2,0,L|229:293,1,65.9999979858399,8|0,0:0|0:0,0:0:0:0:
81,157,135127,1,2,0:0:0:0:
298,213,135263,1,2,0:0:0:0:
74,284,135399,6,0,P|45:219|81:157,1,148.500000566483,12|2,0:0|0:0,0:0:0:0:
190,80,135808,1,0,0:0:0:0:
125,223,135945,1,8,0:0:0:0:
190,80,136081,1,0,0:0:0:0:
217,261,136217,1,2,0:0:0:0:
81,158,136354,1,0,0:0:0:0:
282,118,136490,5,12,0:0:0:0:
125,223,136627,1,0,0:0:0:0:
190,80,136763,1,2,0:0:0:0:
217,261,136899,1,0,0:0:0:0:
282,118,137036,1,8,0:0:0:0:
125,223,137172,1,0,0:0:0:0:
309,299,137308,1,2,0:0:0:0:
179,353,137445,1,0,0:0:0:0:
282,118,137581,6,0,L|372:125,1,74.2500002832413,12|0,0:0|0:0,0:0:0:0:
383,304,137854,2,0,L|293:297,1,74.2500002832413,8|0,0:0|0:0,0:0:0:0:
461,212,138127,1,12,0:0:0:0:
275,198,138263,1,0,0:0:0:0:
457,356,138399,2,0,P|473:323|471:284,1,74.2500002832413,8|0,0:0|0:0,0:0:0:0:
441,93,138672,5,12,0:0:0:0:
383,304,138808,1,8,0:0:0:0:
441,93,138945,1,12,0:0:0:0:
457,356,139081,1,8,0:0:0:0:
275,198,139217,6,0,B|187:198|187:198|207:235,1,125.124994272232,0|0,0:0|0:0,0:0:0:0:
324,268,139763,6,0,P|358:217|311:121,1,176,4|2,0:1|0:0,0:0:0:0:
138,51,140172,1,0,0:0:0:0:
187,198,140308,2,0,L|275:198,1,88,8|0,0:0|0:0,0:0:0:0:
424,51,140581,2,0,L|336:51,1,88,2|0,0:0|0:0,0:0:0:0:
138,51,140854,6,0,P|75:110|75:205,1,176,8|2,0:0|0:0,0:0:0:0:
143,347,141263,1,2,0:0:0:0:
275,198,141399,2,0,L|187:198,1,88,8|0,0:0|0:0,0:0:0:0:
341,347,141672,2,0,L|429:347,1,88,2|0,0:0|0:0,0:0:0:0:
275,198,141945,6,0,B|187:198|187:198|202:246|185:288,1,176,8|2,0:0|0:0,0:0:0:0:
52,238,142354,1,0,0:0:0:0:
187,111,142490,2,0,P|194:154|187:198,1,88,8|0,0:0|0:0,0:0:0:0:
51,324,142763,6,0,P|43:281|52:238,1,88,2|0,0:0|0:0,0:0:0:0:
220,115,143036,2,0,P|227:158|219:201,1,88,8|0,0:0|0:0,0:0:0:0:
18,320,143308,2,0,P|10:276|18:233,1,88,2|2,0:0|0:0,0:0:0:0:
252,118,143581,6,0,B|293:115|293:115|321:127|321:127|352:116|352:116|397:124,1,144.375005507469,4|0,0:2|0:0,0:0:0:0:
427,217,144127,6,0,L|441:37,1,176,4|2,0:1|0:0,0:0:0:0:
342,213,144536,1,0,0:0:0:0:
356,37,144672,2,0,P|400:30|443:43,1,88,8|0,0:0|0:0,0:0:0:0:
427,217,144945,2,0,P|383:224|340:211,1,88,2|0,0:0|0:0,0:0:0:0:
176,111,145217,6,0,B|164:224|164:224|181:284,1,176,8|2,0:0|0:0,0:0:0:0:
269,366,145627,1,2,0:0:0:0:
342,212,145763,2,0,P|304:205|256:213,1,88,8|0,0:0|0:0,0:0:0:0:
34,345,146036,2,0,P|72:352|120:344,1,88,2|0,0:0|0:0,0:0:0:0:
91,82,146308,6,0,L|80:257,1,176,8|2,0:0|0:0,0:0:0:0:
218,287,146717,1,0,0:0:0:0:
175,83,146854,2,0,P|133:72|91:82,1,88,8|0,0:0|0:0,0:0:0:0:
218,287,147127,6,0,B|218:222|218:222|204:196,1,88,2|0,0:0|0:0,0:0:0:0:
328,65,147399,2,0,B|328:130|328:130|317:150,1,88,8|0,0:0|0:0,0:0:0:0:
439,287,147672,2,0,B|439:222|439:222|425:196,1,88,2|2,0:0|0:0,0:0:0:0:
324,346,147945,5,8,0:0:0:0:
324,157,148081,1,8,0:0:0:0:
324,157,148149,1,8,0:0:0:0:
324,157,148217,1,2,0:0:0:0:
324,346,148354,1,2,0:0:0:0:
244,113,148490,6,0,P|282:75|399:106,1,176,4|2,0:1|0:0,0:0:0:0:
324,346,148899,1,0,0:0:0:0:
324,157,149036,2,0,L|324:269,1,88,8|0,0:0|0:0,0:0:0:0:
130,335,149308,6,0,L|130:223,1,88,2|0,0:0|0:0,0:0:0:0:
130,88,149581,1,8,0:0:0:0:
224,241,149717,1,0,0:0:0:0:
34,239,149854,1,2,0:0:0:0:
130,74,149990,1,2,0:0:0:0:
130,246,150127,2,0,L|130:334,1,88,8|0,0:0|0:0,0:0:0:0:
324,157,150399,2,0,L|324:69,1,88,2|0,0:0|0:0,0:0:0:0:
315,262,150672,6,0,P|392:233|429:150,1,176,4|2,0:1|0:0,0:0:0:0:
324,69,151081,1,0,0:0:0:0:
315,262,151217,2,0,P|352:291|398:291,1,88,8|0,0:0|0:0,0:0:0:0:
324,69,151490,6,0,P|280:69|242:99,1,88,2|0,0:0|0:0,0:0:0:0:
205,266,151763,1,8,0:0:0:0:
305,145,151899,1,0,0:0:0:0:
105,145,152036,1,2,0:0:0:0:
205,266,152172,1,2,0:0:0:0:
41,98,152308,2,0,P|26:138|42:194,1,88,4|0,0:2|0:0,0:0:0:0:
375,181,152581,2,0,P|384:138|369:98,1,88,2|2,0:0|0:0,0:0:0:0:
295,320,152854,6,0,L|305:145,1,176,4|2,0:1|0:0,0:0:0:0:
259,22,153263,1,0,0:0:0:0:
218,147,153399,2,0,P|261:152|305:143,1,88,8|0,0:0|0:0,0:0:0:0:
86,109,153672,5,2,0:0:0:0:
127,234,153808,1,0,0:0:0:0:
259,22,153945,1,8,0:0:0:0:
218,147,154081,1,0,0:0:0:0:
42,33,154217,1,2,0:0:0:0:
167,74,154353,1,2,0:0:0:0:
36,243,154490,2,0,P|27:199|41:155,1,88,8|0,0:0|0:0,0:0:0:0:
300,108,154763,2,0,P|309:152|295:196,1,88,2|0,0:0|0:0,0:0:0:0:
157,348,155036,5,8,0:0:0:0:
156,362,155581,5,8,0:0:0:0:
218,147,155717,1,2,0:0:0:0:
223,130,156127,6,0,L|344:143,1,107.249995090485,8|2,0:0|0:0,0:0:0:0:
312,238,156672,2,0,P|304:189|331:139,1,105.875003231049,4|0,0:0|0:0,0:0:0:0:
468,211,157217,6,0,B|424:214|424:214|383:201,1,88,4|0,0:2|0:0,0:0:0:0:
438,61,157490,1,2,0:0:0:0:
469,212,157627,1,0,0:0:0:0:
352,51,157763,2,0,B|396:48|396:48|437:61,1,88,8|0,0:0|0:0,0:0:0:0:
383,201,158036,2,0,B|338:203|338:203|297:190,1,88,2|0,0:0|0:0,0:0:0:0:
238,40,158308,5,8,0:0:0:0:
347,126,158445,1,0,0:0:0:0:
179,94,158581,2,0,P|159:51|164:10,1,88,2|2,0:0|0:0,0:0:0:0:
347,126,158854,1,8,0:0:0:0:
238,40,158991,1,0,0:0:0:0:
179,201,159127,2,0,P|175:244|194:283,1,88,2|0,0:0|0:0,0:0:0:0:
402,292,159399,6,0,P|340:233|254:230,1,176,8|2,0:0|0:0,0:0:0:0:
84,296,159808,1,0,0:0:0:0:
270,314,159945,2,0,P|270:263|251:227,1,88,8|0,0:0|0:0,0:0:0:0:
77,208,160217,6,0,L|84:296,1,88,2|0,0:0|0:0,0:0:0:0:
247,143,160490,2,0,L|253:230,1,88,8|0,0:0|0:0,0:0:0:0:
71,121,160763,2,0,L|77:208,1,88,2|2,0:0|0:0,0:0:0:0:
240,54,161036,6,0,B|247:142|247:142|214:125,1,125.124994272232,4|0,0:2|0:0,0:0:0:0:
240,54,161581,6,0,P|281:42|333:56,1,88,4|0,0:2|0:0,0:0:0:0:
461,177,161854,1,2,0:0:0:0:
287,134,161990,1,0,0:0:0:0:
460,93,162127,2,0,P|472:134|457:184,1,88,8|0,0:0|0:0,0:0:0:0:
288,218,162399,2,0,P|276:176|287:134,1,88,2|0,0:0|0:0,0:0:0:0:
452,301,162672,5,8,0:0:0:0:
355,175,162808,1,0,0:0:0:0:
256,301,162945,2,0,B|212:309|212:309|162:299,1,88,2|2,0:0|0:0,0:0:0:0:
99,148,163217,1,8,0:0:0:0:
279,192,163354,1,0,0:0:0:0:
99,235,163490,2,0,B|91:191|91:191|101:141,1,88,2|2,0:0|0:0,0:0:0:0:
284,16,163763,6,0,L|279:207,1,176,8|2,0:0|0:0,0:0:0:0:
383,336,164172,1,0,0:0:0:0:
458,119,164308,2,0,P|414:113|370:117,1,88,8|0,0:0|0:0,0:0:0:0:
251,273,164581,6,0,P|275:234|275:177,1,88,2|0,0:0|0:0,0:0:0:0:
93,178,164854,2,0,P|130:201|174:206,1,88,8|0,0:0|0:0,0:0:0:0:
187,20,165127,2,0,P|163:56|159:100,1,88,2|2,0:0|0:0,0:0:0:0:
251,273,165399,5,4,0:2:0:0:
278,85,165536,1,0,0:0:0:0:
264,86,165604,1,0,0:0:0:0:
250,88,165672,1,2,0:0:0:0:
422,177,165808,1,2,0:0:0:0:
194,343,165945,6,0,P|159:283|208:192,1,176,4|2,0:1|0:0,0:0:0:0:
78,335,166354,1,0,0:0:0:0:
251,273,166490,2,0,P|296:273|354:288,1,88,8|0,0:0|0:0,0:0:0:0:
203,194,166763,6,0,L|115:194,1,88,2|0,0:0|0:0,0:0:0:0:
225,29,167036,2,0,L|288:92,1,88,8|0,0:0|0:0,0:0:0:0:
27,92,167308,2,0,L|90:30,1,88,2|2,0:0|0:0,0:0:0:0:
203,194,167581,2,0,P|202:276|127:339,1,176,8|2,0:0|0:0,0:0:0:0:
136,336,167990,1,0,0:0:0:0:
161,97,168127,6,0,P|243:98|306:173,1,176,8|2,0:0|0:0,0:0:0:0:
105,236,168536,1,0,0:0:0:0:
304,164,168672,2,0,P|347:153|392:167,1,88,8|0,0:0|0:0,0:0:0:0:
333,333,168945,6,0,L|346:246,1,88,2|0,0:0|0:0,0:0:0:0:
208,298,169217,2,0,L|255:224,1,88,8|0,0:0|0:0,0:0:0:0:
109,202,169490,2,0,L|183:155,1,88,2|2,0:0|0:0,0:0:0:0:
40,262,169763,6,0,P|18:217|38:145,1,125.124994272232,4|0,0:2|0:0,0:0:0:0:
109,202,170308,6,0,L|59:384,1,176,4|2,0:1|0:0,0:0:0:0:
37,147,170717,1,0,0:0:0:0:
128,327,170854,2,0,P|180:327|222:300,1,88,8|0,0:0|0:0,0:0:0:0:
361,143,171127,6,0,L|363:242,1,88,2|0,0:0|0:0,0:0:0:0:
256,111,171399,2,0,L|256:21,1,88,8|0,0:0|0:0,0:0:0:0:
151,143,171672,2,0,L|149:242,1,88,2|2,0:0|0:0,0:0:0:0:
256,288,171945,2,0,L|256:109,1,176,8|2,0:0|0:0,0:0:0:0:
256,112,172354,1,0,0:0:0:0:
256,320,172490,5,8,0:0:0:0:
256,344,173036,5,8,0:0:0:0:
256,112,173172,1,2,0:0:0:0:
256,87,173581,6,0,P|318:87|367:127,1,123.750004720688,8|2,0:0|0:0,0:0:0:0:
288,174,174127,1,4,0:0:0:0:
288,174,174399,1,4,0:0:0:0:
478,244,174672,5,4,0:1:0:0:
468,222,183399,6,0,L|369:231,2,80.6666691284181,2|0|8,0:0|0:0|0:0,0:0:0:0:
420,122,183945,1,2,0:0:0:0:
307,236,184127,1,8,0:0:0:0:
435,329,184308,1,8,0:0:0:0:
340,129,184490,6,0,L|241:138,2,80.6666691284181,2|0|8,0:0|0:0|0:0,0:0:0:0:
292,29,185036,1,2,0:0:0:0:
179,143,185218,1,8,0:0:0:0:
307,236,185399,1,8,0:0:0:0:
134,72,185581,6,0,P|96:136|137:215,1,161.333338256836,2|0,0:0|0:0,0:0:0:0:
317,148,186127,2,0,P|249:109|179:143,1,161.333338256836,2|0,0:0|0:0,0:0:0:0:
241,331,186672,2,0,P|279:263|245:193,1,161.333338256836,2|0,0:0|0:0,0:0:0:0:
52,256,187217,2,0,B|122:295|122:295|195:258,1,161.333338256836,2|0,0:0|0:0,0:0:0:0:
317,148,187763,5,4,0:0:0:0:
96,140,187945,2,0,P|103:179|129:210,1,80.6666691284181,0|0,0:0|0:0,0:0:0:0:
251,48,188308,1,8,0:0:0:0:
180,146,188490,1,0,0:0:0:0:
317,148,188672,1,0,0:0:0:0:
180,146,188854,5,4,0:0:0:0:
400,143,189036,2,0,P|393:182|367:212,1,80.6666691284181,0|0,0:0|0:0,0:0:0:0:
251,48,189399,1,8,0:0:0:0:
317,148,189581,1,0,0:0:0:0:
180,146,189763,1,0,0:0:0:0:
377,55,189945,6,0,L|457:65,1,74.2500002832413,4|0,0:0|0:0,0:0:0:0:
180,146,190217,2,0,L|170:66,1,74.2500002832413,8|0,0:0|0:0,0:0:0:0:
283,337,190491,2,0,L|203:327,1,74.2500002832413,4|0,0:0|0:0,0:0:0:0:
480,246,190763,2,0,L|490:326,1,74.2500002832413,8|0,0:0|0:0,0:0:0:0:
377,55,191036,5,12,0:0:0:0:
180,146,191172,1,8,0:0:0:0:
283,337,191308,1,12,0:0:0:0:
480,246,191445,1,8,0:0:0:0:
180,146,191581,6,0,B|128:159|82:150|82:150|111:168|121:201,1,154,0|0,0:0|0:0,0:0:0:0:
34,228,192127,6,0,L|48:41,1,181.500001730919,4|2,0:1|0:0,0:0:0:0:
157,257,192536,1,0,0:0:0:0:
216,53,192672,2,0,P|260:45|308:57,1,90.7500008654595,8|0,0:0|0:0,0:0:0:0:
245,259,192945,2,0,P|201:267|153:255,1,90.7500008654595,2|0,0:0|0:0,0:0:0:0:
396,179,193217,6,0,P|389:266|382:366,1,181.500001730919,8|2,0:0|0:0,0:0:0:0:
479,183,193627,1,2,0:0:0:0:
245,259,193763,2,0,P|229:206|229:159,1,90.7500008654595,8|0,0:0|0:0,0:0:0:0:
462,95,194036,2,0,P|478:148|478:195,1,90.7500008654595,2|0,0:0|0:0,0:0:0:0:
382,360,194308,6,0,B|315:372|268:330|268:330|247:360|217:364,1,181.500001730919,8|2,0:0|0:0,0:0:0:0:
362,207,194717,1,0,0:0:0:0:
157,210,194854,2,0,P|173:253|201:289,1,90.7500008654595,8|0,0:0|0:0,0:0:0:0:
362,207,195127,6,0,L|271:201,1,90.7500008654595,2|0,0:0|0:0,0:0:0:0:
95,132,195399,2,0,L|185:126,1,90.7500008654595,8|0,0:0|0:0,0:0:0:0:
362,52,195672,2,0,L|271:46,1,90.7500008654595,2|2,0:0|0:0,0:0:0:0:
37,77,195945,6,0,P|15:127|47:195,1,132.825000202675,4|0,0:2|0:0,0:0:0:0:
95,132,196490,6,0,L|83:313,1,181.500001730919,4|2,0:1|0:0,0:0:0:0:
37,77,196899,1,0,0:0:0:0:
209,247,197036,2,0,P|167:259|117:241,1,90.7500008654595,8|0,0:0|0:0,0:0:0:0:
265,66,197308,2,0,P|307:54|357:72,1,90.7500008654595,2|0,0:0|0:0,0:0:0:0:
306,308,197581,6,0,B|281:220|281:220|306:133,1,181.500001730919,8|2,0:0|0:0,0:0:0:0:
418,23,197990,1,2,0:0:0:0:
460,229,198127,2,0,L|368:223,1,90.7500008654595,8|0,0:0|0:0,0:0:0:0:
174,71,198399,2,0,L|265:66,1,90.7500008654595,2|0,0:0|0:0,0:0:0:0:
119,224,198672,6,0,P|114:135|173:70,1,181.500001730919,8|2,0:0|0:0,0:0:0:0:
218,290,199081,1,0,0:0:0:0:
42,135,199217,2,0,P|58:89|88:49,1,90.7500008654595,8|0,0:0|0:0,0:0:0:0:
218,290,199490,6,0,P|173:297|128:292,1,90.7500008654595,2|0,0:0|0:0,0:0:0:0:
303,169,199763,2,0,P|258:177|214:172,1,90.7500008654595,8|0,0:0|0:0,0:0:0:0:
388,48,200036,2,0,P|343:55|298:50,1,90.7500008654595,2|2,0:0|0:0,0:0:0:0:
105,33,200308,5,8,0:0:0:0:
214,204,200445,1,8,0:0:0:0:
214,188,200513,1,8,0:0:0:0:
214,172,200581,1,2,0:0:0:0:
214,357,200717,1,2,0:0:0:0:
214,83,200854,6,0,B|307:83|307:137|399:137,1,181.500001730919,4|2,0:1|0:0,0:0:0:0:
375,24,201263,1,0,0:0:0:0:
233,206,201399,2,0,L|136:199,1,90.7500008654595,8|0,0:0|0:0,0:0:0:0:
304,285,201672,6,0,P|333:242|337:196,1,90.7500008654595,2|0,0:0|0:0,0:0:0:0:
214,83,201945,1,8,0:0:0:0:
233,206,202081,1,0,0:0:0:0:
139,75,202217,1,2,0:0:0:0:
158,198,202353,1,2,0:0:0:0:
64,67,202490,2,0,P|64:117|53:172,1,90.7500008654595,8|0,0:0|0:0,0:0:0:0:
151,288,202763,2,0,P|151:238|162:183,1,90.7500008654595,2|0,0:0|0:0,0:0:0:0:
396,180,203036,6,0,P|345:251|258:252,1,181.500001730919,4|2,0:1|0:0,0:0:0:0:
57,157,203445,1,0,0:0:0:0:
279,83,203581,2,0,P|299:124|303:169,1,90.7500008654595,8|0,0:0|0:0,0:0:0:0:
175,374,203854,6,0,P|155:333|151:288,1,90.7500008654595,2|0,0:0|0:0,0:0:0:0:
198,153,204127,1,8,0:0:0:0:
258,252,204263,1,0,0:0:0:0:
87,159,204399,1,2,0:0:0:0:
142,60,204535,1,2,0:0:0:0:
288,161,204672,2,0,L|197:152,1,90.7500008654595,4|0,0:2|0:0,0:0:0:0:
32,325,204945,2,0,L|40:234,1,90.7500008654595,2|2,0:0|0:0,0:0:0:0:
142,60,205217,6,0,B|230:21|235:86|331:36,1,181.500001730919,4|2,0:1|0:0,0:0:0:0:
198,152,205627,1,0,0:0:0:0:
442,111,205763,2,0,P|453:158|440:210,1,90.7500008654595,8|0,0:0|0:0,0:0:0:0:
311,286,206036,5,2,0:0:0:0:
373,157,206172,1,0,0:0:0:0:
383,328,206308,1,8,0:0:0:0:
445,199,206444,1,0,0:0:0:0:
239,244,206581,1,2,0:0:0:0:
301,115,206717,1,2,0:0:0:0:
383,328,206854,2,0,L|483:318,1,90.7500008654595,8|0,0:0|0:0,0:0:0:0:
301,115,207127,2,0,L|201:125,1,90.7500008654595,2|0,0:0|0:0,0:0:0:0:
445,199,207399,5,8,0:0:0:0:
460,195,207945,5,8,0:0:0:0:
239,213,208081,1,2,0:0:0:0:
214,219,208490,6,0,P|191:168|220:99,1,123.750004720688,8|2,0:0|0:0,0:0:0:0:
338,215,209036,2,0,P|283:248|214:220,1,144.375005507469,4|0,0:0|0:0,0:0:0:0:
345,125,209581,6,0,L|337:215,1,90.7500008654595,4|0,0:2|0:0,0:0:0:0:
269,43,209854,1,2,0:0:0:0:
437,61,209990,1,0,0:0:0:0:
337,215,210127,2,0,L|345:125,1,90.7500008654595,8|0,0:0|0:0,0:0:0:0:
136,183,210399,2,0,L|143:273,1,90.7500008654595,2|0,0:0|0:0,0:0:0:0:
124,47,210672,5,8,0:0:0:0:
57,235,210808,1,0,0:0:0:0:
255,119,210945,2,0,B|290:119|290:119|307:125|307:125|345:125,1,90.7500008654595,2|2,0:0|0:0,0:0:0:0:
501,106,211217,1,8,0:0:0:0:
419,273,211353,1,0,0:0:0:0:
344,125,211490,2,0,P|345:77|358:34,1,90.7500008654595,2|0,0:0|0:0,0:0:0:0:
419,273,211763,6,0,B|328:302|332:251|238:278,1,181.500001730919,8|2,0:0|0:0,0:0:0:0:
65,284,212172,1,0,0:0:0:0:
244,187,212308,2,0,L|240:277,1,90.7500008654595,8|0,0:0|0:0,0:0:0:0:
202,105,212581,6,0,P|247:94|297:111,1,90.7500008654595,2|0,0:0|0:0,0:0:0:0:
282,359,212854,2,0,P|237:370|187:353,1,90.7500008654595,8|0,0:0|0:0,0:0:0:0:
244,187,213127,2,0,L|240:277,1,90.7500008654595,2|2,0:0|0:0,0:0:0:0:
75,256,213399,6,0,B|57:227|57:227|147:230,1,125.124994272232,4|0,0:2|0:0,0:0:0:0:
169,314,213945,6,0,P|147:275|148:231,1,90.7500008654595,4|0,0:2|0:0,0:0:0:0:
283,104,214217,1,2,0:0:0:0:
225,256,214354,1,0,0:0:0:0:
258,27,214490,2,0,P|303:26|342:49,1,90.7500008654595,8|0,0:0|0:0,0:0:0:0:
255,331,214763,2,0,P|210:334|170:315,1,90.7500008654595,2|0,0:0|0:0,0:0:0:0:
283,104,215036,5,8,0:0:0:0:
225,256,215173,1,0,0:0:0:0:
194,102,215308,2,0,B|238:96|238:96|287:104,1,90.7500008654595,2|2,0:0|0:0,0:0:0:0:
436,225,215581,1,8,0:0:0:0:
342,49,215717,1,0,0:0:0:0:
346,224,215854,2,0,B|391:231|391:231|435:225,1,90.7500008654595,2|2,0:0|0:0,0:0:0:0:
194,102,216127,6,0,P|125:146|196:184,1,181.500001730919,8|2,0:0|0:0,0:0:0:0:
391,154,216536,1,0,0:0:0:0:
195,28,216672,2,0,P|148:28|99:52,1,90.7500008654595,8|0,0:0|0:0,0:0:0:0:
106,242,216945,6,0,P|147:259|192:258,1,90.7500008654595,2|0,0:0|0:0,0:0:0:0:
391,154,217217,2,0,P|349:136|304:137,1,90.7500008654595,8|0,0:0|0:0,0:0:0:0:
309,353,217490,2,0,P|326:312|326:267,1,90.7500008654595,2|2,0:0|0:0,0:0:0:0:
170,145,217763,5,4,0:2:0:0:
210,353,217899,1,0,0:0:0:0:
210,353,217967,1,0,0:0:0:0:
210,353,218036,1,2,0:0:0:0:
170,145,218172,1,2,0:0:0:0:
389,335,218308,6,0,P|388:244|391:154,1,181.500001730919,4|2,0:1|0:0,0:0:0:0:
347,31,218717,1,0,0:0:0:0:
302,155,218854,2,0,P|346:162|391:154,1,90.7500008654595,8|0,0:0|0:0,0:0:0:0:
184,62,219127,6,0,L|86:72,1,90.7500008654595,2|0,0:0|0:0,0:0:0:0:
278,157,219399,2,0,L|180:167,1,90.7500008654595,8|0,0:0|0:0,0:0:0:0:
372,252,219672,2,0,L|274:262,1,90.7500008654595,2|2,0:0|0:0,0:0:0:0:
134,323,219945,2,0,P|181:265|288:265,1,181.500001730919,8|2,0:0|0:0,0:0:0:0:
235,356,220354,1,0,0:0:0:0:
187,166,220490,6,0,L|381:145,1,181.500001730919,8|2,0:0|0:0,0:0:0:0:
459,231,220899,1,0,0:0:0:0:
256,117,221036,2,0,P|256:73|280:21,1,90.7500008654595,8|0,0:0|0:0,0:0:0:0:
459,231,221308,6,0,L|445:328,1,90.7500008654595,2|0,0:0|0:0,0:0:0:0:
256,208,221581,2,0,L|256:117,1,90.7500008654595,8|0,0:0|0:0,0:0:0:0:
53,231,221854,2,0,L|67:328,1,90.7500008654595,2|2,0:0|0:0,0:0:0:0:
256,117,222127,6,0,B|211:106|164:114|164:114|187:96|202:73,1,132.825000202675,4|0,0:2|0:0,0:0:0:0:
113,35,222672,6,0,L|136:224,1,181.500001730919,4|2,0:1|0:0,0:0:0:0:
89,353,223081,1,0,0:0:0:0:
45,159,223217,2,0,L|32:63,1,90.7500008654595,8|0,0:0|0:0,0:0:0:0:
221,199,223490,6,0,P|185:216|134:216,1,90.7500008654595,2|0,0:0|0:0,0:0:0:0:
302,47,223763,2,0,P|347:46|388:64,1,90.7500008654595,8|0,0:0|0:0,0:0:0:0:
345,237,224036,2,0,P|327:196|328:151,1,90.7500008654595,2|2,0:0|0:0,0:0:0:0:
455,288,224308,2,0,P|383:350|299:350,1,181.500001730919,8|2,0:0|0:0,0:0:0:0:
345,237,224717,1,0,0:0:0:0:
108,237,224854,5,8,0:0:0:0:
90,237,225399,5,8,0:0:0:0:
345,237,225536,1,2,0:0:0:0:
365,236,225945,6,0,P|351:194|362:148,1,90.7500008654595,8|0,0:0|0:0,0:0:0:0:
480,81,226217,1,0,0:0:0:0:
432,191,226354,1,2,0:0:0:0:
339,42,226490,1,0,0:0:0:0:
339,42,226763,2,0,L|246:50,1,90.7500008654595,0|0,0:0|0:0,0:0:0:0:
480,81,227036,5,0,0:0:0:0:
