osu file format v14

[General]
AudioFilename: BTS - Not Today.mp3
AudioLeadIn: 0
PreviewTime: 69331
Countdown: 0
SampleSet: Soft
StackLeniency: 0.3
Mode: 0
LetterboxInBreaks: 0
WidescreenStoryboard: 0

[Editor]
Bookmarks: 143308
DistanceSpacing: 1.2
BeatDivisor: 4
GridSize: 4
TimelineZoom: 2.700001

[Metadata]
Title:Not Today
TitleUnicode:Not Today
Artist:BTS
ArtistUnicode:방탄소년단
Creator:DeRandom Otaku
Version:NeoHolic's Hyper
Source:
Tags:Rap monster jungkook suga jimin j-hope v jin hot yoongi 랩몬스터 진 슈가 제이홉 지민 뷔 정국 k-pop kpop log off now DT3 Diamond Turtle Shyotamaze Deppyforce Neoskylove HabiHolic Cerulean Veyron CV You Never Walk Alone big hit entertainment bantansoyeondan bangtan boys
BeatmapID:1235189
BeatmapSetID:575767

[Difficulty]
HPDrainRate:7
CircleSize:4.3
OverallDifficulty:8
ApproachRate:9
SliderMultiplier:1.6
SliderTickRate:1

[Events]
//Background and Video events
0,0,"BG.jpg",0,0
//Break Periods
2,174872,178436
//Storyboard Layer 0 (Background)
//Storyboard Layer 1 (Fail)
//Storyboard Layer 2 (Pass)
//Storyboard Layer 3 (Foreground)
//Storyboard Sound Samples

[TimingPoints]
127,545.454545454546,4,2,2,40,1,0
17581,-133.333333333333,4,2,2,50,0,0
33945,-100,4,2,2,50,0,0
35036,-100,4,2,2,50,0,0
52490,-100,4,3,1,60,0,0
69399,-100,4,3,4,70,0,0
69945,-66.6666666666667,4,3,3,80,0,1
86308,-66.6666666666667,4,2,2,80,0,1
86854,-66.6666666666667,4,2,2,30,0,0
87399,-66.6666666666667,4,3,5,80,0,1
87536,-66.6666666666667,4,3,3,80,0,1
91763,-66.6666666666667,4,3,5,80,0,1
91899,-66.6666666666667,4,3,3,80,0,1
103763,-66.6666666666667,4,3,3,30,0,1
104854,-100,4,2,2,50,0,0
113581,-83.3333333333333,4,2,2,50,0,0
118490,-83.3333333333333,4,2,0,20,0,0
119036,-83.3333333333333,4,2,2,50,0,0
119581,-83.3333333333333,4,2,0,20,0,0
120127,-83.3333333333333,4,2,2,50,0,0
122308,-111.111111111111,4,3,1,60,0,0
139217,-111.111111111111,4,3,4,70,0,0
139763,-66.6666666666667,4,3,3,80,0,1
156127,-66.6666666666667,4,2,2,80,0,1
156672,-100,4,2,2,30,0,0
157217,-66.6666666666667,4,3,5,80,0,1
157354,-66.6666666666667,4,3,3,80,0,1
161581,-66.6666666666667,4,3,5,80,0,1
161717,-66.6666666666667,4,3,3,80,0,1
173581,-66.6666666666667,4,2,2,30,0,1
174672,-100,4,2,2,40,0,0
187763,-100,4,3,1,60,0,0
191581,-100,4,3,4,70,0,0
192127,-76.9230769230769,4,3,3,80,0,1
208490,-76.9230769230769,4,2,2,80,0,1
209036,-76.9230769230769,4,2,2,30,0,0
209581,-76.9230769230769,4,3,5,80,0,1
209717,-76.9230769230769,4,3,3,80,0,1
213945,-76.9230769230769,4,3,5,80,0,1
214081,-76.9230769230769,4,3,3,80,0,1
226490,-76.9230769230769,4,2,2,30,0,1
227036,-100,4,3,4,70,0,0

[Colours]
Combo1 : 255,128,64
Combo2 : 131,43,164
Combo3 : 170,85,85
Combo4 : 55,255,55

[HitObjects]
89,177,17581,6,0,P|131:165|175:174,1,90.0000034332277,4|0,0:0|0:0,0:0:0:0:
203,195,18127,2,0,P|233:189|263:188,1,60.0000022888184,8|2,0:0|0:0,0:0:0:0:
322,230,18672,2,0,P|351:229|381:223,1,60.0000022888184,0|2,0:0|0:0,0:0:0:0:
440,181,19217,1,8,0:0:0:0:
440,181,19763,6,0,P|435:225|436:270,1,90.0000034332277,2|0,0:0|0:0,0:0:0:0:
449,303,20308,2,0,L|389:301,1,60.0000022888184,8|2,0:0|0:0,0:0:0:0:
322,271,20854,1,0,0:0:0:0:
322,271,20990,2,0,L|318:241,2,30.0000011444092,2|2|0,0:0|0:0|0:0,0:0:0:0:
301,300,21399,2,0,P|274:290|244:286,1,60.0000022888184,8|2,0:0|0:0,0:0:0:0:
172,297,21945,6,0,L|169:252|166:207,1,90.0000034332277,4|0,0:0|0:0,0:0:0:0:
143,180,22490,2,0,L|83:181,1,60.0000022888184,8|2,0:0|0:0,0:0:0:0:
72,110,23036,2,0,L|131:108,1,60.0000022888184,0|2,0:0|0:0,0:0:0:0:
200,134,23581,1,8,0:0:0:0:
200,134,24127,6,0,P|244:141|287:131,1,90.0000034332277,2|0,0:0|0:0,0:0:0:0:
320,118,24672,2,0,P|350:112|380:116,1,60.0000022888184,8|2,0:0|0:0,0:0:0:0:
440,153,25217,1,0,0:0:0:0:
443,156,25354,2,0,L|472:151,2,30.0000011444092,2|2|0,0:0|0:0|0:0,0:0:0:0:
431,190,25763,2,0,P|444:216|447:246,1,60.0000022888184,8|2,0:0|0:0,0:0:0:0:
383,280,26308,6,0,L|293:272,1,90.0000034332277,4|0,0:0|0:0,0:0:0:0:
266,247,26854,2,0,L|206:251,1,60.0000022888184,8|2,0:0|0:0,0:0:0:0:
145,212,27399,2,0,L|149:152,1,60.0000022888184,0|2,0:0|0:0,0:0:0:0:
200,100,27945,1,8,0:0:0:0:
200,100,28490,6,0,P|256:115|309:90,1,120.000004577637,2|8,0:0|0:0,0:0:0:0:
379,107,29308,1,2,0:0:0:0:
368,178,29581,1,0,0:0:0:0:
380,191,29717,2,0,L|409:185,2,30.0000011444092,2|2|0,0:0|0:0|0:0,0:0:0:0:
350,212,30127,2,0,L|290:201,1,60.0000022888184,8|2,0:0|0:0,0:0:0:0:
226,170,30672,6,0,L|210:81,1,90.0000034332277,4|0,0:0|0:0,0:0:0:0:
176,70,31217,2,0,L|186:129,1,60.0000022888184,8|2,0:0|0:0,0:0:0:0:
134,179,31763,2,0,L|123:238,1,60.0000022888184,0|2,0:0|0:0,0:0:0:0:
176,288,32308,1,8,0:0:0:0:
176,288,32854,6,0,P|174:302|173:317,1,30.0000011444092,2|8,0:0|0:0,0:0:0:0:
188,350,33127,1,0,0:0:0:0:
222,361,33263,2,0,L|251:358,1,30.0000011444092,8|8,0:0|0:0,0:0:0:0:
328,311,33536,1,8,0:0:0:0:
250,270,33672,1,2,0:0:0:0:
328,311,33808,1,8,0:0:0:0:
343,229,33945,6,0,P|276:202|249:269,1,160,0|8,0:0|0:0,0:0:0:0:
249,269,35036,6,0,L|244:229,1,40,4|0,0:0|0:0,0:0:0:0:
155,195,35308,2,0,L|159:234,1,40,2|0,0:0|0:0,0:0:0:0:
228,133,35581,2,0,L|267:128,1,40,8|0,0:0|0:0,0:0:0:0:
244,229,35854,1,2,0:0:0:0:
244,229,36127,2,0,L|283:224,1,40,0|0,0:0|0:0,0:0:0:0:
159,234,36399,2,0,L|154:194,1,40,2|0,0:0|0:0,0:0:0:0:
164,318,36672,2,0,L|124:322,1,40,8|0,0:0|0:0,0:0:0:0:
247,313,36945,1,2,0:0:0:0:
247,313,37217,5,2,0:0:0:0:
339,339,37354,1,0,0:0:0:0:
408,273,37490,2,0,L|407:233,1,40,0|0,0:0|0:0,0:0:0:0:
313,165,37763,2,0,L|313:204,1,40,8|0,0:0|0:0,0:0:0:0:
247,313,38036,1,2,0:0:0:0:
247,313,38308,2,0,L|246:273,1,40,0|2,0:0|0:0,0:0:0:0:
161,225,38581,2,0,L|161:185,1,40,2|0,0:0|0:0,0:0:0:0:
248,136,38854,2,0,L|247:96,1,40,8|0,0:0|0:0,0:0:0:0:
163,47,39127,1,2,0:0:0:0:
346,97,39399,6,0,L|385:96,1,40,4|0,0:0|0:0,0:0:0:0:
334,177,39672,2,0,L|373:176,1,40,2|0,0:0|0:0,0:0:0:0:
322,257,39945,2,0,L|361:256,1,40,8|0,0:0|0:0,0:0:0:0:
258,206,40217,2,0,L|218:206,1,40,2|2,0:0|0:0,0:0:0:0:
128,172,40490,2,0,L|88:171,1,40,0|0,0:0|0:0,0:0:0:0:
144,267,40763,1,2,0:0:0:0:
218,206,40899,2,0,L|219:126,1,80,0|0,0:0|0:0,0:0:0:0:
88,171,41308,1,2,0:0:0:0:
234,301,41581,6,0,P|272:309|312:303,1,80,2|8,0:0|0:0,0:0:0:0:
360,220,41990,1,8,0:0:0:0:
455,220,42127,2,0,L|460:259,1,40,8|0,0:0|0:0,0:0:0:0:
360,220,42399,2,0,L|370:140,1,80,2|0,0:0|0:0,0:0:0:0:
342,48,42808,2,0,L|381:42,2,40,2|2|0,0:0|0:0|0:0,0:0:0:0:
253,86,43217,2,0,L|213:80,1,40,8|0,0:0|0:0,0:0:0:0:
120,53,43490,1,2,0:0:0:0:
62,236,43763,6,0,L|141:225,1,80,4|2,0:0|0:0,0:0:0:0:
221,172,44172,1,0,0:0:0:0:
307,214,44308,2,0,P|310:233|310:253,1,40,8|0,0:0|0:0,0:0:0:0:
265,339,44581,1,2,0:0:0:0:
242,148,44854,1,0,0:0:0:0:
263,124,45945,6,0,L|342:119,1,80,2|0,0:0|0:0,0:0:0:0:
415,182,46354,1,0,0:0:0:0:
488,120,46490,2,0,L|490:80,1,40,8|0,0:0|0:0,0:0:0:0:
376,77,46763,2,0,L|378:117,1,40,2|0,0:0|0:0,0:0:0:0:
422,206,47036,6,0,P|384:192|345:198,1,80,0|2,0:0|0:0,0:0:0:0:
279,268,47445,1,2,0:0:0:0:
212,198,47581,2,0,P|172:192|135:205,1,80,8|2,0:0|0:0,0:0:0:0:
34,41,48127,6,0,P|73:46|110:33,1,80,4|2,0:0|0:0,0:0:0:0:
171,107,48536,1,0,0:0:0:0:
235,36,48672,2,0,L|274:37,1,40,8|0,0:0|0:0,0:0:0:0:
308,127,48945,2,0,L|347:125,1,40,2|2,0:0|0:0,0:0:0:0:
413,55,49217,1,0,0:0:0:0:
480,236,49490,2,0,L|440:237,1,40,2|0,0:0|0:0,0:0:0:0:
358,287,49763,2,0,P|344:249|348:210,1,80,8|2,0:0|0:0,0:0:0:0:
438,40,50308,5,2,0:0:0:0:
59,108,50854,1,8,0:0:0:0:
438,176,51399,1,0,0:0:0:0:
256,112,51672,2,0,L|256:85,2,26.6666666666667,2|0|0,0:0|0:0|0:0,0:0:0:0:
203,187,51945,2,0,L|208:226,1,40,8|0,0:0|0:0,0:0:0:0:
302,225,52217,2,0,L|308:186,1,40,2|0,0:0|0:0,0:0:0:0:
352,40,52490,6,0,P|386:87|444:98,1,120,4|2,0:0|0:0,0:0:0:0:
472,88,53036,1,8,0:0:0:0:
473,241,53308,1,2,0:0:0:0:
382,272,53445,1,2,0:0:0:0:
315,199,53581,2,0,P|277:190|240:204,1,80,0|2,0:0|0:0,0:0:0:0:
160,292,53990,1,0,0:0:0:0:
160,292,54127,2,0,L|72:284,1,80,8|2,0:0|0:0,0:0:0:0:
16,216,54536,1,2,0:0:0:0:
88,159,54672,6,0,P|95:121|88:81,1,80,0|0,0:0|0:0,0:0:0:0:
54,6,55081,1,2,0:0:0:0:
192,16,55217,2,0,P|184:55|192:94,1,80,8|2,0:0|0:0,0:0:0:0:
304,200,55763,2,0,L|392:188,2,80,2|0|10,0:0|0:0|0:0,0:0:0:0:
240,268,56445,1,0,0:0:0:0:
156,224,56581,2,0,L|164:176,1,40,2|2,0:0|0:0,0:0:0:0:
232,40,56854,6,0,L|244:128,1,80,4|0,0:0|0:0,0:0:0:0:
242,119,57263,1,2,0:0:0:0:
332,196,57399,2,0,P|371:201|408:188,1,80,8|2,0:0|0:0,0:0:0:0:
468,120,57808,1,2,0:0:0:0:
468,120,57945,6,0,L|456:32,2,80,0|2|8,0:0|0:0|0:0,0:0:0:0:
480,272,58763,1,2,0:0:0:0:
416,332,58899,1,2,0:0:0:0:
303,235,59036,6,0,P|264:232|228:248,1,80,0|0,0:0|0:0,0:0:0:0:
160,312,59445,1,2,0:0:0:0:
160,312,59581,2,0,L|80:304,1,80,8|2,0:0|0:0,0:0:0:0:
227,248,60127,1,2,0:0:0:0:
347,360,60399,2,0,L|395:352,1,40,0|0,0:0|0:0,0:0:0:0:
464,280,60672,2,0,P|424:280|388:256,1,80,10|2,0:0|0:0,0:0:0:0:
344,176,61081,1,2,0:0:0:0:
344,176,61217,6,0,L|356:88,1,80,4|0,0:0|0:0,0:0:0:0:
292,24,61627,1,0,0:0:0:0:
240,136,61763,2,0,L|252:220,1,80,8|0,0:0|0:0,0:0:0:0:
192,288,62172,1,2,0:0:0:0:
192,288,62308,2,0,P|173:285|155:276,1,40,0|0,0:0|0:0,0:0:0:0:
51,203,62581,2,0,P|70:205|88:214,1,40,2|0,0:0|0:0,0:0:0:0:
152,140,62854,2,0,L|136:48,1,80,8|2,0:0|0:0,0:0:0:0:
284,20,63399,6,0,L|268:108,1,80,4|0,0:0|0:0,0:0:0:0:
332,160,63808,1,0,0:0:0:0:
332,159,63945,2,0,P|371:159|411:166,1,80,8|0,0:0|0:0,0:0:0:0:
361,250,64490,1,2,0:0:0:0:
256,268,64763,2,0,L|264:308,1,40,0|2,0:0|0:0,0:0:0:0:
168,368,65036,2,0,L|180:272,1,80,8|2,0:0|0:0,0:0:0:0:
190,197,65445,1,2,0:0:0:0:
152,95,65581,6,0,P|210:88|262:116,1,120,12|0,0:0|0:0,0:0:0:0:
312,176,66127,2,0,L|396:168,1,80,8|2,0:0|0:0,0:0:0:0:
488,316,66672,2,0,L|404:304,1,80,12|2,0:0|0:0,0:0:0:0:
336,368,67081,1,0,0:0:0:0:
335,368,67217,2,0,P|295:365|259:347,1,80,8|2,0:0|0:0,0:0:0:0:
232,256,67763,6,0,L|240:216,1,40,12|0,0:0|0:0,0:0:0:0:
308,156,68036,2,0,L|300:112,1,40,8|0,0:0|0:0,0:0:0:0:
236,40,68308,2,0,P|196:38|160:56,1,80,12|8,0:0|0:0,0:0:0:0:
36,152,68854,2,0,L|28:112,1,40,12|8,0:0|0:0,0:0:0:0:
112,56,69127,2,0,L|104:95,1,40,12|8,0:0|0:0,0:0:0:0:
51,189,69399,1,0,0:0:0:0:
51,189,69945,6,0,P|95:140|156:136,1,120.000004577637,4|2,0:1|0:0,0:0:0:0:
233,174,70354,1,0,0:0:0:0:
319,215,70490,2,0,P|374:234|431:216,1,120.000004577637,8|2,0:0|0:0,0:0:0:0:
431,23,71036,2,0,P|376:4|319:22,1,120.000004577637,8|2,0:0|0:0,0:0:0:0:
241,79,71445,1,2,0:0:0:0:
233,174,71581,2,0,L|239:246,1,60.0000022888184,8|0,0:0|0:0,0:0:0:0:
306,299,71854,2,0,L|300:371,1,60.0000022888184,2|0,0:0|0:0,0:0:0:0:
424,348,72127,6,0,P|452:293|452:220,1,120.000004577637,8|2,0:0|0:0,0:0:0:0:
469,140,72536,1,0,0:0:0:0:
382,181,72672,2,0,L|321:193,1,60.0000022888184,8|0,0:0|0:0,0:0:0:0:
233,174,72945,1,2,0:0:0:0:
143,140,73081,1,0,0:0:0:0:
73,245,73217,2,0,L|78:304,1,60.0000022888184,8|0,0:0|0:0,0:0:0:0:
171,276,73490,2,0,L|165:335,1,60.0000022888184,2|2,0:0|0:0,0:0:0:0:
257,306,73763,2,0,L|262:365,1,60.0000022888184,4|0,0:2|0:0,0:0:0:0:
343,276,74036,1,2,0:0:0:0:
429,317,74172,1,2,0:0:0:0:
451,118,74308,6,0,B|426:160|426:160|365:123|299:145,1,180.000006866455,4|0,0:1|0:0,0:0:0:0:
217,194,74854,2,0,L|151:191,1,60.0000022888184,8|0,0:0|0:0,0:0:0:0:
156,94,75127,2,0,L|215:96,1,60.0000022888184,2|0,0:0|0:0,0:0:0:0:
300,145,75399,2,0,P|294:198|299:276,1,120.000004577637,8|2,0:0|0:0,0:0:0:0:
319,358,75808,1,2,0:0:0:0:
356,269,75945,2,0,P|326:263|297:265,1,60.0000022888184,8|0,0:0|0:0,0:0:0:0:
235,355,76217,2,0,L|172:363,1,60.0000022888184,2|0,0:0|0:0,0:0:0:0:
66,351,76490,6,0,P|89:299|89:229,1,120.000004577637,8|2,0:0|0:0,0:0:0:0:
74,141,76899,1,0,0:0:0:0:
162,180,77036,2,0,P|187:178|219:159,1,60.0000022888184,8|0,0:0|0:0,0:0:0:0:
306,194,77308,1,2,0:0:0:0:
230,254,77445,1,0,0:0:0:0:
300,321,77581,2,0,L|359:315,1,60.0000022888184,8|0,0:0|0:0,0:0:0:0:
331,223,77854,2,0,L|390:228,1,60.0000022888184,2|2,0:0|0:0,0:0:0:0:
454,163,78127,1,8,0:0:0:0:
361,140,78263,1,8,0:0:0:0:
266,121,78400,1,2,0:0:0:0:
331,51,78536,1,2,0:0:0:0:
195,55,78672,6,0,P|230:134|188:210,1,180.000006866455,4|0,0:1|0:0,0:0:0:0:
95,234,79217,2,0,P|97:174|133:128,1,120.000004577637,8|2,0:0|0:0,0:0:0:0:
188,210,79627,1,0,0:0:0:0:
220,291,79763,2,0,P|190:294|162:303,1,60.0000022888184,8|0,0:0|0:0,0:0:0:0:
277,221,80036,2,0,P|294:245|315:266,1,60.0000022888184,2|2,0:0|0:0,0:0:0:0:
188,210,80308,2,0,P|200:183|209:155,1,60.0000022888184,8|0,0:0|0:0,0:0:0:0:
316,294,80581,1,2,0:0:0:0:
487,103,80854,6,0,L|476:222,1,120.000004577637,4|2,0:1|0:0,0:0:0:0:
506,314,81263,1,0,0:0:0:0:
411,331,81399,2,0,L|340:324,1,60.0000022888184,8|0,0:0|0:0,0:0:0:0:
297,240,81672,1,2,0:0:0:0:
333,155,81808,1,0,0:0:0:0:
217,141,81945,2,0,P|188:148|158:151,1,60.0000022888184,8|0,0:0|0:0,0:0:0:0:
171,291,82218,2,0,P|178:262|191:234,1,60.0000022888184,2|2,0:0|0:0,0:0:0:0:
63,177,82490,2,0,P|84:198|101:222,1,60.0000022888184,4|0,0:2|0:0,0:0:0:0:
174,65,82763,1,2,0:0:0:0:
171,291,83036,6,0,B|213:271|262:286|262:286|305:300|345:279,1,180.000006866455,4|0,0:1|0:0,0:0:0:0:
436,251,83581,2,0,L|438:168,1,60.0000022888184,8|0,0:0|0:0,0:0:0:0:
424,69,83854,1,2,0:0:0:0:
362,134,83990,1,0,0:0:0:0:
260,62,84127,2,0,L|262:121,1,60.0000022888184,8|0,0:0|0:0,0:0:0:0:
170,94,84399,2,0,L|167:153,1,60.0000022888184,2|2,0:0|0:0,0:0:0:0:
74,125,84672,2,0,L|77:185,1,60.0000022888184,8|0,0:0|0:0,0:0:0:0:
168,60,84945,1,2,0:0:0:0:
382,220,85217,6,0,B|339:238|298:226|298:226|247:213|201:233,1,180.000006866455,8|0,0:0|0:0,0:0:0:0:
148,307,85763,2,0,P|115:257|117:198,1,120.000004577637,8|0,0:0|0:0,0:0:0:0:
260,62,86308,2,0,L|438:85,2,180.000006866455,8|2|0,0:0|0:0|0:0,0:0:0:0:
79,184,87399,6,0,P|63:240|84:295,1,120.000004577637,4|2,0:2|0:0,0:0:0:0:
156,348,87808,1,0,0:0:0:0:
156,348,87945,2,0,L|224:340,1,60.0000022888184,8|0,0:0|0:0,0:0:0:0:
312,277,88217,2,0,L|248:269,1,60.0000022888184,2|0,0:0|0:0,0:0:0:0:
184,184,88490,5,8,0:0:0:0:
240,108,88627,1,0,0:0:0:0:
180,36,88763,2,0,L|104:20,1,60.0000022888184,2|2,0:0|0:0,0:0:0:0:
8,88,89036,1,8,0:0:0:0:
80,144,89172,1,0,0:0:0:0:
12,200,89308,2,0,L|24:268,1,60.0000022888184,2|0,0:0|0:0,0:0:0:0:
64,359,89581,6,0,P|126:299|212:309,1,180.000006866455,8|0,0:0|0:0,0:0:0:0:
288,364,90127,2,0,L|355:360,1,60.0000022888184,8|0,0:0|0:0,0:0:0:0:
447,354,90399,1,2,0:0:0:0:
395,279,90536,1,0,0:0:0:0:
480,247,90672,2,0,P|496:191|478:134,1,120.000004577637,8|2,0:0|0:0,0:0:0:0:
509,59,91081,1,2,0:0:0:0:
408,72,91217,2,0,B|356:104|356:104|288:88,1,120.000004577637,4|2,0:2|0:0,0:0:0:0:
224,44,91627,1,2,0:0:0:0:
164,120,91763,6,0,P|176:184|160:244,1,120.000004577637,4|2,0:2|0:0,0:0:0:0:
96,304,92172,1,0,0:0:0:0:
96,304,92308,2,0,L|32:292,2,60.0000022888184,8|0|2,0:0|0:0|0:0,0:0:0:0:
240,364,92854,2,0,L|304:360,1,60.0000022888184,8|0,0:0|0:0,0:0:0:0:
371,299,93127,2,0,P|352:244|366:186,1,120.000004577637,2|8,0:0|0:0,0:0:0:0:
432,112,93536,1,0,0:0:0:0:
360,44,93672,2,0,L|300:48,1,60.0000022888184,2|2,0:0|0:0,0:0:0:0:
220,104,93945,6,0,B|96:80|96:80|136:132,1,180.000006866455,8|0,0:0|0:0,0:0:0:0:
176,192,94490,2,0,P|180:220|175:262,1,60.0000022888184,8|0,0:0|0:0,0:0:0:0:
158,347,94763,1,2,0:0:0:0:
237,308,94899,1,0,0:0:0:0:
332,372,95036,2,0,P|317:314|331:256,1,120.000004577637,8|2,0:0|0:0,0:0:0:0:
315,166,95445,1,2,0:0:0:0:
400,188,95581,2,0,B|430:199|470:205,1,60.0000022888184,4|0,0:2|0:0,0:0:0:0:
505,126,95854,1,2,0:0:0:0:
428,83,95990,1,2,0:0:0:0:
458,203,96127,5,4,0:1:0:0:
264,100,96399,6,0,P|258:70|266:41,1,60.0000022888184,2|0,0:0|0:0,0:0:0:0:
156,96,96672,2,0,P|172:153|156:210,1,120.000004577637,8|2,0:0|0:0,0:0:0:0:
200,296,97081,1,0,0:0:0:0:
200,296,97217,2,0,L|260:284,1,60.0000022888184,8|0,0:0|0:0,0:0:0:0:
320,196,97490,2,0,L|384:208,1,60.0000022888184,2|2,0:0|0:0,0:0:0:0:
456,268,97763,2,0,P|472:208|456:152,1,120.000004577637,8|2,0:0|0:0,0:0:0:0:
392,80,98172,1,0,0:0:0:0:
312,140,98308,6,0,B|192:124|192:124|136:152,1,180.000006866455,8|0,0:0|0:0,0:0:0:0:
60,192,98854,2,0,L|84:320,1,120.000004577637,8|2,0:0|0:0,0:0:0:0:
168,356,99263,1,0,0:0:0:0:
236,288,99399,2,0,P|268:284|296:292,1,60.0000022888184,8|0,0:0|0:0,0:0:0:0:
368,356,99672,2,0,L|432:348,1,60.0000022888184,2|2,0:0|0:0,0:0:0:0:
503,248,99945,2,0,P|446:258|402:220,1,120.000004577637,4|2,0:2|0:0,0:0:0:0:
276,112,100490,6,0,B|216:112|216:112|160:84|160:84|100:84,1,180.000006866455,4|0,0:1|0:0,0:0:0:0:
36,144,101036,2,0,P|56:199|36:254,1,120.000004577637,8|2,0:0|0:0,0:0:0:0:
92,336,101445,1,0,0:0:0:0:
92,336,101581,2,0,L|160:328,1,60.0000022888184,8|0,0:0|0:0,0:0:0:0:
256,328,101854,2,0,L|315:335,1,60.0000022888184,2|2,0:0|0:0,0:0:0:0:
404,280,102127,2,0,B|384:220|384:220|400:160,1,120.000004577637,8|2,0:0|0:0,0:0:0:0:
424,76,102536,1,0,0:0:0:0:
344,16,102672,6,0,L|292:192,1,180.000006866455,8|0,0:0|0:0,0:0:0:0:
192,248,103217,2,0,P|184:212|168:188,1,60.0000022888184,8|2,0:0|0:0,0:0:0:0:
24,248,103490,2,0,L|88:256,1,60.0000022888184,0|2,0:0|0:0,0:0:0:0:
156,360,103763,2,0,L|284:348,1,120.000004577637,8|0,0:0|0:0,0:0:0:0:
344,280,104172,1,2,0:0:0:0:
344,279,104308,2,0,P|363:224|348:167,1,120.000004577637,4|4,0:0|0:0,0:0:0:0:
232,48,104854,6,0,B|196:68|196:68|156:64,1,80,4|0,0:0|0:0,0:0:0:0:
80,16,105263,1,0,0:0:0:0:
8,84,105399,2,0,P|16:122|8:162,1,80,8|2,0:0|0:0,0:0:0:0:
72,232,105808,1,2,0:0:0:0:
72,232,105945,2,0,L|124:224,1,40,0|0,0:0|0:0,0:0:0:0:
188,160,106217,2,0,P|226:150|263:164,1,80,2|8,0:0|0:0,0:0:0:0:
376,248,106763,1,0,0:0:0:0:
376,248,107036,6,0,L|388:120,1,120,2|0,0:0|0:0,0:0:0:0:
336,52,107581,1,8,0:0:0:0:
212,124,107854,2,0,L|160:112,1,40,2|0,0:0|0:0,0:0:0:0:
128,28,108127,2,0,L|84:36,1,40,0|2,0:0|0:0,0:0:0:0:
16,96,108399,2,0,P|24:134|13:173,1,80,2|8,0:0|0:0,0:0:0:0:
108,284,108945,1,2,0:0:0:0:
108,283,109217,6,0,P|146:275|183:288,1,80,4|0,0:0|0:0,0:0:0:0:
248,356,109627,1,0,0:0:0:0:
320,256,109763,2,0,L|312:212,1,40,8|0,0:0|0:0,0:0:0:0:
384,108,110036,2,0,L|376:160,1,40,2|2,0:0|0:0,0:0:0:0:
238,169,110308,1,0,0:0:0:0:
150,176,110445,1,0,0:0:0:0:
191,98,110581,1,2,0:0:0:0:
116,280,110854,1,8,0:0:0:0:
116,280,111127,6,0,L|84:244,1,40,0|0,0:0|0:0,0:0:0:0:
8,215,111399,2,0,P|22:178|24:139,1,80,2|0,0:0|0:0,0:0:0:0:
80,64,111808,1,0,0:0:0:0:
80,64,111945,6,0,L|160:56,1,80,8|2,0:0|0:0,0:0:0:0:
220,124,112354,1,0,0:0:0:0:
220,124,112490,2,0,L|208:172,1,40,0|2,0:0|0:0,0:0:0:0:
308,108,112763,2,0,L|296:28,2,80,2|8|2,0:0|0:0|0:0,0:0:0:0:
436,204,113581,6,0,L|424:304,1,95.9999970703126,4|2,0:0|0:0,0:0:0:0:
352,360,113990,1,0,0:0:0:0:
352,360,114127,2,0,L|300:348,1,47.9999985351563,8|0,0:0|0:0,0:0:0:0:
223,283,114399,2,0,P|216:261|215:237,1,47.9999985351563,2|2,0:0|0:0,0:0:0:0:
304,96,114672,2,0,P|320:144|312:192,1,95.9999970703126,2|0,0:0|0:0,0:0:0:0:
128,260,115217,1,8,0:0:0:0:
128,260,115490,2,0,L|76:252,1,47.9999985351563,2|0,0:0|0:0,0:0:0:0:
16,184,115763,6,0,B|32:136|32:136|20:88,1,95.9999970703126,0|2,0:0|0:0,0:0:0:0:
80,28,116172,1,0,0:0:0:0:
80,28,116308,2,0,P|101:39|124:43,1,47.9999985351563,8|0,0:0|0:0,0:0:0:0:
208,100,116581,2,0,L|256:88,1,47.9999985351563,2|2,0:0|0:0,0:0:0:0:
351,40,116854,2,0,P|340:86|348:132,1,95.9999970703126,2|0,0:0|0:0,0:0:0:0:
424,200,117263,1,0,0:0:0:0:
424,200,117399,2,0,P|435:246|427:292,1,95.9999970703126,8|2,0:0|0:0,0:0:0:0:
296,356,117945,5,6,0:0:0:0:
232,296,118081,1,0,0:0:0:0:
156,340,118217,2,0,L|100:332,2,47.9999985351563,2|0|2,0:0|0:0|0:0,0:0:0:0:
40,188,119036,5,10,0:0:0:0:
112,132,119172,1,0,0:0:0:0:
32,96,119308,2,0,L|40:40,2,47.9999985351563,2|0|2,0:0|0:0|0:0,0:0:0:0:
192,176,119854,5,2,0:0:0:0:
264,120,119990,1,0,0:0:0:0:
340,168,120127,2,0,P|387:173|428:151,1,95.9999970703126,2|0,0:0|0:0,0:0:0:0:
472,68,120536,1,0,0:0:0:0:
500,200,120672,2,0,L|492:256,1,47.9999985351563,2|0,0:0|0:0,0:0:0:0:
424,368,120945,2,0,L|416:316,1,47.9999985351563,0|0,0:0|0:0,0:0:0:0:
344,240,121217,5,2,0:0:0:0:
344,240,121354,1,0,0:0:0:0:
344,240,121490,2,0,L|352:200,2,31.9999990234375,2|0|0,0:0|0:0|0:0,0:0:0:0:
264,320,121763,2,0,L|244:220,1,95.9999970703126,2|2,0:0|0:0,0:0:0:0:
149,73,122308,5,4,0:0:0:0:
149,73,123399,2,0,L|77:67,2,71.9999978027344,0|2|8,0:0|0:0|0:0,0:0:0:0:
232,190,124490,2,0,L|375:179,1,143.999995605469,0|8,0:0|0:0,0:0:0:0:
419,316,125581,2,0,L|275:326,1,143.999995605469,2|10,0:0|0:0,0:0:0:0:
134,296,126672,5,4,0:0:0:0:
134,296,127763,2,0,P|139:331|135:367,2,71.9999978027344,0|2|8,0:0|0:0|0:0,0:0:0:0:
73,165,128854,2,0,P|23:174|77:202,1,143.999995605469,0|8,0:0|0:0,0:0:0:0:
205,150,129945,2,0,B|244:133|274:150|274:150|308:171|342:147,1,143.999995605469,2|10,0:0|0:0,0:0:0:0:
477,98,131036,6,0,L|485:26,2,71.9999978027344,4|0|8,0:0|0:0|0:0,0:0:0:0:
440,237,132127,2,0,L|448:308,2,71.9999978027344,0|2|8,0:0|0:0|0:0,0:0:0:0:
403,98,133217,2,0,L|411:26,2,71.9999978027344,4|0|8,0:0|0:0|0:0,0:0:0:0:
366,237,134308,2,0,L|374:308,2,71.9999978027344,2|0|8,0:0|0:0|0:0,0:0:0:0:
328,98,135399,6,0,P|294:105|259:97,1,71.9999978027344,12|2,0:0|0:0,0:0:0:0:
138,148,135945,2,0,P|173:156|208:148,1,71.9999978027344,8|2,0:0|0:0,0:0:0:0:
328,198,136490,2,0,P|293:205|258:197,1,71.9999978027344,12|2,0:0|0:0,0:0:0:0:
137,249,137036,2,0,P|171:256|206:248,1,71.9999978027344,8|2,0:0|0:0,0:0:0:0:
327,298,137581,5,12,0:0:0:0:
427,299,137854,1,8,0:0:0:0:
428,199,138126,1,12,0:0:0:0:
328,198,138399,1,8,0:0:0:0:
327,298,138672,6,0,P|309:294|291:292,1,35.9999989013672,12|8,0:0|0:0,0:0:0:0:
170,253,138945,2,0,P|188:251|206:248,1,35.9999989013672,12|8,0:0|0:0,0:0:0:0:
268,168,139217,1,0,0:0:0:0:
268,168,139763,6,0,P|288:108|260:52,1,120.000004577637,4|2,0:1|0:0,0:0:0:0:
208,112,140172,1,0,0:0:0:0:
288,252,140308,2,0,P|336:216|360:156,1,120.000004577637,8|2,0:0|0:0,0:0:0:0:
456,44,140854,6,0,L|472:182,1,120.000004577637,8|2,0:0|0:0,0:0:0:0:
484,249,141263,1,2,0:0:0:0:
500,340,141399,2,0,P|443:332|397:368,1,120.000004577637,8|2,0:0|0:0,0:0:0:0:
256,364,141945,6,0,L|132:352,1,120.000004577637,8|2,0:0|0:0,0:0:0:0:
64,296,142354,1,0,0:0:0:0:
64,296,142490,2,0,B|96:244|96:244|96:176,1,120.000004577637,8|2,0:0|0:0,0:0:0:0:
95,112,142899,1,0,0:0:0:0:
188,188,143036,2,0,L|188:256,1,60.0000022888184,8|0,0:0|0:0,0:0:0:0:
264,132,143308,2,0,L|264:64,1,60.0000022888184,2|2,0:0|0:0,0:0:0:0:
336,196,143581,1,4,0:2:0:0:
336,196,143717,2,0,P|391:216|445:194,1,120.000004577637,0|2,0:0|0:0,0:0:0:0:
492,128,144127,6,0,B|472:244|472:244|495:301,1,180.000006866455,4|0,0:1|0:0,0:0:0:0:
431,359,144672,2,0,P|379:332|320:335,1,120.000004577637,8|2,0:0|0:0,0:0:0:0:
160,360,145217,6,0,P|100:368|48:336,1,120.000004577637,8|2,0:0|0:0,0:0:0:0:
4,256,145627,1,2,0:0:0:0:
4,256,145763,2,0,L|20:136,1,120.000004577637,8|2,0:0|0:0,0:0:0:0:
131,32,146308,6,0,P|193:93|279:83,1,180.000006866455,8|0,0:0|0:0,0:0:0:0:
344,31,146854,2,0,P|403:30|452:63,1,120.000004577637,8|2,0:0|0:0,0:0:0:0:
508,252,147399,6,0,P|448:232|392:256,1,120.000004577637,8|2,0:0|0:0,0:0:0:0:
322,297,147808,1,2,0:0:0:0:
240,344,147945,1,8,0:0:0:0:
240,344,148081,2,0,P|184:363|129:343,1,120.000004577637,8|2,0:0|0:0,0:0:0:0:
56,268,148490,6,0,B|44:208|44:208|56:152|56:152|41:92,1,180.000006866455,4|0,0:1|0:0,0:0:0:0:
100,24,149036,2,0,P|143:63|201:64,1,120.000004577637,8|2,0:0|0:0,0:0:0:0:
368,28,149581,2,0,P|404:20|436:20,1,60.0000022888184,8|0,0:0|0:0,0:0:0:0:
504,148,149854,2,0,L|440:136,1,60.0000022888184,2|2,0:0|0:0,0:0:0:0:
344,124,150127,2,0,P|363:180|357:239,1,120.000004577637,8|2,0:0|0:0,0:0:0:0:
248,320,150672,6,0,B|128:296|128:296|72:324,1,180.000006866455,4|0,0:1|0:0,0:0:0:0:
16,264,151217,2,0,P|-3:208|7:149,1,120.000004577637,8|2,0:0|0:0,0:0:0:0:
176,44,151763,2,0,L|240:32,1,60.0000022888184,8|0,0:0|0:0,0:0:0:0:
344,112,152036,2,0,L|276:100,1,60.0000022888184,2|2,0:0|0:0,0:0:0:0:
396,40,152308,2,0,P|426:90|420:148,1,120.000004577637,4|2,0:2|0:0,0:0:0:0:
328,256,152854,6,0,P|242:238|173:292,1,180.000006866455,4|0,0:1|0:0,0:0:0:0:
104,352,153399,2,0,B|40:340|40:340|0:296,1,120.000004577637,8|2,0:0|0:0,0:0:0:0:
52,224,153808,1,0,0:0:0:0:
52,224,153945,2,0,P|60:188|60:164,1,60.0000022888184,8|0,0:0|0:0,0:0:0:0:
128,40,154217,2,0,P|128:69|136:98,1,60.0000022888184,2|2,0:0|0:0,0:0:0:0:
220,152,154490,2,0,L|344:136,1,120.000004577637,8|2,0:0|0:0,0:0:0:0:
484,248,155036,6,0,P|398:233|341:297,1,180.000006866455,8|0,0:0|0:0,0:0:0:0:
276,360,155581,2,0,L|156:345,1,120.000004577637,8|0,0:0|0:0,0:0:0:0:
24,364,156127,2,0,P|36:305|20:248,1,120.000004577637,8|0,0:0|0:0,0:0:0:0:
28,160,156536,1,2,0:0:0:0:
28,160,156672,2,0,L|36:72,1,80,4|0,0:0|0:0,0:0:0:0:
148,128,157217,6,0,L|207:124,1,60.0000022888184,4|0,0:2|0:0,0:0:0:0:
303,114,157490,1,2,0:0:0:0:
263,201,157627,1,0,0:0:0:0:
303,114,157763,1,8,0:0:0:0:
108,215,158036,2,0,L|167:211,1,60.0000022888184,2|0,0:0|0:0,0:0:0:0:
263,201,158309,1,8,0:0:0:0:
223,288,158445,1,0,0:0:0:0:
263,201,158582,1,2,0:0:0:0:
68,302,158854,2,0,L|127:298,1,60.0000022888184,8|0,0:0|0:0,0:0:0:0:
207,123,159127,2,0,L|148:127,1,60.0000022888184,2|0,0:0|0:0,0:0:0:0:
222,287,159399,6,0,P|309:283|358:211,1,180.000006866455,8|0,0:0|0:0,0:0:0:0:
337,117,159945,2,0,P|286:146|263:201,1,120.000004577637,8|2,0:0|0:0,0:0:0:0:
114,323,160490,2,0,P|114:264|79:216,1,120.000004577637,8|2,0:0|0:0,0:0:0:0:
9,150,160899,1,2,0:0:0:0:
53,64,161036,2,0,P|103:93|162:86,1,120.000004577637,4|2,0:2|0:0,0:0:0:0:
334,172,161581,6,0,L|275:168,1,60.0000022888184,4|0,0:2|0:0,0:0:0:0:
179,158,161854,1,2,0:0:0:0:
219,245,161991,1,0,0:0:0:0:
179,158,162127,1,8,0:0:0:0:
374,259,162400,2,0,L|315:255,1,60.0000022888184,2|0,0:0|0:0,0:0:0:0:
219,245,162673,1,8,0:0:0:0:
259,332,162808,1,0,0:0:0:0:
219,245,162946,1,2,0:0:0:0:
414,346,163218,2,0,L|355:342,1,60.0000022888184,8|0,0:0|0:0,0:0:0:0:
331,155,163491,2,0,L|327:214,1,60.0000022888184,2|2,0:0|0:0,0:0:0:0:
259,332,163763,6,0,P|172:327|123:255,1,180.000006866455,8|0,0:0|0:0,0:0:0:0:
145,162,164309,2,0,P|196:191|219:245,1,120.000004577637,8|2,0:0|0:0,0:0:0:0:
404,297,164854,2,0,P|403:238|438:190,1,120.000004577637,8|2,0:0|0:0,0:0:0:0:
449,94,165263,1,2,0:0:0:0:
354,74,165400,2,0,P|303:103|244:96,1,120.000004577637,4|2,0:2|0:0,0:0:0:0:
64,30,165945,6,0,L|83:208,1,180.000006866455,4|0,0:1|0:0,0:0:0:0:
98,303,166490,2,0,P|146:269|205:272,1,120.000004577637,8|2,0:0|0:0,0:0:0:0:
389,329,167036,2,0,P|447:331|496:298,1,120.000004577637,8|2,0:0|0:0,0:0:0:0:
499,201,167445,1,2,0:0:0:0:
496,103,167581,2,0,P|453:95|423:100,1,60.0000022888184,8|0,0:0|0:0,0:0:0:0:
384,160,167854,2,0,P|354:160|325:153,1,60.0000022888184,2|0,0:0|0:0,0:0:0:0:
317,252,168127,6,0,L|297:73,1,180.000006866455,8|0,0:0|0:0,0:0:0:0:
205,46,168672,2,0,L|217:165,1,120.000004577637,8|2,0:0|0:0,0:0:0:0:
134,338,169217,2,0,L|14:325,1,120.000004577637,8|2,0:0|0:0,0:0:0:0:
52,235,169627,1,2,0:0:0:0:
98,152,169763,2,0,L|217:164,1,120.000004577637,4|2,0:2|0:0,0:0:0:0:
296,340,170308,6,0,L|315:161,1,180.000006866455,4|0,0:1|0:0,0:0:0:0:
408,134,170854,2,0,L|395:253,1,120.000004577637,8|2,0:0|0:0,0:0:0:0:
204,284,171399,2,0,L|216:164,1,120.000004577637,8|2,0:0|0:0,0:0:0:0:
263,80,171808,1,2,0:0:0:0:
315,161,171945,2,0,P|343:164|388:160,1,60.0000022888184,8|0,0:0|0:0,0:0:0:0:
446,244,172217,2,0,P|418:241|373:245,1,60.0000022888184,2|0,0:0|0:0,0:0:0:0:
292,282,172490,6,0,L|285:341,2,60.0000022888184,8|0|0,0:0|0:0|0:0,0:0:0:0:
127,182,173036,2,0,L|120:241,2,60.0000022888184,8|2|0,0:0|0:0|0:0,0:0:0:0:
289,79,173581,2,0,L|467:59,2,180.000006866455,8|2|4,0:0|0:0|0:0,0:0:0:0:
127,182,174672,5,4,0:1:0:0:
256,192,179036,12,0,182854,0:0:0:0:
121,109,183399,6,0,L|129:56,2,53.3333333333333,2|0|8,0:0|0:0|0:0,0:0:0:0:
213,154,183945,2,0,L|204:101,2,53.3333333333333,2|8|8,0:0|0:0|0:0,0:0:0:0:
292,184,184490,2,0,L|300:131,2,53.3333333333333,2|0|8,0:0|0:0|0:0,0:0:0:0:
388,136,185036,2,0,L|379:83,2,53.3333333333333,2|8|8,0:0|0:0|0:0,0:0:0:0:
492,204,185581,6,0,L|480:292,1,80,2|0,0:0|0:0,0:0:0:0:
420,348,185990,1,0,0:0:0:0:
420,348,186127,2,0,P|370:325|316:329,1,106.666666666667,2|0,0:0|0:0,0:0:0:0:
240,364,186672,2,0,L|152:348,1,80,2|0,0:0|0:0,0:0:0:0:
32,224,187217,2,0,L|124:212,1,80,2|0,0:0|0:0,0:0:0:0:
260,47,187763,6,0,P|316:65|348:108,1,106.666666666667,4|0,0:0|0:0,0:0:0:0:
248,248,188308,2,0,P|234:190|258:139,1,106.666666666667,8|0,0:0|0:0,0:0:0:0:
428,164,188854,2,0,P|384:204|328:206,1,106.666666666667,4|0,0:0|0:0,0:0:0:0:
251,147,189399,2,0,L|120:132,1,106.666666666667,8|0,0:0|0:0,0:0:0:0:
56,104,189945,6,0,L|64:152,1,40,4|0,0:0|0:0,0:0:0:0:
132,208,190218,2,0,L|124:252,1,40,8|0,0:0|0:0,0:0:0:0:
68,336,190490,2,0,P|107:331|144:345,1,80,4|8,0:0|0:0,0:0:0:0:
232,308,190899,1,0,0:0:0:0:
232,308,191036,2,0,L|220:264,1,40,12|8,0:0|0:0,0:0:0:0:
292,196,191308,2,0,L|280:152,1,40,12|8,0:0|0:0,0:0:0:0:
256,56,191581,1,0,0:0:0:0:
256,55,192127,6,0,P|192:98|117:84,1,155.999992858887,4|0,0:1|0:0,0:0:0:0:
32,36,192672,2,0,L|40:144,1,103.999995239258,8|2,0:0|0:0,0:0:0:0:
120,259,193217,2,0,P|169:247|216:267,1,103.999995239258,8|2,0:0|0:0,0:0:0:0:
296,320,193627,1,2,0:0:0:0:
372,256,193763,2,0,L|360:152,1,103.999995239258,8|2,0:0|0:0,0:0:0:0:
252,16,194308,6,0,P|264:72|252:120,1,103.999995239258,8|2,0:0|0:0,0:0:0:0:
184,176,194717,1,0,0:0:0:0:
184,176,194854,2,0,L|74:168,1,103.999995239258,8|2,0:0|0:0,0:0:0:0:
254,117,195399,1,8,0:0:0:0:
280,300,195672,1,2,0:0:0:0:
360,248,195808,1,2,0:0:0:0:
432,316,195945,2,0,L|424:372,2,51.999997619629,4|0|2,0:2|0:0|0:0,0:0:0:0:
460,127,196490,6,0,P|384:128|330:74,1,155.999992858887,4|0,0:1|0:0,0:0:0:0:
264,16,197036,2,0,B|208:16|208:16|164:40,1,103.999995239258,8|2,0:0|0:0,0:0:0:0:
40,132,197581,2,0,P|55:181|49:232,1,103.999995239258,8|2,0:0|0:0,0:0:0:0:
112,304,197990,1,2,0:0:0:0:
112,304,198127,2,0,L|224:292,1,103.999995239258,8|2,0:0|0:0,0:0:0:0:
288,148,198672,6,0,B|392:132|392:132|444:160,1,155.999992858887,8|0,0:0|0:0,0:0:0:0:
491,228,199217,2,0,P|480:278|487:329,1,103.999995239258,8|2,0:0|0:0,0:0:0:0:
336,356,199763,2,0,L|224:344,1,103.999995239258,8|2,0:0|0:0,0:0:0:0:
160,284,200172,1,2,0:0:0:0:
160,284,200308,2,0,L|168:232,1,51.999997619629,8|8,0:0|0:0,0:0:0:0:
168,136,200581,2,0,L|160:80,1,51.999997619629,2|2,0:0|0:0,0:0:0:0:
239,15,200854,6,0,P|294:68|370:66,1,155.999992858887,4|0,0:1|0:0,0:0:0:0:
447,14,201399,2,0,P|446:69|462:128,1,103.999995239258,8|2,0:0|0:0,0:0:0:0:
364,211,201945,2,0,L|300:203,1,51.999997619629,8|0,0:0|0:0,0:0:0:0:
264,132,202217,2,0,P|238:131|213:137,1,51.999997619629,2|2,0:0|0:0,0:0:0:0:
136,192,202490,2,0,L|24:180,1,103.999995239258,8|2,0:0|0:0,0:0:0:0:
155,351,203036,6,0,P|229:368|285:319,1,155.999992858887,4|0,0:1|0:0,0:0:0:0:
344,240,203581,2,0,L|332:132,1,103.999995239258,8|2,0:0|0:0,0:0:0:0:
248,24,204127,1,8,0:0:0:0:
180,88,204264,1,0,0:0:0:0:
96,40,204399,2,0,L|40:44,1,51.999997619629,2|2,0:0|0:0,0:0:0:0:
0,144,204672,2,0,P|56:144|96:172,1,103.999995239258,4|2,0:2|0:0,0:0:0:0:
192,312,205217,6,0,L|360:300,1,155.999992858887,4|0,0:1|0:0,0:0:0:0:
415,243,205763,2,0,P|400:194|408:144,1,103.999995239258,8|2,0:0|0:0,0:0:0:0:
452,68,206172,1,0,0:0:0:0:
320,164,206308,2,0,L|260:160,1,51.999997619629,8|0,0:0|0:0,0:0:0:0:
196,96,206581,2,0,P|191:70|194:44,1,51.999997619629,2|2,0:0|0:0,0:0:0:0:
112,148,206854,2,0,P|124:204|104:256,1,103.999995239258,8|2,0:0|0:0,0:0:0:0:
288,364,207399,6,0,B|268:304|268:304|288:200,1,155.999992858887,8|0,0:0|0:0,0:0:0:0:
360,120,207945,2,0,L|372:172,2,51.999997619629,8|2|0,0:0|0:0|0:0,0:0:0:0:
232,24,208490,2,0,P|180:24|140:56,1,103.999995239258,8|0,0:0|0:0,0:0:0:0:
40,56,208899,2,0,B|64:132|64:132|36:212,1,155.999992858887,2|0,0:0|0:0,0:0:0:0:
220,356,209581,6,0,P|208:304|220:252,1,103.999995239258,4|2,0:2|0:0,0:0:0:0:
288,192,209990,1,0,0:0:0:0:
360,312,210127,2,0,L|304:304,1,51.999997619629,8|0,0:0|0:0,0:0:0:0:
288,192,210399,1,2,0:0:0:0:
288,191,210672,6,0,P|295:167|296:141,1,51.999997619629,8|0,0:0|0:0,0:0:0:0:
204,20,210945,2,0,P|184:68|188:120,1,103.999995239258,2|8,0:0|0:0,0:0:0:0:
132,204,211354,1,0,0:0:0:0:
132,204,211490,2,0,L|76:192,1,51.999997619629,2|0,0:0|0:0,0:0:0:0:
192,284,211763,6,0,L|296:272,1,103.999995239258,8|2,0:0|0:0,0:0:0:0:
384,328,212172,1,0,0:0:0:0:
456,268,212308,2,0,B|440:212|440:212|452:160,1,103.999995239258,8|2,0:0|0:0,0:0:0:0:
368,20,212854,2,0,L|352:128,1,103.999995239258,8|2,0:0|0:0,0:0:0:0:
288,184,213263,1,2,0:0:0:0:
288,184,213399,2,0,P|248:152|196:152,1,103.999995239258,4|2,0:2|0:0,0:0:0:0:
24,284,213945,6,0,P|64:316|116:316,1,103.999995239258,4|2,0:2|0:0,0:0:0:0:
184,256,214354,1,0,0:0:0:0:
252,324,214490,2,0,L|244:376,2,51.999997619629,8|0|2,0:0|0:0|0:0,0:0:0:0:
368,244,215036,2,0,L|356:188,1,51.999997619629,8|0,0:0|0:0,0:0:0:0:
440,72,215308,2,0,P|459:118|446:168,1,103.999995239258,2|8,0:0|0:0,0:0:0:0:
280,152,215717,1,0,0:0:0:0:
280,152,215854,2,0,L|220:140,1,51.999997619629,2|2,0:0|0:0,0:0:0:0:
152,80,216127,6,0,P|96:80|56:108,1,103.999995239258,8|2,0:0|0:0,0:0:0:0:
4,184,216536,1,0,0:0:0:0:
4,184,216672,2,0,L|16:292,1,103.999995239258,8|2,0:0|0:0,0:0:0:0:
191,359,217217,2,0,P|217:361|243:356,1,51.999997619629,8|0,0:0|0:0,0:0:0:0:
344,288,217490,2,0,L|288:284,1,51.999997619629,2|2,0:0|0:0,0:0:0:0:
404,220,217763,2,0,P|430:263|427:315,1,103.999995239258,4|2,0:2|0:0,0:0:0:0:
243,199,218308,6,0,P|211:131|241:61,1,155.999992858887,4|0,0:1|0:0,0:0:0:0:
312,16,218854,2,0,L|420:28,1,103.999995239258,8|2,0:0|0:0,0:0:0:0:
488,132,219399,2,0,B|476:184|476:184|496:236,1,103.999995239258,8|2,0:0|0:0,0:0:0:0:
444,312,219808,1,2,0:0:0:0:
444,312,219945,2,0,P|396:288|344:296,1,103.999995239258,8|2,0:0|0:0,0:0:0:0:
223,352,220490,6,0,P|149:365|89:318,1,155.999992858887,8|0,0:0|0:0,0:0:0:0:
24,256,221036,2,0,L|36:144,1,103.999995239258,8|2,0:0|0:0,0:0:0:0:
180,28,221581,2,0,L|188:84,1,51.999997619629,8|0,0:0|0:0,0:0:0:0:
272,136,221854,2,0,L|264:192,1,51.999997619629,2|2,0:0|0:0,0:0:0:0:
208,247,222127,2,0,P|257:235|302:259,1,103.999995239258,4|2,0:2|0:0,0:0:0:0:
480,360,222672,6,0,B|452:304|452:304|464:200,1,155.999992858887,4|0,0:1|0:0,0:0:0:0:
467,123,223217,2,0,P|417:115|370:137,1,103.999995239258,8|2,0:0|0:0,0:0:0:0:
316,240,223763,2,0,L|332:296,1,51.999997619629,8|0,0:0|0:0,0:0:0:0:
224,360,224036,2,0,L|232:304,1,51.999997619629,2|2,0:0|0:0,0:0:0:0:
176,228,224308,2,0,P|128:212|80:232,1,103.999995239258,8|2,0:0|0:0,0:0:0:0:
16,72,224854,6,0,L|176:92,1,155.999992858887,8|0,0:0|0:0,0:0:0:0:
252,56,225399,2,0,P|256:24|252:0,1,51.999997619629,8|2,0:0|0:0,0:0:0:0:
248,144,225672,1,0,0:0:0:0:
248,144,225945,2,0,L|356:132,1,103.999995239258,8|0,0:0|0:0,0:0:0:0:
424,76,226354,1,2,0:0:0:0:
487,152,226490,2,0,P|479:202|493:252,1,103.999995239258,0|0,0:0|0:0,0:0:0:0:
352,348,227036,5,0,0:0:0:0:
