osu file format v14

[General]
AudioFilename: BTS - Not Today.mp3
AudioLeadIn: 0
PreviewTime: 69331
Countdown: 0
SampleSet: Soft
StackLeniency: 0.3
Mode: 0
LetterboxInBreaks: 0
WidescreenStoryboard: 0

[Editor]
Bookmarks: 65581
DistanceSpacing: 0.8
BeatDivisor: 4
GridSize: 4
TimelineZoom: 0.7000002

[Metadata]
Title:Not Today
TitleUnicode:Not Today
Artist:BTS
ArtistUnicode:방탄소년단
Creator:DeRandom Otaku
Version:Log's Easy
Source:
Tags:Rap monster jungkook suga jimin j-hope v jin hot yoongi 랩몬스터 진 슈가 제이홉 지민 뷔 정국 k-pop kpop log off now DT3 Diamond Turtle Shyotamaze Deppyforce Neoskylove HabiHolic Cerulean Veyron CV You Never Walk Alone big hit entertainment bantansoyeondan bangtan boys
BeatmapID:1233942
BeatmapSetID:575767

[Difficulty]
HPDrainRate:3
CircleSize:3
OverallDifficulty:3
ApproachRate:3
SliderMultiplier:1.3
SliderTickRate:1

[Events]
//Background and Video events
0,0,"BG.jpg",0,0
//Break Periods
2,52690,59777
2,122508,129596
2,174872,181959
//Storyboard Layer 0 (Background)
//Storyboard Layer 1 (Fail)
//Storyboard Layer 2 (Pass)
//Storyboard Layer 3 (Foreground)
//Storyboard Sound Samples

[TimingPoints]
127,545.454545454546,4,2,2,40,1,0
8854,-100,4,3,2,60,0,0
17581,-100,4,2,2,50,0,0
52490,-100,4,3,1,50,0,0
61217,-100,4,3,1,60,0,0
65581,-100,4,3,1,60,0,0
69399,-100,4,3,4,70,0,0
69945,-100,4,3,3,80,0,1
86308,-100,4,2,2,80,0,1
86854,-100,4,2,2,20,0,0
87399,-100,4,3,5,80,0,1
87536,-100,4,3,3,80,0,1
91763,-100,4,3,5,80,0,1
91899,-100,4,3,3,80,0,1
103763,-100,4,3,3,30,0,1
104854,-100,4,2,2,50,0,0
113581,-100,4,2,2,50,0,0
118490,-100,4,2,0,20,0,0
119036,-100,4,2,2,50,0,0
119581,-100,4,2,0,20,0,0
120127,-100,4,2,2,50,0,0
122308,-100,4,3,1,50,0,0
131036,-100,4,3,1,60,0,0
135399,-100,4,3,1,60,0,0
139217,-100,4,3,4,70,0,0
139763,-100,4,3,3,80,0,1
156127,-100,4,2,2,80,0,1
156672,-100,4,2,2,20,0,0
157217,-100,4,3,5,80,0,1
157354,-100,4,3,3,80,0,1
161581,-100,4,3,5,80,0,1
161717,-100,4,3,3,80,0,1
170308,-100,4,3,3,80,0,1
173581,-100,4,2,2,30,0,1
174672,-100,4,2,2,40,0,0
187763,-100,4,3,1,60,0,0
191581,-100,4,3,4,70,0,0
192127,-100,4,3,3,80,0,1
208490,-100,4,2,2,80,0,1
209036,-100,4,2,2,20,0,0
209581,-100,4,3,5,80,0,1
209717,-100,4,3,3,80,0,1
213945,-100,4,3,5,80,0,1
214081,-100,4,3,3,80,0,1
222672,-100,4,3,3,80,0,1
226490,-100,4,2,0,20,0,1
227036,-100,4,3,4,70,0,0
227104,-100,4,3,4,70,0,0

[Colours]
Combo1 : 255,128,64
Combo2 : 131,43,164
Combo3 : 170,85,85
Combo4 : 55,255,55

[HitObjects]
74,246,127,6,0,B|46:310|46:310|58:394,2,130,4|0|0,0:0|0:0|0:0,0:0:0:0:
134,162,1763,1,0,0:0:0:0:
226,214,2308,2,0,P|302:230|366:210,1,130,0|0,0:0|0:0,0:0:0:0:
442,166,3399,2,0,L|434:34,1,130,0|0,0:0|0:0,0:0:0:0:
330,54,4490,6,0,B|270:62|270:62|186:50,2,130,4|0|0,0:0|0:0|0:0,0:0:0:0:
434,38,6127,1,0,0:0:0:0:
466,138,6672,2,0,L|458:267,1,130,0|0,0:0|0:0,0:0:0:0:
370,326,7763,2,0,P|310:342|230:322,1,130,0|0,0:0|0:0,0:0:0:0:
158,274,8854,6,0,B|142:210|142:210|158:158|158:158|114:86|158:18,1,260,4|0,0:0|0:0,0:0:0:0:
258,10,10490,1,8,0:0:0:0:
342,70,11036,2,0,B|354:134|354:134|338:210,1,130,0|8,0:0|0:0,0:0:0:0:
238,222,12127,2,0,B|226:286|226:286|242:362,1,130,0|8,0:0|0:0,0:0:0:0:
256,192,13217,12,10,16490,0:0:0:0:
434,54,17581,6,0,P|442:118|430:262,1,195,4|2,0:0|0:0,0:0:0:0:
298,326,19217,1,8,0:0:0:0:
224,252,19763,2,0,L|228:120,1,130,2|8,0:0|0:0,0:0:0:0:
124,132,20854,2,0,P|88:180|24:208,1,130,0|8,0:0|0:0,0:0:0:0:
24,312,21945,6,0,P|88:304|232:316,1,195,4|2,0:0|0:0,0:0:0:0:
356,384,23581,1,8,0:0:0:0:
416,300,24127,2,0,L|420:168,1,130,2|8,0:0|0:0,0:0:0:0:
364,80,25218,2,0,P|426:65|486:88,1,130,0|8,0:0|0:0,0:0:0:0:
496,192,26308,6,0,B|434:239|375:207|375:207|339:220|339:220|300:207|300:207,1,195,4|2,0:0|0:0,0:0:0:0:
168,156,27945,1,8,0:0:0:0:
84,220,28490,2,0,L|94:353,1,130,2|8,0:0|0:0,0:0:0:0:
196,328,29581,2,0,L|205:198,1,130,0|8,0:0|0:0,0:0:0:0:
133,122,30672,6,0,B|192:80|252:107|252:107|288:96|288:96|334:113|334:113,1,195,4|2,0:0|0:0,0:0:0:0:
451,171,32308,1,8,0:0:0:0:
384,251,32854,2,0,P|388:308|386:381,2,130,2|8|0,0:0|0:0|0:0,0:0:0:0:
292,200,34490,1,8,0:0:0:0:
204,256,35036,6,0,B|143:288|143:288|12:258,2,195,4|2|8,0:0|0:0|0:0,0:0:0:0:
301,219,37217,2,0,L|297:88,1,130,2|8,0:0|0:0,0:0:0:0:
198,55,38308,2,0,P|139:44|66:61,1,130,0|8,0:0|0:0,0:0:0:0:
24,151,39399,6,0,B|1:216|1:216|52:340,2,195,4|2|8,0:0|0:0|0:0,0:0:0:0:
127,139,41581,2,0,L|259:154,1,130,2|8,0:0|0:0,0:0:0:0:
351,111,42672,2,0,P|356:180|322:234,1,130,0|8,0:0|0:0,0:0:0:0:
239,289,43763,6,0,B|194:310|194:310|160:291|160:291|108:323|36:274,1,195,4|2,0:0|0:0,0:0:0:0:
201,70,45945,2,0,B|246:49|246:49|280:68|280:68|332:36|404:85,1,195,2|2,0:0|0:0,0:0:0:0:
310,321,48127,6,0,B|249:353|249:353|118:323,2,195,4|2|8,0:0|0:0|0:0,0:0:0:0:
387,252,50308,1,2,0:0:0:0:
319,172,50854,2,0,L|183:178,1,130,8|0,0:0|0:0,0:0:0:0:
85,186,51945,1,8,0:0:0:0:
131,93,52490,5,4,0:0:0:0:
110,256,61217,6,0,P|102:190|100:121,1,130,4|8,0:0|0:0,0:0:0:0:
201,148,62308,2,0,P|268:153|330:137,1,130,0|8,0:0|0:0,0:0:0:0:
424,97,63399,2,0,P|432:163|434:232,1,130,4|8,0:0|0:0,0:0:0:0:
370,308,64490,2,0,P|306:322|242:317,1,130,2|8,0:0|0:0,0:0:0:0:
159,253,65581,6,0,P|95:266|31:262,2,130,12|8|12,0:0|0:0|0:0,0:0:0:0:
244,193,67217,1,8,0:0:0:0:
211,94,67763,2,0,P|146:82|75:93,2,130,12|12|12,0:0|0:0|0:0,0:0:0:0:
311,67,69399,1,0,0:0:0:0:
380,144,69945,6,0,B|367:205|367:205|386:274,2,130,4|8|8,0:1|0:0|0:0,0:0:0:0:
434,55,71581,1,8,0:0:0:0:
335,21,72127,2,0,B|267:11|267:11|198:27,1,130,8|8,0:0|0:0,0:0:0:0:
131,96,73217,1,8,0:0:0:0:
179,189,73763,1,4,0:2:0:0:
87,237,74308,6,0,B|74:298|74:298|93:367,2,130,4|8|8,0:1|0:0|0:0,0:0:0:0:
120,136,75945,1,8,0:0:0:0:
220,172,76490,2,0,B|281:185|281:185|350:166,1,130,8|8,0:0|0:0,0:0:0:0:
292,76,77581,2,0,B|231:63|231:63|162:82,1,130,8|8,0:0|0:0,0:0:0:0:
100,160,78672,6,0,B|112:217|112:217|96:284|96:284|111:353,1,195,4|2,0:1|0:0,0:0:0:0:
265,372,80308,1,8,0:0:0:0:
335,295,80854,6,0,B|328:227|328:227|292:168|292:168|286:110,1,195,4|2,0:1|0:0,0:0:0:0:
155,26,82490,1,4,0:2:0:0:
86,104,83036,6,0,B|100:170|100:170|84:237|84:237|96:294,1,195,4|2,0:1|0:0,0:0:0:0:
232,370,84672,1,8,0:0:0:0:
309,300,85217,2,0,B|370:309|370:309|439:294,2,130,8|8|8,0:0|0:0|0:0,0:0:0:0:
206,278,86854,1,4,0:0:0:0:
279,204,87399,6,0,B|294:154|294:154|281:108|281:108|299:61|299:61|283:9,2,195,4|2|8,0:2|0:0|0:0,0:0:0:0:
177,227,89581,2,0,B|156:301|156:301|171:352,1,130,8|8,0:0|0:0,0:0:0:0:
271,377,90672,1,8,0:0:0:0:
348,307,91217,1,4,0:2:0:0:
270,237,91763,6,0,B|220:252|220:252|174:239|174:239|127:257|127:257|75:241,2,195,4|2|8,0:2|0:0|0:0,0:0:0:0:
349,170,93945,2,0,B|362:94|362:94|341:45,1,130,8|8,0:0|0:0,0:0:0:0:
240,72,95036,2,0,B|226:147|226:147|247:196,1,130,8|4,0:0|0:2,0:0:0:0:
328,264,96127,6,0,B|395:257|395:257|454:221|454:221|512:215,1,195,4|2,0:1|0:0,0:0:0:0:
512,60,97763,1,8,0:0:0:0:
408,68,98308,6,0,B|350:74|350:74|291:110|291:110|223:116,1,195,8|2,0:0|0:0,0:0:0:0:
69,129,99945,1,4,0:2:0:0:
140,204,100490,6,0,B|208:210|208:210|267:246|267:246|325:252,1,195,4|2,0:1|0:0,0:0:0:0:
479,271,102127,1,8,0:0:0:0:
394,331,102672,2,0,B|339:360|339:360|257:351,1,130,8|8,0:0|0:0,0:0:0:0:
200,276,103763,2,0,L|217:139,1,130,8|4,0:0|0:0,0:0:0:0:
228,43,104854,6,0,B|130:88|130:9|31:51,1,195,4|2,0:0|0:0,0:0:0:0:
7,200,106490,1,8,0:0:0:0:
91,260,107036,2,0,L|220:256,1,130,2|8,0:0|0:0,0:0:0:0:
301,322,108127,2,0,P|324:262|308:200,1,130,0|8,0:0|0:0,0:0:0:0:
220,255,109217,6,0,B|175:157|254:157|212:58,1,195,4|2,0:0|0:0,0:0:0:0:
64,24,110854,1,8,0:0:0:0:
83,126,111399,2,0,L|79:255,1,130,2|8,0:0|0:0,0:0:0:0:
23,342,112490,2,0,P|85:359|145:335,1,130,0|8,0:0|0:0,0:0:0:0:
239,293,113581,6,0,B|315:310|315:310|435:285,2,195,4|2|8,0:0|0:0|0:0,0:0:0:0:
190,201,115763,2,0,B|64:177|64:177|0:194,2,195,0|2|8,0:0|0:0|0:0,0:0:0:0:
291,224,117945,6,0,P|355:233|422:216,1,130,6|2,0:0|0:0,0:0:0:0:
494,147,119036,2,0,B|509:81|497:16,1,130,10|2,0:0|0:0,0:0:0:0:
398,52,120127,1,2,0:0:0:0:
297,26,120672,1,2,0:0:0:0:
229,105,121217,2,0,B|214:171|226:236,1,130,2|2,0:0|0:0,0:0:0:0:
244,336,122308,1,4,0:0:0:0:
402,128,131036,6,0,P|410:194|412:263,1,130,4|8,0:0|0:0,0:0:0:0:
311,236,132127,2,0,P|244:231|182:247,1,130,0|8,0:0|0:0,0:0:0:0:
88,287,133218,2,0,P|80:221|78:152,1,130,4|8,0:0|0:0,0:0:0:0:
142,76,134308,2,0,P|206:62|270:67,1,130,2|8,0:0|0:0,0:0:0:0:
343,140,135399,6,0,P|407:144|470:130,2,130,12|8|12,0:0|0:0|0:0,0:0:0:0:
244,175,137036,1,8,0:0:0:0:
148,215,137581,2,0,P|84:201|20:205,2,130,12|12|12,0:0|0:0|0:0,0:0:0:0:
196,307,139217,1,0,0:0:0:0:
277,242,139763,6,0,B|264:181|264:181|281:115,2,130,4|8|8,0:1|0:0|0:0,0:0:0:0:
357,308,141399,1,8,0:0:0:0:
431,234,141945,2,0,B|444:173|444:173|425:104,1,130,8|8,0:0|0:0,0:0:0:0:
329,69,143036,1,8,0:0:0:0:
274,157,143581,1,4,0:2:0:0:
174,126,144127,6,0,B|108:108|108:108|47:121,2,130,4|8|8,0:1|0:0|0:0,0:0:0:0:
203,225,145763,1,8,0:0:0:0:
252,316,146308,2,0,B|317:333|317:333|378:320,1,130,8|8,0:0|0:0,0:0:0:0:
329,229,147399,2,0,B|263:211|263:211|202:224,1,130,8|8,0:0|0:0,0:0:0:0:
100,248,148490,6,0,B|92:180|92:180|55:122|55:122|47:64,1,195,4|2,0:1|0:0,0:0:0:0:
196,16,150127,1,8,0:0:0:0:
268,92,150672,6,0,B|260:149|260:149|223:207|223:207|215:275,1,195,4|2,0:1|0:0,0:0:0:0:
340,368,152308,1,4,0:2:0:0:
416,296,152854,6,0,B|423:228|423:228|460:170|460:170|468:112,1,195,4|2,0:1|0:0,0:0:0:0:
340,24,154490,1,8,0:0:0:0:
244,60,155036,2,0,B|183:51|183:51|114:66,2,130,8|8|8,0:0|0:0|0:0,0:0:0:0:
324,124,156672,1,4,0:0:0:0:
244,192,157217,6,0,B|230:234|230:234|248:281|248:281|233:328|233:328|250:377,2,195,4|2|8,0:2|0:0|0:0,0:0:0:0:
216,92,159399,2,0,B|142:71|142:71|91:86,1,130,8|8,0:0|0:0,0:0:0:0:
28,172,160490,1,8,0:0:0:0:
112,236,161036,1,4,0:2:0:0:
204,192,161581,6,0,B|252:176|252:176|300:190|300:190|347:172|347:172|389:185,2,195,4|2|8,0:2|0:0|0:0,0:0:0:0:
236,290,163763,2,0,B|310:311|310:311|365:289,1,130,8|8,0:0|0:0,0:0:0:0:
432,216,164854,2,0,B|447:165|447:165|426:91,1,130,8|4,0:0|0:2,0:0:0:0:
336,36,165945,6,0,B|268:44|268:44|210:81|210:81|152:89,1,195,4|2,0:1|0:0,0:0:0:0:
20,172,167581,1,8,0:0:0:0:
92,248,168127,6,0,B|160:256|160:256|218:293|218:293|276:301,1,195,8|2,0:0|0:0,0:0:0:0:
428,316,169763,1,4,0:2:0:0:
397,216,170308,6,0,B|339:208|339:208|281:171|281:171|213:163,1,195,4|2,0:1|0:0,0:0:0:0:
58,147,171945,1,8,0:0:0:0:
131,74,172490,2,0,B|186:45|186:45|268:54,1,130,8|8,0:0|0:0,0:0:0:0:
336,112,173581,2,0,B|365:167|365:167|356:249,1,130,8|4,0:0|0:0,0:0:0:0:
344,336,174672,1,4,0:1:0:0:
325,56,183399,6,0,P|256:38|183:56,1,130,2|2,0:0|0:0,0:0:0:0:
121,117,184490,2,0,L|132:257,1,130,2|2,0:0|0:0,0:0:0:0:
235,250,185581,2,0,L|224:390,2,130,2|2|2,0:0|0:0|0:0,0:0:0:0:
245,146,187217,1,2,0:0:0:0:
329,206,187763,6,0,B|393:222|393:222|471:206,1,130,4|8,0:0|0:0,0:0:0:0:
499,115,188854,2,0,B|435:99|435:99|357:115,1,130,4|8,0:0|0:0,0:0:0:0:
277,70,189945,5,4,0:0:0:0:
188,124,190490,1,4,0:0:0:0:
102,64,191036,1,12,0:0:0:0:
43,150,191582,1,0,0:0:0:0:
126,212,192127,6,0,B|108:277|108:277|121:338,2,130,4|8|8,0:1|0:0|0:0,0:0:0:0:
229,225,193763,1,8,0:0:0:0:
286,138,194308,2,0,B|351:120|351:120|412:133,1,130,8|8,0:0|0:0,0:0:0:0:
467,221,195399,1,8,0:0:0:0:
407,306,195945,1,4,0:2:0:0:
314,259,196490,6,0,B|253:272|253:272|187:254,2,130,4|8|8,0:1|0:0|0:0,0:0:0:0:
366,168,198127,1,8,0:0:0:0:
278,111,198672,2,0,B|217:98|217:98|151:116,1,130,8|8,0:0|0:0,0:0:0:0:
96,203,199763,2,0,B|157:216|157:216|223:198,1,130,8|8,0:0|0:0,0:0:0:0:
275,108,200854,6,0,B|330:92|330:92|383:46|383:46|448:28,1,195,4|2,0:1|0:0,0:0:0:0:
499,176,202490,1,8,0:0:0:0:
433,257,203036,6,0,B|376:252|376:252|315:215|315:215|247:209,1,195,4|2,0:1|0:0,0:0:0:0:
92,196,204672,1,4,0:2:0:0:
148,108,205217,6,0,B|212:100|212:100|266:66|266:66|332:60,1,195,4|2,0:1|0:0,0:0:0:0:
488,47,206854,1,8,0:0:0:0:
439,138,207399,2,0,B|452:203|452:203|441:269,2,130,8|8|8,0:0|0:0|0:0,0:0:0:0:
337,113,209036,1,4,0:0:0:0:
237,143,209581,6,0,B|195:129|195:129|148:147|148:147|101:131|101:131|52:149,2,195,4|2|8,0:2|0:0|0:0,0:0:0:0:
262,243,211763,2,0,B|336:264|336:264|387:249,1,130,8|8,0:0|0:0,0:0:0:0:
482,208,212854,1,8,0:0:0:0:
395,150,213399,1,4,0:2:0:0:
301,195,213945,6,0,B|315:237|315:237|297:284|297:284|312:331|312:331|295:380,2,195,4|2|8,0:2|0:0|0:0,0:0:0:0:
203,159,216127,2,0,B|175:87|175:87|182:27,1,130,8|8,0:0|0:0,0:0:0:0:
280,4,217217,2,0,B|307:77|307:77|301:132,1,130,8|4,0:0|0:2,0:0:0:0:
382,194,218308,6,0,B|376:251|376:251|340:312|340:312|334:378,1,195,4|2,0:1|0:0,0:0:0:0:
176,380,219945,1,8,0:0:0:0:
120,292,220490,6,0,B|114:235|114:235|78:174|78:174|72:107,1,195,8|2,0:0|0:0,0:0:0:0:
200,20,222127,1,4,0:2:0:0:
280,84,222672,6,0,B|274:141|274:141|238:202|238:202|232:268,1,195,4|2,0:1|0:0,0:0:0:0:
348,372,224308,1,8,0:0:0:0:
416,292,224854,2,0,B|436:229|436:229|424:161,1,130,8|8,0:0|0:0,0:0:0:0:
342,103,225945,2,0,L|191:123,1,130,8|0,0:0|0:0,0:0:0:0:
119,76,227036,5,0,0:0:0:0:
