osu file format v14

[General]
AudioFilename: BTS - Not Today.mp3
AudioLeadIn: 0
PreviewTime: 69331
Countdown: 0
SampleSet: None
StackLeniency: 0.3
Mode: 0
LetterboxInBreaks: 0
WidescreenStoryboard: 0

[Editor]
Bookmarks: 69399,104854,139217,174672,191581,227036
DistanceSpacing: 1.7
BeatDivisor: 8
GridSize: 4
TimelineZoom: 2.799999

[Metadata]
Title:Not Today
TitleUnicode:Not Today
Artist:BTS
ArtistUnicode:방탄소년단
Creator:DeRandom Otaku
Version:Insane Collab
Source:
Tags:Rap monster jungkook suga jimin j-hope v jin hot yoongi 랩몬스터 진 슈가 제이홉 지민 뷔 정국 k-pop kpop log off now DT3 Diamond Turtle Shyotamaze Deppyforce Neoskylove HabiHolic Cerulean Veyron CV You Never Walk Alone big hit entertainment bantansoyeondan bangtan boys
BeatmapID:1233941
BeatmapSetID:575767

[Difficulty]
HPDrainRate:7
CircleSize:3.8
OverallDifficulty:8
ApproachRate:9.3
SliderMultiplier:1.8
SliderTickRate:1

[Events]
//Background and Video events
0,0,"BG.jpg",0,0
//Break Periods
2,174872,182845
//Storyboard Layer 0 (Background)
//Storyboard Layer 1 (Fail)
//Storyboard Layer 2 (Pass)
//Storyboard Layer 3 (Foreground)
//Storyboard Sound Samples

[TimingPoints]
127,545.454545454546,4,2,2,40,1,0
8854,-100,4,3,2,60,0,0
17036,-80,4,3,4,70,0,0
17513,-80,4,2,0,5,0,0
17581,-90.9090909090909,4,2,2,50,0,0
35036,-83.3333333333333,4,2,2,50,0,0
52490,-83.3333333333333,4,3,1,50,0,0
65581,-66.6666666666667,4,3,1,60,0,0
69399,-83.3333333333333,4,3,4,70,0,0
69877,-83.3333333333333,4,2,0,5,0,0
69945,-58.8235294117647,4,3,3,80,0,1
70490,-50,4,3,3,70,0,1
71036,-58.8235294117647,4,3,3,70,0,1
71581,-50,4,3,3,70,0,1
72127,-58.8235294117647,4,3,3,70,0,1
72672,-50,4,3,3,70,0,1
73217,-62.5,4,3,3,70,0,1
73490,-71.4285714285714,4,3,3,70,0,1
73763,-83.3333333333333,4,3,3,70,0,1
74240,-83.3333333333333,4,3,3,5,0,1
74308,-58.8235294117647,4,3,3,70,0,1
74854,-50,4,3,3,70,0,1
75399,-58.8235294117647,4,3,3,70,0,1
75945,-50,4,3,3,70,0,1
76490,-58.8235294117647,4,3,3,70,0,1
77036,-50,4,3,3,70,0,1
77581,-62.5,4,3,3,70,0,1
77854,-71.4285714285714,4,3,3,70,0,1
78127,-83.3333333333333,4,3,3,70,0,1
78672,-58.8235294117647,4,3,3,70,0,1
79217,-50,4,3,3,70,0,1
79763,-58.8235294117647,4,3,3,70,0,1
80308,-66.6666666666667,4,3,3,70,0,1
80581,-50,4,3,3,70,0,1
80786,-50,4,3,3,5,0,1
80854,-58.8235294117647,4,3,3,70,0,1
81399,-50,4,3,3,70,0,1
81945,-58.8235294117647,4,3,3,70,0,1
82490,-66.6666666666667,4,3,3,70,0,1
82763,-50,4,3,3,70,0,1
82967,-50,4,3,3,5,0,1
83036,-58.8235294117647,4,3,3,70,0,1
83581,-50,4,3,3,70,0,1
84127,-58.8235294117647,4,3,3,70,0,1
84672,-66.6666666666667,4,3,3,70,0,1
84945,-50,4,3,3,70,0,1
85149,-50,4,3,3,5,0,1
85217,-83.3333333333333,4,3,3,70,0,1
85763,-71.4285714285714,4,3,3,70,0,1
86308,-55.5555555555556,4,3,3,70,0,1
86854,-166.666666666667,4,2,2,20,0,0
87399,-55.5555555555556,4,3,5,80,0,1
87536,-100,4,3,3,80,0,1
87945,-62.5,4,3,3,80,0,1
88217,-52.6315789473684,4,3,3,80,0,1
88490,-55.5555555555556,4,3,3,80,0,1
89581,-62.5,4,3,3,80,0,1
90399,-50,4,3,3,80,0,1
90672,-62.5,4,3,3,80,0,1
90945,-71.4285714285714,4,3,3,80,0,1
91217,-83.3333333333333,4,3,3,80,0,1
91695,-83.3333333333333,4,3,3,5,0,1
91763,-55.5555555555556,4,3,5,80,0,1
91899,-100,4,3,3,80,0,1
92308,-62.5,4,3,3,80,0,1
92581,-52.6315789473684,4,3,3,80,0,1
92854,-55.5555555555556,4,3,3,80,0,1
93945,-62.5,4,3,3,80,0,1
94763,-50,4,3,3,80,0,1
95036,-62.5,4,3,3,80,0,1
95308,-71.4285714285714,4,3,3,80,0,1
95581,-83.3333333333333,4,3,3,80,0,1
96127,-55.5555555555556,4,3,3,80,0,1
97217,-62.5,4,3,3,80,0,1
97490,-71.4285714285714,4,3,3,80,0,1
97763,-83.3333333333333,4,3,3,80,0,1
98240,-83.3333333333333,4,3,3,5,0,1
98308,-55.5555555555556,4,3,3,80,0,1
99399,-62.5,4,3,3,80,0,1
99672,-71.4285714285714,4,3,3,80,0,1
99945,-83.3333333333333,4,3,3,80,0,1
100422,-83.3333333333333,4,3,3,5,0,1
100490,-55.5555555555556,4,3,3,80,0,1
101581,-62.5,4,3,3,80,0,1
101854,-71.4285714285714,4,3,3,80,0,1
102127,-83.3333333333333,4,3,3,80,0,1
103217,-71.4285714285714,4,3,3,80,0,1
103763,-55.5555555555556,4,3,3,80,0,1
104308,-50,4,3,3,80,0,1
104581,-50,4,3,3,30,0,1
104854,-83.3333333333333,4,2,2,50,0,0
113581,-71.4285714285714,4,2,2,40,0,0
118490,-100,4,2,0,20,0,0
119036,-71.4285714285714,4,2,2,50,0,0
119581,-100,4,2,0,20,0,0
120127,-71.4285714285714,4,2,2,50,0,0
122308,-83.3333333333333,4,3,1,50,0,0
135399,-66.6666666666667,4,3,1,60,0,0
139217,-83.3333333333333,4,3,4,70,0,0
139695,-83.3333333333333,4,2,2,5,0,0
139763,-58.8235294117647,4,3,3,70,0,1
140308,-50,4,3,3,70,0,1
140854,-58.8235294117647,4,3,3,70,0,1
141399,-50,4,3,3,70,0,1
141945,-58.8235294117647,4,3,3,70,0,1
142490,-50,4,3,3,70,0,1
143036,-62.5,4,3,3,70,0,1
143308,-71.4285714285714,4,3,3,70,0,1
143581,-83.3333333333333,4,3,3,70,0,1
144058,-83.3333333333333,4,3,3,5,0,1
144127,-58.8235294117647,4,3,3,70,0,1
144672,-50,4,3,3,70,0,1
145217,-58.8235294117647,4,3,3,70,0,1
145763,-50,4,3,3,70,0,1
146308,-58.8235294117647,4,3,3,70,0,1
146854,-50,4,3,3,70,0,1
147399,-62.5,4,3,3,70,0,1
147672,-71.4285714285714,4,3,3,70,0,1
147945,-83.3333333333333,4,3,3,70,0,1
148490,-58.8235294117647,4,3,3,70,0,1
149036,-50,4,3,3,70,0,1
149581,-58.8235294117647,4,3,3,70,0,1
150127,-66.6666666666667,4,3,3,70,0,1
150399,-50,4,3,3,70,0,1
150604,-50,4,3,3,5,0,1
150672,-58.8235294117647,4,3,3,70,0,1
151217,-50,4,3,3,70,0,1
151763,-58.8235294117647,4,3,3,70,0,1
152308,-66.6666666666667,4,3,3,70,0,1
152581,-50,4,3,3,70,0,1
152786,-50,4,3,3,5,0,1
152854,-58.8235294117647,4,3,3,70,0,1
153399,-50,4,3,3,70,0,1
153945,-58.8235294117647,4,3,3,70,0,1
154490,-66.6666666666667,4,3,3,70,0,1
154763,-50,4,3,3,70,0,1
154967,-50,4,3,3,5,0,1
155036,-83.3333333333333,4,3,3,70,0,1
155581,-71.4285714285714,4,3,3,70,0,1
156127,-55.5555555555556,4,3,3,70,0,1
156672,-166.666666666667,4,2,2,20,0,0
157217,-55.5555555555556,4,3,5,80,0,1
157354,-100,4,3,3,80,0,1
157763,-62.5,4,3,3,80,0,1
158036,-52.6315789473684,4,3,3,80,0,1
158308,-55.5555555555556,4,3,3,80,0,1
159399,-62.5,4,3,3,80,0,1
160217,-50,4,3,3,80,0,1
160490,-62.5,4,3,3,80,0,1
160763,-71.4285714285714,4,3,3,80,0,1
161036,-83.3333333333333,4,3,3,80,0,1
161513,-83.3333333333333,4,3,3,5,0,1
161581,-55.5555555555556,4,3,5,80,0,1
161717,-100,4,3,3,80,0,1
162127,-62.5,4,3,3,80,0,1
162399,-52.6315789473684,4,3,3,80,0,1
162672,-55.5555555555556,4,3,3,80,0,1
163763,-62.5,4,3,3,80,0,1
164581,-50,4,3,3,80,0,1
164854,-62.5,4,3,3,80,0,1
165127,-71.4285714285714,4,3,3,80,0,1
165399,-83.3333333333333,4,3,3,80,0,1
165945,-55.5555555555556,4,3,3,80,0,1
167036,-62.5,4,3,3,80,0,1
167308,-71.4285714285714,4,3,3,80,0,1
167581,-83.3333333333333,4,3,3,80,0,1
168058,-83.3333333333333,4,3,3,5,0,1
168127,-55.5555555555556,4,3,3,80,0,1
169217,-62.5,4,3,3,80,0,1
169490,-71.4285714285714,4,3,3,80,0,1
169763,-83.3333333333333,4,3,3,80,0,1
170240,-83.3333333333333,4,3,3,5,0,1
170308,-55.5555555555556,4,3,3,80,0,1
171399,-62.5,4,3,3,80,0,1
171672,-71.4285714285714,4,3,3,80,0,1
171945,-83.3333333333333,4,3,3,80,0,1
173036,-71.4285714285714,4,3,3,80,0,1
173581,-55.5555555555556,4,3,3,80,0,1
174127,-50,4,3,3,80,0,1
174672,-100,4,2,2,40,0,0
183399,-83.3333333333333,4,2,2,60,0,0
187763,-83.3333333333333,4,3,1,60,0,0
191581,-71.4285714285714,4,3,4,70,0,0
191717,-71.4285714285714,4,2,0,5,0,0
192127,-58.8235294117647,4,3,3,80,0,1
192672,-50,4,3,3,80,0,1
193217,-58.8235294117647,4,3,3,80,0,1
193763,-50,4,3,3,80,0,1
194308,-58.8235294117647,4,3,3,80,0,1
194854,-50,4,3,3,80,0,1
195399,-62.5,4,3,3,80,0,1
195672,-71.4285714285714,4,3,3,80,0,1
195945,-83.3333333333333,4,3,3,80,0,1
196422,-83.3333333333333,4,3,3,5,0,1
196490,-58.8235294117647,4,3,3,80,0,1
197036,-50,4,3,3,80,0,1
197581,-58.8235294117647,4,3,3,80,0,1
198127,-50,4,3,3,80,0,1
198672,-58.8235294117647,4,3,3,80,0,1
199217,-50,4,3,3,80,0,1
199763,-62.5,4,3,3,80,0,1
200036,-71.4285714285714,4,3,3,80,0,1
200308,-83.3333333333333,4,3,3,80,0,1
200854,-58.8235294117647,4,3,3,80,0,1
201399,-50,4,3,3,80,0,1
201945,-58.8235294117647,4,3,3,80,0,1
202490,-66.6666666666667,4,3,3,80,0,1
202763,-50,4,3,3,80,0,1
202967,-50,4,3,3,5,0,1
203036,-58.8235294117647,4,3,3,80,0,1
203581,-50,4,3,3,80,0,1
204127,-58.8235294117647,4,3,3,80,0,1
204672,-66.6666666666667,4,3,3,80,0,1
204945,-50,4,3,3,80,0,1
205149,-50,4,3,3,5,0,1
205217,-58.8235294117647,4,3,3,80,0,1
205763,-50,4,3,3,80,0,1
206308,-58.8235294117647,4,3,3,80,0,1
206854,-66.6666666666667,4,3,3,80,0,1
207127,-50,4,3,3,80,0,1
207331,-50,4,3,3,5,0,1
207399,-83.3333333333333,4,3,3,80,0,1
207945,-71.4285714285714,4,3,3,80,0,1
208490,-55.5555555555556,4,3,3,80,0,1
209036,-166.666666666667,4,2,2,20,0,0
209581,-55.5555555555556,4,3,5,80,0,1
209717,-100,4,3,3,80,0,1
210127,-62.5,4,3,3,80,0,1
210399,-52.6315789473684,4,3,3,80,0,1
210672,-55.5555555555556,4,3,3,80,0,1
211763,-62.5,4,3,3,80,0,1
212581,-50,4,3,3,80,0,1
212854,-62.5,4,3,3,80,0,1
213127,-71.4285714285714,4,3,3,80,0,1
213399,-83.3333333333333,4,3,3,80,0,1
213877,-83.3333333333333,4,3,3,5,0,1
213945,-55.5555555555556,4,3,5,80,0,1
214081,-100,4,3,3,80,0,1
214490,-62.5,4,3,3,80,0,1
214763,-52.6315789473684,4,3,3,80,0,1
215036,-55.5555555555556,4,3,3,80,0,1
216127,-62.5,4,3,3,80,0,1
216945,-50,4,3,3,80,0,1
217217,-62.5,4,3,3,80,0,1
217490,-71.4285714285714,4,3,3,80,0,1
217763,-83.3333333333333,4,3,3,80,0,1
218308,-55.5555555555556,4,3,3,80,0,1
219399,-62.5,4,3,3,80,0,1
219672,-71.4285714285714,4,3,3,80,0,1
219945,-83.3333333333333,4,3,3,80,0,1
220422,-83.3333333333333,4,3,3,5,0,1
220490,-55.5555555555556,4,3,3,80,0,1
221581,-62.5,4,3,3,80,0,1
221854,-71.4285714285714,4,3,3,80,0,1
222127,-83.3333333333333,4,3,3,80,0,1
222604,-83.3333333333333,4,3,3,5,0,1
222672,-55.5555555555556,4,3,3,80,0,1
223763,-62.5,4,3,3,80,0,1
224036,-71.4285714285714,4,3,3,80,0,1
224308,-83.3333333333333,4,3,3,80,0,1
225399,-71.4285714285714,4,3,3,80,0,1
225945,-55.5555555555556,4,3,3,80,0,1
226490,-50,4,3,3,20,0,1
227036,-100,4,3,4,70,0,0

[Colours]
Combo1 : 255,128,64
Combo2 : 131,43,164
Combo3 : 170,85,85
Combo4 : 55,255,55

[HitObjects]
150,93,127,6,0,L|157:237,1,135,4|8,0:0|0:0,0:0:0:0:
168,255,672,2,0,P|211:245|255:254,1,90,0|8,0:0|0:0,0:0:0:0:
362,93,1217,6,0,L|355:237,1,135,0|8,0:0|0:0,0:0:0:0:
343,255,1763,2,0,P|299:245|255:254,1,90,0|8,0:0|0:0,0:0:0:0:
256,119,2308,6,0,L|256:268,1,135,0|8,0:0|0:0,0:0:0:0:
256,344,2854,2,0,L|256:254,1,90,0|8,0:0|0:0,0:0:0:0:
194,61,3399,6,0,P|255:36|327:77,1,135,0|8,0:0|0:0,0:0:0:0:
255,120,3945,1,0,0:0:0:0:
255,120,4217,1,2,0:0:0:0:
494,229,4490,6,0,L|360:229,1,135,4|8,0:0|0:0,0:0:0:0:
299,275,5036,2,0,P|308:230|297:187,1,90,0|8,0:0|0:0,0:0:0:0:
18,229,5581,6,0,L|152:229,1,135,0|8,0:0|0:0,0:0:0:0:
213,275,6127,2,0,P|204:230|215:187,1,90,0|8,0:0|0:0,0:0:0:0:
256,39,6672,6,0,L|398:48,1,135,0|8,0:0|0:0,0:0:0:0:
366,75,7217,2,0,P|356:117|370:168,1,90,0|8,0:0|0:0,0:0:0:0:
256,39,7763,6,0,L|114:48,1,135,0|8,0:0|0:0,0:0:0:0:
64,103,8308,1,0,0:0:0:0:
28,175,8445,2,0,P|25:201|26:211,2,22.5,0|0|8,0:0|0:0|0:0,0:0:0:0:
64,103,8717,1,0,0:0:0:0:
121,47,8854,6,0,L|256:39,1,135,4|0,0:0|0:0,0:0:0:0:
189,125,9399,2,0,L|86:132,1,90,8|0,0:0|0:0,0:0:0:0:
391,47,9945,6,0,L|256:39,1,135,0|0,0:0|0:0,0:0:0:0:
323,125,10490,2,0,L|426:132,1,90,8|0,0:0|0:0,0:0:0:0:
372,250,11036,6,0,P|373:184|413:131,1,135,0|2,0:0|0:0,0:0:0:0:
465,216,11581,1,8,0:0:0:0:
256,110,11854,1,2,0:0:0:0:
139,250,12127,6,0,P|138:184|99:131,1,135,0|2,0:0|0:0,0:0:0:0:
47,216,12672,1,8,0:0:0:0:
256,110,12945,1,2,0:0:0:0:
139,250,13217,6,0,L|139:69,1,180,12|8,0:0|0:0,0:0:0:0:
373,250,14308,2,0,L|373:69,1,180,8|8,0:0|0:0,0:0:0:0:
256,288,15399,5,8,0:0:0:0:
256,96,15672,1,10,0:0:0:0:
256,272,15945,1,8,0:0:0:0:
256,112,16217,1,10,0:0:0:0:
256,256,16490,5,10,0:0:0:0:
256,128,16627,1,10,0:0:0:0:
256,240,16763,1,8,0:0:0:0:
256,144,16899,1,10,0:0:0:0:
256,192,17036,6,0,B|212:192|212:192|188:180|188:180|164:192|164:192|140:180|140:180|112:192|112:192|60:192,1,196.875,0|0,0:0|0:0,0:0:0:0:
70,192,17581,6,0,P|70:259|129:309,1,148.50000453186,4|0,0:0|0:0,0:0:0:0:
185,362,18127,2,0,P|185:309|205:267,1,99.0000030212403,8|2,0:0|0:0,0:0:0:0:
327,362,18672,2,0,P|327:309|307:267,1,99.0000030212403,0|2,0:0|0:0,0:0:0:0:
256,148,19217,1,8,0:0:0:0:
256,148,19490,1,0,0:0:0:0:
256,332,19763,6,0,L|407:326,1,148.50000453186,2|0,0:0|0:0,0:0:0:0:
474,368,20308,2,0,P|459:322|470:269,1,99.0000030212403,8|2,0:0|0:0,0:0:0:0:
364,97,20854,2,0,P|372:145|357:191,1,99.0000030212403,0|2,0:0|0:0,0:0:0:0:
290,140,21263,1,0,0:0:0:0:
364,97,21399,2,0,L|413:102,1,49.5000015106202,8|0,0:0|0:0,0:0:0:0:
406,197,21672,2,0,L|347:191,1,49.5000015106202,2|0,0:0|0:0,0:0:0:0:
192,54,21945,6,0,L|170:211,1,148.50000453186,4|0,0:0|0:0,0:0:0:0:
53,224,22490,2,0,L|69:119,1,99.0000030212403,8|2,0:0|0:0,0:0:0:0:
290,140,23036,2,0,L|274:245,1,99.0000030212403,0|2,0:0|0:0,0:0:0:0:
192,54,23581,1,8,0:0:0:0:
192,54,23854,1,0,0:0:0:0:
171,201,24127,6,0,P|231:233|313:193,1,148.50000453186,2|0,0:0|0:0,0:0:0:0:
273,62,24672,2,0,P|244:101|240:150,1,99.0000030212403,8|2,0:0|0:0,0:0:0:0:
322,132,25081,1,0,0:0:0:0:
274,62,25217,2,0,L|157:68,1,99.0000030212403,0|2,0:0|0:0,0:0:0:0:
92,107,25627,1,0,0:0:0:0:
168,152,25763,2,0,L|162:219,1,49.5000015106202,8|0,0:0|0:0,0:0:0:0:
88,157,26036,2,0,L|94:90,1,49.5000015106202,2|0,0:0|0:0,0:0:0:0:
222,261,26308,6,0,P|148:285|87:239,1,148.50000453186,4|0,0:0|0:0,0:0:0:0:
163,202,26854,2,0,P|204:179|263:190,1,99.0000030212403,8|2,0:0|0:0,0:0:0:0:
425,315,27399,2,0,P|384:338|325:327,1,99.0000030212403,0|2,0:0|0:0,0:0:0:0:
358,158,27945,2,0,L|366:257,1,99.0000030212403,8|2,0:0|0:0,0:0:0:0:
425,315,28354,1,0,0:0:0:0:
334,332,28490,6,0,L|216:339,1,99.0000030212403,2|0,0:0|0:0,0:0:0:0:
366,257,28899,2,0,L|248:264,1,99.0000030212403,0|0,0:0|0:0,0:0:0:0:
398,182,29308,2,0,L|328:186,1,49.5000015106202,2|0,0:0|0:0,0:0:0:0:
430,107,29581,2,0,L|312:114,1,99.0000030212403,0|2,0:0|0:0,0:0:0:0:
256,59,29990,1,0,0:0:0:0:
180,112,30127,2,0,L|130:109,1,49.5000015106202,8|0,0:0|0:0,0:0:0:0:
49,68,30399,2,0,L|98:70,1,49.5000015106202,2|0,0:0|0:0,0:0:0:0:
256,59,30672,6,0,L|256:222,1,148.50000453186,4|0,0:0|0:0,0:0:0:0:
205,290,31217,2,0,P|157:292|118:322,1,99.0000030212403,8|2,0:0|0:0,0:0:0:0:
306,290,31763,2,0,P|354:292|394:322,1,99.0000030212403,0|2,0:0|0:0,0:0:0:0:
256,59,32308,2,0,L|256:119,1,49.5000015106202,8|0,0:0|0:0,0:0:0:0:
256,233,32581,2,0,L|256:173,1,49.5000015106202,0|0,0:0|0:0,0:0:0:0:
256,35,32854,5,2,0:0:0:0:
256,59,32990,2,0,B|303:59|303:59|313:62|313:62|355:62,1,99.0000030212403,8|8,0:0|0:0,0:0:0:0:
444,62,33399,2,0,P|440:91|440:121,1,49.5000015106202,8|8,0:0|0:0,0:0:0:0:
487,186,33672,2,0,P|486:210|482:235,1,49.5000015106202,2|8,0:0|0:0,0:0:0:0:
439,314,33945,6,0,L|390:322,1,49.5000015106202,0|2,0:0|0:0,0:0:0:0:
316,321,34217,2,0,L|267:313,1,49.5000015106202,2|0,0:0|0:0,0:0:0:0:
192,313,34490,2,0,L|143:321,1,49.5000015106202,8|0,0:0|0:0,0:0:0:0:
69,320,34762,2,0,L|20:312,1,49.5000015106202,2|0,0:0|0:0,0:0:0:0:
120,148,35036,6,0,L|104:272,1,107.999996704102,4|2,0:0|0:0,0:0:0:0:
69,320,35445,1,0,0:0:0:0:
143,321,35581,2,0,L|199:313,1,53.9999983520508,8|0,0:0|0:0,0:0:0:0:
280,300,35854,1,2,0:0:0:0:
280,300,35990,1,2,0:0:0:0:
223,241,36127,2,0,P|223:183|247:130,2,107.999996704102,0|2|8,0:0|0:0|0:0,0:0:0:0:
372,212,36945,1,2,0:0:0:0:
246,142,37217,5,2,0:0:0:0:
246,142,37354,2,0,L|139:152,1,107.999996704102,0|0,0:0|0:0,0:0:0:0:
54,165,37763,1,8,0:0:0:0:
54,165,37899,1,0,0:0:0:0:
138,98,38036,2,0,L|138:152,1,53.9999983520508,2|0,0:0|0:0,0:0:0:0:
62,62,38308,2,0,P|91:28|167:20,1,107.999996704102,0|2,0:0|0:0,0:0:0:0:
230,48,38717,1,0,0:0:0:0:
303,94,38854,2,0,L|359:83,1,53.9999983520508,8|0,0:0|0:0,0:0:0:0:
439,61,39127,1,2,0:0:0:0:
326,195,39399,6,0,P|303:151|303:92,1,107.999996704102,4|2,0:0|0:0,0:0:0:0:
410,122,39808,1,0,0:0:0:0:
326,195,39945,2,0,L|258:208,1,53.9999983520508,8|0,0:0|0:0,0:0:0:0:
249,104,40217,2,0,L|303:94,1,53.9999983520508,2|2,0:0|0:0,0:0:0:0:
410,122,40490,1,0,0:0:0:0:
326,195,40627,1,0,0:0:0:0:
423,139,40763,1,2,0:0:0:0:
339,212,40900,1,0,0:0:0:0:
435,155,41036,2,0,P|451:207|440:259,1,107.999996704102,8|2,0:0|0:0,0:0:0:0:
440,258,41581,6,0,L|502:296,1,53.9999983520508,2|0,0:0|0:0,0:0:0:0:
423,354,41854,1,8,0:0:0:0:
423,354,41990,1,8,0:0:0:0:
441,259,42127,2,0,P|441:226|450:195,1,53.9999983520508,8|0,0:0|0:0,0:0:0:0:
355,111,42399,2,0,P|355:144|346:175,1,53.9999983520508,2|0,0:0|0:0,0:0:0:0:
292,243,42672,1,0,0:0:0:0:
248,155,42808,2,0,P|300:144|350:164,1,107.999996704102,2|0,0:0|0:0,0:0:0:0:
292,243,43217,2,0,L|223:251,1,53.9999983520508,8|0,0:0|0:0,0:0:0:0:
248,155,43490,2,0,L|194:148,1,53.9999983520508,2|0,0:0|0:0,0:0:0:0:
350,164,43763,6,0,P|364:218|377:271,1,107.999996704102,4|2,0:0|0:0,0:0:0:0:
434,189,44172,1,0,0:0:0:0:
292,243,44308,2,0,L|223:251,1,53.9999983520508,8|0,0:0|0:0,0:0:0:0:
248,155,44581,2,0,L|194:148,1,53.9999983520508,2|0,0:0|0:0,0:0:0:0:
136,87,44854,2,0,P|148:134|121:189,1,107.999996704102,0|2,0:0|0:0,0:0:0:0:
65,129,45263,1,2,0:0:0:0:
136,87,45399,1,8,0:0:0:0:
222,254,45672,1,2,0:0:0:0:
222,254,45945,6,0,L|290:243,1,53.9999983520508,2|0,0:0|0:0,0:0:0:0:
293,142,46217,2,0,L|225:153,1,53.9999983520508,0|0,0:0|0:0,0:0:0:0:
207,275,46490,2,0,L|275:264,1,53.9999983520508,8|0,0:0|0:0,0:0:0:0:
313,111,46762,2,0,L|245:122,1,53.9999983520508,2|0,0:0|0:0,0:0:0:0:
352,38,47036,2,0,P|384:68|393:134,1,107.999996704102,0|2,0:0|0:0,0:0:0:0:
313,111,47445,1,2,0:0:0:0:
352,38,47581,1,8,0:0:0:0:
313,273,47854,1,2,0:0:0:0:
313,273,48127,6,0,L|205:283,1,107.999996704102,4|2,0:0|0:0,0:0:0:0:
115,246,48536,1,0,0:0:0:0:
188,181,48672,2,0,P|211:229|206:283,1,107.999996704102,8|2,0:0|0:0,0:0:0:0:
115,246,49081,1,2,0:0:0:0:
188,181,49217,2,0,L|250:183,1,53.9999983520508,0|0,0:0|0:0,0:0:0:0:
115,246,49490,2,0,L|53:244,1,53.9999983520508,2|0,0:0|0:0,0:0:0:0:
188,181,49763,2,0,P|211:229|206:283,1,107.999996704102,8|2,0:0|0:0,0:0:0:0:
206,283,50308,5,2,0:0:0:0:
188,181,50445,2,0,P|243:179|290:130,1,107.999996704102,0|0,0:0|0:0,0:0:0:0:
185,54,50854,2,0,L|211:100,1,53.9999983520508,8|0,0:0|0:0,0:0:0:0:
161,227,51127,2,0,L|188:181,1,53.9999983520508,2|0,0:0|0:0,0:0:0:0:
104,101,51399,2,0,L|212:101,1,107.999996704102,0|2,0:0|0:0,0:0:0:0:
246,88,51763,1,0,0:0:0:0:
279,74,51854,1,0,0:0:0:0:
312,61,51945,2,0,L|309:134,1,53.9999983520508,8|0,0:0|0:0,0:0:0:0:
408,203,52217,2,0,L|335:200,1,53.9999983520508,2|0,0:0|0:0,0:0:0:0:
125,207,52490,6,0,P|186:207|250:295,1,161.999995056153,4|2,0:0|0:0,0:0:0:0:
154,299,53036,2,0,L|89:295,1,53.9999983520508,8|0,0:0|0:0,0:0:0:0:
32,231,53308,1,2,0:0:0:0:
32,231,53445,1,2,0:0:0:0:
125,207,53581,2,0,L|121:135,1,53.9999983520508,0|2,0:0|0:0,0:0:0:0:
21,89,53854,2,0,L|25:161,1,53.9999983520508,2|0,0:0|0:0,0:0:0:0:
114,60,54127,2,0,L|110:-12,1,53.9999983520508,8|0,0:0|0:0,0:0:0:0:
199,162,54399,1,2,0:0:0:0:
284,73,54536,1,2,0:0:0:0:
284,73,54672,6,0,B|337:73|337:73|406:56,1,107.999996704102,0|0,0:0|0:0,0:0:0:0:
475,38,55081,1,2,0:0:0:0:
475,38,55217,2,0,P|466:74|466:107,1,53.9999983520508,8|0,0:0|0:0,0:0:0:0:
472,188,55490,2,0,L|406:183,1,53.9999983520508,2|0,0:0|0:0,0:0:0:0:
346,250,55763,2,0,L|280:255,1,53.9999983520508,2|2,0:0|0:0,0:0:0:0:
220,188,56036,2,0,L|166:183,1,53.9999983520508,0|0,0:0|0:0,0:0:0:0:
94,250,56308,2,0,L|28:255,1,53.9999983520508,10|0,0:0|0:0,0:0:0:0:
57,155,56581,1,2,0:0:0:0:
98,254,56717,1,2,0:0:0:0:
98,254,56854,6,0,P|154:249|225:253,1,107.999996704102,4|0,0:0|0:0,0:0:0:0:
304,261,57263,1,2,0:0:0:0:
205,251,57399,2,0,P|205:213|211:182,1,53.9999983520508,8|0,0:0|0:0,0:0:0:0:
219,58,57672,1,2,0:0:0:0:
219,58,57808,1,2,0:0:0:0:
357,118,57945,2,0,L|303:123,1,53.9999983520508,0|2,0:0|0:0,0:0:0:0:
357,266,58217,2,0,L|303:260,1,53.9999983520508,2|0,0:0|0:0,0:0:0:0:
463,192,58490,2,0,L|400:192,1,53.9999983520508,8|0,0:0|0:0,0:0:0:0:
244,196,58763,1,2,0:0:0:0:
357,266,58899,1,2,0:0:0:0:
357,266,59036,6,0,P|323:307|268:323,1,107.999996704102,0|0,0:0|0:0,0:0:0:0:
186,348,59445,1,2,0:0:0:0:
186,348,59581,2,0,P|182:315|191:276,1,53.9999983520508,8|0,0:0|0:0,0:0:0:0:
190,197,59854,2,0,L|244:196,1,53.9999983520508,2|0,0:0|0:0,0:0:0:0:
141,110,60127,2,0,L|194:108,1,53.9999983520508,2|2,0:0|0:0,0:0:0:0:
100,202,60399,2,0,L|153:200,1,53.9999983520508,0|0,0:0|0:0,0:0:0:0:
50,114,60672,2,0,L|103:112,1,53.9999983520508,10|0,0:0|0:0,0:0:0:0:
241,107,60945,1,2,0:0:0:0:
163,29,61081,1,2,0:0:0:0:
100,202,61217,6,0,P|112:248|166:291,1,107.999996704102,4|0,0:0|0:0,0:0:0:0:
247,324,61627,1,0,0:0:0:0:
247,324,61763,2,0,P|244:289|250:261,1,53.9999983520508,8|0,0:0|0:0,0:0:0:0:
258,144,62036,1,0,0:0:0:0:
258,144,62172,1,2,0:0:0:0:
328,296,62308,2,0,L|396:291,1,53.9999983520508,0|0,0:0|0:0,0:0:0:0:
311,140,62581,2,0,L|258:144,1,53.9999983520508,2|0,0:0|0:0,0:0:0:0:
385,181,62854,2,0,P|394:128|364:74,1,107.999996704102,8|2,0:0|0:0,0:0:0:0:
312,140,63263,1,2,0:0:0:0:
385,214,63399,6,0,L|498:206,1,107.999996704102,4|0,0:0|0:0,0:0:0:0:
316,144,63808,1,0,0:0:0:0:
315,144,63945,2,0,L|261:147,1,53.9999983520508,8|0,0:0|0:0,0:0:0:0:
280,283,64217,2,0,P|291:248|291:213,1,53.9999983520508,0|0,0:0|0:0,0:0:0:0:
176,98,64490,2,0,P|165:133|165:168,1,53.9999983520508,2|0,0:0|0:0,0:0:0:0:
267,335,64763,2,0,P|278:300|278:265,1,53.9999983520508,0|2,0:0|0:0,0:0:0:0:
163,150,65036,2,0,P|152:185|152:220,1,53.9999983520508,8|0,0:0|0:0,0:0:0:0:
315,144,65308,1,2,0:0:0:0:
236,196,65445,1,2,0:0:0:0:
394,92,65581,6,0,L|393:239,1,135.000005149842,12|2,0:0|0:0,0:0:0:0:
316,297,65990,1,0,0:0:0:0:
248,141,66127,2,0,L|332:145,1,67.5000025749208,8|0,0:0|0:0,0:0:0:0:
316,297,66399,2,0,L|232:293,1,67.5000025749208,2|0,0:0|0:0,0:0:0:0:
160,217,66672,5,12,0:0:0:0:
248,141,66808,1,0,0:0:0:0:
249,294,66945,1,2,0:0:0:0:
67,294,67081,1,0,0:0:0:0:
68,141,67218,1,8,0:0:0:0:
160,217,67354,1,0,0:0:0:0:
161,64,67490,1,2,0:0:0:0:
68,141,67627,1,0,0:0:0:0:
248,141,67763,6,0,L|332:145,1,67.5000025749208,12|0,0:0|0:0,0:0:0:0:
316,297,68036,2,0,L|232:293,1,67.5000025749208,8|0,0:0|0:0,0:0:0:0:
160,217,68308,1,12,0:0:0:0:
160,217,68445,1,0,0:0:0:0:
239,75,68581,2,0,P|249:107|248:141,1,67.5000025749208,8|0,0:0|0:0,0:0:0:0:
222,292,68854,5,12,0:0:0:0:
166,117,68990,1,8,0:0:0:0:
295,250,69127,1,12,0:0:0:0:
239,75,69263,1,8,0:0:0:0:
403,143,69399,6,0,B|365:143|340:158|340:158|343:179|343:179|323:189|323:189|326:210|326:210|307:220|307:220|308:242|308:242|292:253,1,188.999994232178,0|0,0:0|0:0,0:0:0:0:
332,318,69945,6,0,P|300:226|200:281,1,229.500004377365,4|0,0:1|0:0,0:0:0:0:
413,360,70490,2,0,L|392:273,1,90,8|0,0:0|0:0,0:0:0:0:
306,93,70763,2,0,L|285:180,1,90,2|0,0:0|0:0,0:0:0:0:
389,42,71036,2,0,P|306:95|180:77,1,229.500004377365,8|2,0:0|0:0,0:0:0:0:
11,136,71581,2,0,P|50:135|101:158,1,90,8|0,0:0|0:0,0:0:0:0:
173,328,71854,1,2,0:0:0:0:
92,257,71990,1,0,0:0:0:0:
278,340,72127,6,0,B|369:354|369:354|355:273|375:217,1,229.500004377365,8|0,0:0|0:0,0:0:0:0:
433,63,72672,1,8,0:0:0:0:
467,165,72808,1,0,0:0:0:0:
292,119,72945,1,2,0:0:0:0:
326,17,73081,1,0,0:0:0:0:
266,147,73217,2,0,L|190:155,1,72,8|0,0:0|0:0,0:0:0:0:
397,82,73490,2,0,P|437:82|473:90,1,62.9999980773926,2|2,0:0|0:0,0:0:0:0:
316,22,73763,6,0,L|347:218,1,188.999994232178,4|0,0:2|0:0,0:0:0:0:
324,282,74308,6,0,B|299:124|299:124|286:159|260:181,1,229.500004377365,4|0,0:1|0:0,0:0:0:0:
188,15,74854,2,0,P|207:55|210:100,1,90,8|0,0:0|0:0,0:0:0:0:
176,328,75127,2,0,P|179:283|198:242,1,90,2|0,0:0|0:0,0:0:0:0:
440,278,75399,2,0,B|257:300|257:300|265:277|280:262,1,229.500004377365,8|2,0:0|0:0,0:0:0:0:
447,171,75945,2,0,L|350:183,1,90,8|0,0:0|0:0,0:0:0:0:
178,81,76217,1,2,0:0:0:0:
282,108,76353,1,0,0:0:0:0:
100,9,76490,6,0,P|70:93|159:188,1,229.500004377365,8|0,0:0|0:0,0:0:0:0:
372,161,77036,1,8,0:0:0:0:
284,224,77172,1,0,0:0:0:0:
400,323,77308,1,2,0:0:0:0:
488,260,77444,1,0,0:0:0:0:
265,240,77581,2,0,P|256:270|256:312,1,72,8|0,0:0|0:0,0:0:0:0:
397,148,77854,2,0,P|397:112|388:73,1,62.9999980773926,2|2,0:0|0:0,0:0:0:0:
271,147,78127,5,8,0:0:0:0:
369,247,78263,1,8,0:0:0:0:
243,142,78399,1,2,0:0:0:0:
396,245,78536,1,2,0:0:0:0:
220,153,78672,6,0,B|126:183|80:262|80:262|134:289,1,229.500004377365,4|0,0:1|0:0,0:0:0:0:
319,291,79217,2,0,P|290:258|251:235,1,90,8|0,0:0|0:0,0:0:0:0:
441,321,79490,2,0,P|443:276|432:232,1,90,2|0,0:0|0:0,0:0:0:0:
338,61,79763,1,8,0:0:0:0:
348,160,79899,1,0,0:0:0:0:
179,259,80036,1,2,0:0:0:0:
278,249,80172,1,2,0:0:0:0:
123,323,80308,2,0,L|37:335,1,67.5000025749208,8|0,0:0|0:0,0:0:0:0:
223,186,80581,6,0,P|236:130|208:46,1,135,2|0,0:0|0:0,0:0:0:0:
121,189,80854,6,0,B|275:162|275:162|313:155|348:160,1,229.500004377365,4|0,0:1|0:0,0:0:0:0:
467,293,81399,2,0,P|429:296|371:284,1,90,8|0,0:0|0:0,0:0:0:0:
179,259,81672,2,0,L|281:240,1,90,2|0,0:0|0:0,0:0:0:0:
441,115,81945,1,8,0:0:0:0:
428,213,82081,1,0,0:0:0:0:
305,53,82217,1,2,0:0:0:0:
318,151,82353,1,2,0:0:0:0:
144,72,82490,2,0,P|176:60|209:55,1,67.5000025749208,4|0,0:2|0:0,0:0:0:0:
81,236,82763,6,0,B|69:135|69:135|102:139,1,135,2|0,0:0|0:0,0:0:0:0:
216,255,83036,6,0,P|149:179|234:124,1,229.500004377365,4|0,0:1|0:0,0:0:0:0:
394,206,83581,2,0,L|304:199,1,90,8|0,0:0|0:0,0:0:0:0:
175,338,83854,2,0,L|265:331,1,90,2|0,0:0|0:0,0:0:0:0:
470,266,84127,1,8,0:0:0:0:
480,167,84263,1,0,0:0:0:0:
304,200,84399,1,2,0:0:0:0:
314,101,84535,1,2,0:0:0:0:
341,269,84672,2,0,P|308:276|268:270,1,67.5000025749208,8|0,0:0|0:0,0:0:0:0:
175,58,84945,6,0,P|241:55|301:84,1,135,2|0,0:0|0:0,0:0:0:0:
134,130,85217,6,0,L|102:21,1,107.999996704102,8|0,0:0|0:0,0:0:0:0:
121,209,85763,1,8,0:0:0:0:
121,209,85899,2,0,P|174:141|231:123,1,125.999996154785,2|2,0:0|0:0,0:0:0:0:
208,257,86308,6,0,P|139:295|59:289,1,161.999995056153,8|0,0:0|0:0,0:0:0:0:
215,262,86717,1,2,0:0:0:0:
215,262,86854,6,0,B|235:257|235:257|274:277|274:277|291:273,1,80.9999975280763,4|0,0:0|0:0,0:0:0:0:
379,341,87399,6,0,P|341:272|350:192,1,161.999995056153,4|2,0:2|0:0,0:0:0:0:
424,75,87808,1,0,0:0:0:0:
331,186,87945,2,0,L|248:189,1,72,8|0,0:0|0:0,0:0:0:0:
424,75,88217,2,0,L|522:81,1,85.4999977169037,2|0,0:0|0:0,0:0:0:0:
284,49,88490,1,8,0:0:0:0:
141,108,88627,1,0,0:0:0:0:
321,134,88763,2,0,P|360:146|395:166,1,80.9999975280763,2|2,0:0|0:0,0:0:0:0:
233,178,89036,2,0,P|223:138|223:98,1,80.9999975280763,8|0,0:0|0:0,0:0:0:0:
314,233,89308,2,0,P|285:261|249:281,1,80.9999975280763,2|0,0:0|0:0,0:0:0:0:
73,286,89581,6,0,P|181:297|271:349,1,216,8|0,0:0|0:0,0:0:0:0:
139,251,90127,2,0,L|149:169,1,72,8|0,0:0|0:0,0:0:0:0:
226,23,90399,2,0,L|234:112,1,90,2|0,0:0|0:0,0:0:0:0:
249,260,90672,2,0,L|241:177,1,72,8|0,0:0|0:0,0:0:0:0:
388,277,90945,2,0,P|358:287|323:288,1,62.9999980773926,2|2,0:0|0:0,0:0:0:0:
194,170,91217,6,0,P|269:144|372:195,1,188.999994232178,4|0,0:2|0:0,0:0:0:0:
443,223,91763,6,0,P|388:167|388:88,1,161.999995056153,4|2,0:2|0:0,0:0:0:0:
497,123,92172,1,0,0:0:0:0:
313,40,92308,2,0,L|227:30,1,72,8|0,0:0|0:0,0:0:0:0:
65,120,92581,2,0,L|163:109,1,85.4999977169037,2|0,0:0|0:0,0:0:0:0:
323,182,92854,1,8,0:0:0:0:
211,166,92990,1,0,0:0:0:0:
387,135,93127,2,0,P|398:173|394:213,1,80.9999975280763,2|2,0:0|0:0,0:0:0:0:
202,276,93399,2,0,P|190:237|194:197,1,80.9999975280763,8|0,0:0|0:0,0:0:0:0:
281,41,93672,2,0,P|285:80|273:119,1,80.9999975280763,2|2,0:0|0:0,0:0:0:0:
123,146,93945,6,0,L|349:175,1,216,8|0,0:0|0:0,0:0:0:0:
175,242,94490,2,0,L|246:249,1,72,8|0,0:0|0:0,0:0:0:0:
473,294,94763,2,0,P|429:304|384:305,1,90,2|0,0:0|0:0,0:0:0:0:
403,115,95036,2,0,L|412:206,1,72,8|0,0:0|0:0,0:0:0:0:
260,170,95308,2,0,P|303:159|335:159,1,62.9999980773926,2|2,0:0|0:0,0:0:0:0:
308,250,95581,1,4,0:2:0:0:
273,81,95717,1,0,0:0:0:0:
311,267,95854,1,2,0:0:0:0:
268,56,95990,1,2,0:0:0:0:
315,283,96127,6,0,P|427:293|462:186,1,242.999992584229,4|0,0:1|0:0,0:0:0:0:
329,57,96672,2,0,P|323:96|331:136,1,80.9999975280763,8|0,0:0|0:0,0:0:0:0:
222,267,96945,2,0,P|227:227|219:187,1,80.9999975280763,2|0,0:0|0:0,0:0:0:0:
69,89,97217,2,0,L|155:103,1,72,8|0,0:0|0:0,0:0:0:0:
282,178,97490,2,0,L|198:192,1,62.9999980773926,2|2,0:0|0:0,0:0:0:0:
76,275,97763,6,0,B|229:300|229:300|222:266,1,188.999994232178,8|0,0:0|0:0,0:0:0:0:
150,322,98308,6,0,B|304:347|304:347|348:329|386:276,1,242.999992584229,8|0,0:0|0:0,0:0:0:0:
469,153,98854,2,0,P|457:191|458:232,1,80.9999975280763,8|0,0:0|0:0,0:0:0:0:
385,105,99127,2,0,P|355:131|335:167,1,80.9999975280763,2|0,0:0|0:0,0:0:0:0:
335,21,99399,2,0,P|300:28|268:44,1,72,8|0,0:0|0:0,0:0:0:0:
102,68,99672,2,0,P|133:74|161:89,1,62.9999980773926,2|2,0:0|0:0,0:0:0:0:
31,219,99945,6,0,P|69:141|145:183,1,188.999994232178,4|0,0:2|0:0,0:0:0:0:
115,271,100490,6,0,B|137:77|137:77|156:97|178:99,1,242.999992584229,4|0,0:1|0:0,0:0:0:0:
379,68,101036,2,0,P|340:56|299:55,1,80.9999975280763,8|0,0:0|0:0,0:0:0:0:
423,225,101308,2,0,L|429:138,1,80.9999975280763,2|0,0:0|0:0,0:0:0:0:
267,225,101581,2,0,L|273:301,1,72,8|0,0:0|0:0,0:0:0:0:
297,147,101854,2,0,P|265:142|235:148,1,62.9999980773926,2|2,0:0|0:0,0:0:0:0:
147,229,102127,1,8,0:0:0:0:
213,73,102263,1,0,0:0:0:0:
162,255,102399,1,2,0:0:0:0:
197,41,102536,1,0,0:0:0:0:
186,267,102672,6,0,P|170:310|120:349,1,107.999996704102,8|0,0:0|0:0,0:0:0:0:
171,191,103217,1,8,0:0:0:0:
171,191,103354,2,0,B|229:252|229:252|260:214,1,125.999996154785,2|2,0:0|0:0,0:0:0:0:
333,116,103763,6,0,P|295:183|328:254,1,161.999995056153,8|0,0:0|0:0,0:0:0:0:
348,109,104172,1,2,0:0:0:0:
348,109,104308,6,0,B|212:95|212:95|213:120|228:136,1,180,4|4,0:0|0:0,0:0:0:0:
228,135,104854,6,0,L|220:254,1,107.999996704102,4|0,0:0|0:0,0:0:0:0:
393,346,105399,2,0,L|399:231,1,107.999996704102,8|2,0:0|0:0,0:0:0:0:
403,146,105808,1,2,0:0:0:0:
318,183,105945,2,0,P|288:183|255:173,1,53.9999983520508,0|0,0:0|0:0,0:0:0:0:
179,143,106217,1,2,0:0:0:0:
398,238,106490,1,8,0:0:0:0:
303,80,106763,1,0,0:0:0:0:
371,318,107036,6,0,P|426:317|473:276,1,107.999996704102,2|0,0:0|0:0,0:0:0:0:
303,80,107581,2,0,P|248:81|201:122,1,107.999996704102,8|2,0:0|0:0,0:0:0:0:
280,168,107990,1,0,0:0:0:0:
303,80,108127,2,0,L|373:89,1,53.9999983520508,0|2,0:0|0:0,0:0:0:0:
447,187,108399,2,0,L|393:180,1,53.9999983520508,2|0,0:0|0:0,0:0:0:0:
280,168,108672,1,8,0:0:0:0:
470,99,108945,1,2,0:0:0:0:
208,235,109217,6,0,P|187:198|191:126,1,107.999996704102,4|0,0:0|0:0,0:0:0:0:
187,133,109627,1,0,0:0:0:0:
334,172,109763,2,0,L|277:168,1,53.9999983520508,8|0,0:0|0:0,0:0:0:0:
164,57,110036,2,0,B|192:54|192:54|225:59,1,53.9999983520508,2|2,0:0|0:0,0:0:0:0:
412,120,110308,1,0,0:0:0:0:
412,120,110445,1,0,0:0:0:0:
334,172,110581,1,2,0:0:0:0:
490,68,110854,1,8,0:0:0:0:
218,58,111127,1,0,0:0:0:0:
449,184,111399,6,0,B|455:231|455:231|452:316,1,107.999996704102,2|0,0:0|0:0,0:0:0:0:
268,291,111945,2,0,B|265:230|265:230|271:183,1,107.999996704102,8|2,0:0|0:0,0:0:0:0:
270,34,112354,1,0,0:0:0:0:
270,34,112490,2,0,L|327:38,1,53.9999983520508,0|2,0:0|0:0,0:0:0:0:
400,125,112763,2,0,L|346:121,1,53.9999983520508,2|0,0:0|0:0,0:0:0:0:
449,184,113036,2,0,L|457:66,1,107.999996704102,8|2,0:0|0:0,0:0:0:0:
354,128,113445,1,2,0:0:0:0:
354,128,113513,1,0,0:0:0:0:
354,128,113581,6,0,L|354:260,1,125.999996154785,4|2,0:0|0:0,0:0:0:0:
433,319,113990,1,0,0:0:0:0:
305,192,114127,2,0,P|249:192|193:237,1,125.999996154785,8|2,0:0|0:0,0:0:0:0:
277,286,114536,1,2,0:0:0:0:
305,192,114672,2,0,L|299:125,1,62.9999980773926,2|0,0:0|0:0,0:0:0:0:
190,171,114945,2,0,L|196:238,1,62.9999980773926,0|0,0:0|0:0,0:0:0:0:
274,348,115217,1,8,0:0:0:0:
274,348,115490,2,0,L|277:286,1,62.9999980773926,2|0,0:0|0:0,0:0:0:0:
406,316,115763,6,0,L|396:180,1,125.999996154785,0|2,0:0|0:0,0:0:0:0:
387,94,116172,1,0,0:0:0:0:
313,212,116308,2,0,L|319:283,1,62.9999980773926,8|0,0:0|0:0,0:0:0:0:
489,294,116581,2,0,L|483:231,1,62.9999980773926,2|2,0:0|0:0,0:0:0:0:
387,94,116854,2,0,P|328:119|257:97,1,125.999996154785,2|0,0:0|0:0,0:0:0:0:
185,53,117263,1,0,0:0:0:0:
321,22,117399,1,8,0:0:0:0:
321,22,117672,2,0,L|398:18,1,62.9999980773926,2|0,0:0|0:0,0:0:0:0:
465,115,117945,6,0,P|465:82|480:43,1,62.9999980773926,6|0,0:0|0:0,0:0:0:0:
335,165,118217,2,0,P|335:198|320:237,1,62.9999980773926,2|0,0:0|0:0,0:0:0:0:
297,326,118490,1,2,0:0:0:0:
335,62,118763,1,2,0:0:0:0:
335,62,118899,1,0,0:0:0:0:
335,62,119036,6,0,L|255:70,1,62.9999980773926,10|0,0:0|0:0,0:0:0:0:
142,172,119308,2,0,L|204:178,1,62.9999980773926,2|0,0:0|0:0,0:0:0:0:
327,198,119581,1,2,0:0:0:0:
19,152,119854,1,2,0:0:0:0:
19,152,119990,1,0,0:0:0:0:
19,152,120127,6,0,P|28:220|33:281,2,125.999996154785,2|0|2,0:0|0:0|0:0,0:0:0:0:
68,70,120808,1,0,0:0:0:0:
125,144,120945,2,0,P|159:144|190:132,1,62.9999980773926,0|0,0:0|0:0,0:0:0:0:
236,65,121217,2,0,L|253:189,1,125.999996154785,2|2,0:0|0:0,0:0:0:0:
270,222,121581,1,0,0:0:0:0:
289,253,121672,1,0,0:0:0:0:
306,284,121763,2,0,L|229:291,1,62.9999980773926,2|8,0:0|0:0,0:0:0:0:
296,116,122036,2,0,L|373:123,1,62.9999980773926,2|8,0:0|0:0,0:0:0:0:
254,190,122308,6,0,L|230:27,1,161.999995056153,4|2,0:0|0:0,0:0:0:0:
143,131,122854,2,0,P|176:133|211:125,1,53.9999983520508,8|0,0:0|0:0,0:0:0:0:
75,68,123127,1,2,0:0:0:0:
75,68,123263,1,2,0:0:0:0:
12,136,123399,2,0,P|10:169|18:204,1,53.9999983520508,0|2,0:0|0:0,0:0:0:0:
101,308,123672,2,0,P|103:275|95:240,1,53.9999983520508,2|0,0:0|0:0,0:0:0:0:
190,136,123945,2,0,P|192:169|184:204,1,53.9999983520508,8|0,0:0|0:0,0:0:0:0:
101,161,124217,1,2,0:0:0:0:
191,275,124354,1,2,0:0:0:0:
191,275,124490,6,0,B|226:268|226:268|304:275,1,107.999996704102,0|0,0:0|0:0,0:0:0:0:
396,287,124899,1,2,0:0:0:0:
396,287,125035,2,0,P|398:260|405:234,1,53.9999983520508,8|0,0:0|0:0,0:0:0:0:
473,153,125308,2,0,L|407:148,1,53.9999983520508,2|0,0:0|0:0,0:0:0:0:
348,89,125581,2,0,L|282:94,1,53.9999983520508,2|2,0:0|0:0,0:0:0:0:
223,153,125854,2,0,L|157:148,1,53.9999983520508,0|0,0:0|0:0,0:0:0:0:
98,89,126127,2,0,L|32:94,1,53.9999983520508,10|0,0:0|0:0,0:0:0:0:
198,41,126399,1,2,0:0:0:0:
227,157,126535,1,2,0:0:0:0:
227,157,126672,6,0,P|283:162|343:156,1,107.999996704102,4|0,0:0|0:0,0:0:0:0:
433,143,127081,1,2,0:0:0:0:
337,104,127217,2,0,P|333:130|334:157,1,53.9999983520508,8|0,0:0|0:0,0:0:0:0:
370,275,127490,1,2,0:0:0:0:
370,275,127626,1,2,0:0:0:0:
272,239,127763,2,0,L|218:244,1,53.9999983520508,0|2,0:0|0:0,0:0:0:0:
370,275,128035,2,0,L|316:269,1,53.9999983520508,2|0,0:0|0:0,0:0:0:0:
464,234,128308,2,0,L|410:240,1,53.9999983520508,8|0,0:0|0:0,0:0:0:0:
218,244,128581,1,2,0:0:0:0:
277,122,128717,1,2,0:0:0:0:
277,122,128854,6,0,P|277:63|250:20,1,107.999996704102,0|0,0:0|0:0,0:0:0:0:
200,93,129263,1,2,0:0:0:0:
200,93,129399,2,0,P|196:126|205:165,1,53.9999983520508,8|0,0:0|0:0,0:0:0:0:
218,244,129672,2,0,L|272:243,1,53.9999983520508,2|0,0:0|0:0,0:0:0:0:
145,149,129945,2,0,L|198:147,1,53.9999983520508,2|2,0:0|0:0,0:0:0:0:
326,244,130217,2,0,L|272:243,1,53.9999983520508,0|0,0:0|0:0,0:0:0:0:
399,149,130490,2,0,L|346:147,1,53.9999983520508,10|0,0:0|0:0,0:0:0:0:
272,243,130763,1,2,0:0:0:0:
399,149,130899,1,2,0:0:0:0:
145,149,131035,6,0,P|132:204|150:271,1,107.999996704102,4|0,0:0|0:0,0:0:0:0:
165,340,131445,1,0,0:0:0:0:
165,340,131581,2,0,P|191:343|218:340,1,53.9999983520508,8|0,0:0|0:0,0:0:0:0:
228,206,131854,1,0,0:0:0:0:
228,206,131990,1,2,0:0:0:0:
76,277,132126,2,0,L|80:330,1,53.9999983520508,0|0,0:0|0:0,0:0:0:0:
231,259,132399,2,0,L|228:206,1,53.9999983520508,2|0,0:0|0:0,0:0:0:0:
187,332,132672,2,0,P|238:343|287:323,1,107.999996704102,8|2,0:0|0:0,0:0:0:0:
404,256,133081,1,2,0:0:0:0:
225,152,133217,6,0,L|232:260,1,107.999996704102,4|0,0:0|0:0,0:0:0:0:
408,260,133626,1,0,0:0:0:0:
408,259,133763,2,0,L|404:203,1,53.9999983520508,8|0,0:0|0:0,0:0:0:0:
225,152,134036,2,0,L|279:149,1,53.9999983520508,0|0,0:0|0:0,0:0:0:0:
410,55,134308,2,0,L|356:58,1,53.9999983520508,2|0,0:0|0:0,0:0:0:0:
171,155,134581,2,0,L|225:152,1,53.9999983520508,0|2,0:0|0:0,0:0:0:0:
356,58,134853,2,0,L|302:61,1,53.9999983520508,8|0,0:0|0:0,0:0:0:0:
184,67,135127,1,2,0:0:0:0:
302,61,135263,1,2,0:0:0:0:
66,73,135399,6,0,P|41:132|71:205,1,135.000005149842,12|2,0:0|0:0,0:0:0:0:
148,347,135808,1,0,0:0:0:0:
206,134,135945,2,0,L|139:138,1,67.5000025749208,8|0,0:0|0:0,0:0:0:0:
248,249,136217,2,0,L|315:245,1,67.5000025749208,2|0,0:0|0:0,0:0:0:0:
429,152,136490,5,12,0:0:0:0:
282,169,136627,1,0,0:0:0:0:
462,227,136763,1,2,0:0:0:0:
315,244,136900,1,0,0:0:0:0:
495,302,137036,1,8,0:0:0:0:
348,319,137173,1,0,0:0:0:0:
429,152,137308,1,2,0:0:0:0:
282,169,137445,1,0,0:0:0:0:
429,152,137581,6,0,P|428:117|408:77,1,67.5000025749208,12|0,0:0|0:0,0:0:0:0:
217,182,137854,2,0,P|252:181|292:161,1,67.5000025749208,8|0,0:0|0:0,0:0:0:0:
302,17,138127,1,12,0:0:0:0:
234,99,138263,1,0,0:0:0:0:
429,152,138399,2,0,P|428:187|411:228,1,67.5000025749208,8|0,0:0|0:0,0:0:0:0:
242,312,138672,5,12,0:0:0:0:
333,169,138808,1,8,0:0:0:0:
167,140,138945,1,12,0:0:0:0:
333,169,139081,1,8,0:0:0:0:
167,140,139217,6,0,B|193:135|193:135|214:153|214:153|240:147|240:147|262:165|262:165|286:158|286:158|310:176|310:176|334:169,1,188.999994232178,0|0,0:0|0:0,0:0:0:0:
397,101,139763,6,0,B|354:120|335:169|335:169|376:202|383:258|363:292,1,229.500004377365,4|0,0:1|0:0,0:0:0:0:
168,264,140308,2,0,P|211:252|256:253,1,90,8|0,0:0|0:0,0:0:0:0:
69,332,140581,2,0,P|81:289|80:244,1,90,2|0,0:0|0:0,0:0:0:0:
21,77,140854,2,0,B|30:138|81:169|81:169|137:143|154:84,1,229.500004377365,8|2,0:0|0:0,0:0:0:0:
327,132,141399,2,0,P|370:119|410:99,1,90,8|0,0:0|0:0,0:0:0:0:
232,68,141672,1,2,0:0:0:0:
275,228,141808,1,0,0:0:0:0:
170,3,141945,6,0,P|144:60|284:142,1,229.500004377365,8|0,0:0|0:0,0:0:0:0:
467,113,142490,1,8,0:0:0:0:
365,79,142626,1,0,0:0:0:0:
311,252,142763,1,2,0:0:0:0:
413,218,142899,1,0,0:0:0:0:
220,189,143036,2,0,P|205:221|201:257,1,72,8|0,0:0|0:0,0:0:0:0:
405,174,143308,2,0,P|401:142|392:112,1,62.9999980773926,2|2,0:0|0:0,0:0:0:0:
142,142,143581,6,0,L|304:238,1,188.999994232178,4|0,0:2|0:0,0:0:0:0:
286,314,144127,6,0,P|251:209|319:122,1,229.500004377365,4|0,0:1|0:0,0:0:0:0:
489,66,144672,2,0,L|386:46,1,90,8|0,0:0|0:0,0:0:0:0:
190,172,144945,2,0,L|278:154,1,90,2|0,0:0|0:0,0:0:0:0:
118,272,145217,2,0,B|190:172|190:172|172:113|116:103,1,229.500004377365,8|2,0:0|0:0,0:0:0:0:
250,238,145763,2,0,P|276:192|277:149,1,90,8|0,0:0|0:0,0:0:0:0:
170,333,146036,1,2,0:0:0:0:
325,356,146172,1,0,0:0:0:0:
77,349,146308,6,0,B|71:305|91:267|132:247|132:247|114:196|121:143,1,229.500004377365,8|0,0:0|0:0,0:0:0:0:
255,22,146854,1,8,0:0:0:0:
364,83,146990,1,0,0:0:0:0:
325,232,147127,1,2,0:0:0:0:
216,171,147263,1,0,0:0:0:0:
364,83,147399,2,0,P|377:116|377:152,1,72,8|0,0:0|0:0,0:0:0:0:
205,232,147672,2,0,P|207:200|216:170,1,62.9999980773926,2|2,0:0|0:0,0:0:0:0:
266,326,147945,5,8,0:0:0:0:
124,294,148081,1,8,0:0:0:0:
284,205,148217,1,2,0:0:0:0:
426,236,148353,1,2,0:0:0:0:
266,326,148490,6,0,B|288:173|288:173|314:209|347:217,1,229.500004377365,4|0,0:1|0:0,0:0:0:0:
480,123,149036,2,0,P|452:87|414:64,1,90,8|0,0:0|0:0,0:0:0:0:
223,164,149308,2,0,P|261:141|288:105,1,90,2|0,0:0|0:0,0:0:0:0:
111,30,149581,1,8,0:0:0:0:
18,131,149717,1,0,0:0:0:0:
153,161,149854,1,2,0:0:0:0:
111,30,149990,1,2,0:0:0:0:
76,203,150127,2,0,L|79:274,1,67.5000025749208,8|0,0:0|0:0,0:0:0:0:
223,164,150399,6,0,L|229:25,1,135,2|0,0:0|0:0,0:0:0:0:
115,145,150672,6,0,P|238:135|348:188,1,229.500004377365,4|0,0:1|0:0,0:0:0:0:
446,314,151217,2,0,P|434:271|430:227,1,90,8|0,0:0|0:0,0:0:0:0:
362,60,151490,2,0,P|357:104|345:147,1,90,2|0,0:0|0:0,0:0:0:0:
165,61,151763,1,8,0:0:0:0:
274,80,151899,1,0,0:0:0:0:
100,178,152036,1,2,0:0:0:0:
209,159,152172,1,2,0:0:0:0:
174,289,152308,2,0,P|164:256|163:223,1,67.5000025749208,4|0,0:2|0:0,0:0:0:0:
361,242,152581,6,0,B|304:253|250:244|250:244|276:276,1,135,2|0,0:0|0:0,0:0:0:0:
417,315,152854,6,0,P|358:222|392:116,1,229.500004377365,4|0,0:1|0:0,0:0:0:0:
233,33,153399,2,0,P|274:51|318:55,1,90,8|0,0:0|0:0,0:0:0:0:
135,142,153672,2,0,P|176:123|220:119,1,90,2|0,0:0|0:0,0:0:0:0:
335,223,153945,1,8,0:0:0:0:
198,211,154081,1,0,0:0:0:0:
381,157,154217,1,2,0:0:0:0:
369,294,154353,1,2,0:0:0:0:
266,168,154490,2,0,P|276:136|295:108,1,67.5000025749208,8|0,0:0|0:0,0:0:0:0:
100,296,154763,6,0,P|161:265|199:208,1,135,2|0,0:0|0:0,0:0:0:0:
34,220,155036,6,0,L|78:334,1,107.999996704102,8|0,0:0|0:0,0:0:0:0:
175,132,155581,1,8,0:0:0:0:
175,132,155717,2,0,P|113:118|52:131,1,125.999996154785,2|2,0:0|0:0,0:0:0:0:
235,47,156127,6,0,B|195:133|195:133|205:169|234:186,1,161.999995056153,8|0,0:0|0:0,0:0:0:0:
238,52,156536,1,2,0:0:0:0:
238,52,156672,6,0,P|202:36|161:36,1,80.9999975280763,4|0,0:0|0:0,0:0:0:0:
178,147,157217,6,0,L|345:132,1,161.999995056153,4|2,0:2|0:0,0:0:0:0:
466,57,157627,1,0,0:0:0:0:
426,224,157763,2,0,P|448:197|461:163,1,72,8|0,0:0|0:0,0:0:0:0:
311,245,158036,2,0,P|322:280|358:323,1,85.4999977169037,2|0,0:0|0:0,0:0:0:0:
355,140,158308,1,8,0:0:0:0:
235,161,158445,1,0,0:0:0:0:
52,76,158581,2,0,L|143:92,1,80.9999975280763,2|2,0:0|0:0,0:0:0:0:
23,222,158854,2,0,L|98:168,1,80.9999975280763,8|0,0:0|0:0,0:0:0:0:
105,346,159127,2,0,L|121:254,1,80.9999975280763,2|0,0:0|0:0,0:0:0:0:
252,318,159399,6,0,P|161:274|176:175,1,216,8|0,0:0|0:0,0:0:0:0:
298,267,159945,2,0,L|316:336,1,72,8|0,0:0|0:0,0:0:0:0:
443,151,160217,2,0,L|419:241,1,90,2|0,0:0|0:0,0:0:0:0:
327,46,160490,2,0,L|350:132,1,72,8|0,0:0|0:0,0:0:0:0:
174,68,160763,2,0,P|199:48|228:36,1,62.9999980773926,2|2,0:0|0:0,0:0:0:0:
72,51,161036,6,0,L|246:162,1,188.999994232178,4|0,0:2|0:0,0:0:0:0:
281,224,161581,6,0,P|250:195|119:192,1,161.999995056153,4|2,0:2|0:0,0:0:0:0:
37,240,161990,1,0,0:0:0:0:
209,323,162127,2,0,P|208:288|197:253,1,72,8|0,0:0|0:0,0:0:0:0:
412,284,162399,2,0,L|326:288,1,85.4999977169037,2|0,0:0|0:0,0:0:0:0:
381,101,162672,1,8,0:0:0:0:
368,205,162808,1,0,0:0:0:0:
281,91,162945,2,0,P|290:53|316:22,1,80.9999975280763,2|2,0:0|0:0,0:0:0:0:
220,152,163217,2,0,P|181:162|141:156,1,80.9999975280763,8|0,0:0|0:0,0:0:0:0:
304,173,163490,2,0,P|332:200|346:238,1,80.9999975280763,2|2,0:0|0:0,0:0:0:0:
468,286,163763,6,0,B|409:260|350:272|350:272|304:294|257:293,1,216,8|0,0:0|0:0,0:0:0:0:
117,240,164308,2,0,P|150:227|186:222,1,72,8|0,0:0|0:0,0:0:0:0:
105,364,164581,2,0,P|133:328|182:298,1,90,2|0,0:0|0:0,0:0:0:0:
19,202,164854,2,0,P|24:237|39:270,1,72,8|0,0:0|0:0,0:0:0:0:
138,123,165127,2,0,P|102:118|68:125,1,62.9999980773926,2|2,0:0|0:0,0:0:0:0:
229,135,165399,1,4,0:2:0:0:
131,35,165535,1,0,0:0:0:0:
257,140,165671,1,2,0:0:0:0:
104,37,165808,1,2,0:0:0:0:
291,136,165945,6,0,B|361:101|395:19|395:19|421:111,1,242.999992584229,4|0,0:1|0:0,0:0:0:0:
409,284,166490,2,0,L|386:201,1,80.9999975280763,8|0,0:0|0:0,0:0:0:0:
291,347,166763,2,0,L|314:264,1,80.9999975280763,2|0,0:0|0:0,0:0:0:0:
150,279,167036,2,0,P|184:288|220:291,1,72,8|0,0:0|0:0,0:0:0:0:
99,182,167308,2,0,P|63:184|35:192,1,62.9999980773926,2|2,0:0|0:0,0:0:0:0:
180,203,167581,6,0,P|122:130|128:38,1,188.999994232178,8|0,0:0|0:0,0:0:0:0:
34,70,168127,6,0,B|216:90|216:90|217:62|203:32,1,242.999992584229,8|0,0:0|0:0,0:0:0:0:
290,168,168672,2,0,P|311:135|322:96,1,80.9999975280763,8|0,0:0|0:0,0:0:0:0:
377,223,168945,2,0,B|387:261|387:261|409:295,1,80.9999975280763,2|0,0:0|0:0,0:0:0:0:
290,270,169217,2,0,L|205:257,1,72,8|0,0:0|0:0,0:0:0:0:
57,324,169490,2,0,L|141:310,1,62.9999980773926,2|2,0:0|0:0,0:0:0:0:
290,270,169763,6,0,B|175:251|175:251|183:215|213:191,1,188.999994232178,4|0,0:2|0:0,0:0:0:0:
123,143,170308,6,0,P|240:160|337:93,1,242.999992584229,4|0,0:1|0:0,0:0:0:0:
119,72,170854,2,0,L|96:149,1,80.9999975280763,8|0,0:0|0:0,0:0:0:0:
269,249,171127,2,0,L|246:171,1,80.9999975280763,2|0,0:0|0:0,0:0:0:0:
232,325,171399,2,0,P|267:330|303:326,1,72,8|0,0:0|0:0,0:0:0:0:
176,137,171672,2,0,P|170:172|175:206,1,62.9999980773926,2|2,0:0|0:0,0:0:0:0:
259,101,171945,1,8,0:0:0:0:
90,136,172081,1,0,0:0:0:0:
276,98,172218,1,2,0:0:0:0:
65,141,172354,1,0,0:0:0:0:
292,95,172490,6,0,L|411:66,1,107.999996704102,8|0,0:0|0:0,0:0:0:0:
458,187,173036,1,8,0:0:0:0:
458,187,173172,2,0,P|390:168|350:124,1,125.999996154785,2|2,0:0|0:0,0:0:0:0:
500,242,173581,6,0,P|451:222|357:266,1,161.999995056153,8|0,0:0|0:0,0:0:0:0:
261,212,173990,1,2,0:0:0:0:
261,212,174127,6,0,B|274:187|294:179|294:179|315:309,1,180,4|4,0:0|0:0,0:0:0:0:
315,310,174672,5,4,0:1:0:0:
375,145,183399,6,0,L|477:152,2,71.9999978027344,2|0|8,0:0|0:0|0:0,0:0:0:0:
315,241,183945,2,0,L|417:234,2,71.9999978027344,2|8|8,0:0|0:0|0:0,0:0:0:0:
197,241,184490,2,0,L|125:236,2,71.9999978027344,2|0|8,0:0|0:0|0:0,0:0:0:0:
137,145,185036,2,0,L|65:149,2,71.9999978027344,2|8|8,0:0|0:0|0:0,0:0:0:0:
256,48,185581,6,0,L|256:192,1,143.999995605469,2|0,0:0|0:0,0:0:0:0:
256,336,186127,2,0,L|256:192,1,143.999995605469,2|0,0:0|0:0,0:0:0:0:
436,143,186672,2,0,P|369:116|298:116,1,143.999995605469,2|0,0:0|0:0,0:0:0:0:
75,143,187217,2,0,P|142:116|213:116,1,143.999995605469,2|0,0:0|0:0,0:0:0:0:
256,192,187763,5,4,0:0:0:0:
316,64,187945,2,0,P|355:64|399:81,1,71.9999978027344,0|0,0:0|0:0,0:0:0:0:
317,283,188308,1,8,0:0:0:0:
341,151,188490,1,0,0:0:0:0:
421,233,188672,1,0,0:0:0:0:
256,192,188854,5,4,0:0:0:0:
196,64,189036,2,0,P|157:64|113:81,1,71.9999978027344,0|0,0:0|0:0,0:0:0:0:
195,283,189399,1,8,0:0:0:0:
171,151,189581,1,0,0:0:0:0:
91,233,189763,1,0,0:0:0:0:
256,192,189945,6,0,L|325:198,1,53.9999983520508,4|0,0:0|0:0,0:0:0:0:
364,33,190217,2,0,L|310:37,1,53.9999983520508,8|0,0:0|0:0,0:0:0:0:
372,309,190490,2,0,L|441:315,1,53.9999983520508,4|0,0:0|0:0,0:0:0:0:
480,150,190762,2,0,L|426:154,1,53.9999983520508,8|0,0:0|0:0,0:0:0:0:
256,192,191036,5,12,0:0:0:0:
407,231,191172,1,8,0:0:0:0:
256,192,191308,1,12,0:0:0:0:
432,79,191444,1,8,0:0:0:0:
198,62,191581,6,0,L|185:146,1,62.9999980773926,0|0,0:0|0:0,0:0:0:0:
198,62,192127,6,0,P|166:166|246:241,1,229.500004377365,4|0,0:1|0:0,0:0:0:0:
390,94,192672,2,0,L|276:75,1,90,8|0,0:0|0:0,0:0:0:0:
450,211,192945,2,0,L|361:225,1,90,2|0,0:0|0:0,0:0:0:0:
405,331,193217,2,0,L|464:108,1,229.500004377365,8|2,0:0|0:0,0:0:0:0:
254,267,193763,2,0,P|298:267|340:250,1,90,8|0,0:0|0:0,0:0:0:0:
203,148,194036,1,2,0:0:0:0:
95,192,194172,1,0,0:0:0:0:
266,58,194308,6,0,B|199:203|199:203|230:176|264:183,1,229.500004377365,8|0,0:0|0:0,0:0:0:0:
163,344,194854,1,8,0:0:0:0:
124,244,194990,1,0,0:0:0:0:
303,197,195127,1,2,0:0:0:0:
342,297,195263,1,0,0:0:0:0:
193,253,195399,2,0,P|158:255|124:244,1,72,8|0,0:0|0:0,0:0:0:0:
342,297,195672,2,0,P|312:286|281:285,1,62.9999980773926,2|2,0:0|0:0,0:0:0:0:
392,366,195945,6,0,P|377:272|382:178,1,188.999994232178,4|0,0:2|0:0,0:0:0:0:
432,121,196490,6,0,P|397:225|290:246,1,229.500004377365,4|0,0:1|0:0,0:0:0:0:
291,48,197036,2,0,B|312:90|312:90|317:132,1,90,8|0,0:0|0:0,0:0:0:0:
146,230,197308,2,0,B|171:190|171:190|205:164,1,90,2|0,0:0|0:0,0:0:0:0:
157,326,197581,2,0,B|95:176|95:176|98:100,1,229.500004377365,8|2,0:0|0:0,0:0:0:0:
266,43,198127,2,0,P|229:81|191:97,1,90,8|0,0:0|0:0,0:0:0:0:
393,157,198399,1,2,0:0:0:0:
267,147,198536,1,0,0:0:0:0:
386,243,198672,6,0,P|474:182|437:82,1,229.500004377365,8|0,0:0|0:0,0:0:0:0:
306,218,199217,1,8,0:0:0:0:
373,325,199354,1,0,0:0:0:0:
131,258,199490,1,2,0:0:0:0:
254,286,199627,1,0,0:0:0:0:
57,298,199763,2,0,P|49:262|54:227,1,72,8|0,0:0|0:0,0:0:0:0:
209,148,200036,2,0,P|213:183|207:211,1,62.9999980773926,2|2,0:0|0:0,0:0:0:0:
83,80,200308,5,8,0:0:0:0:
277,56,200445,1,8,0:0:0:0:
133,140,200581,1,2,0:0:0:0:
326,161,200717,1,2,0:0:0:0:
108,137,200854,6,0,B|3:124|3:124|46:170|45:236,1,229.500004377365,4|0,0:1|0:0,0:0:0:0:
213,303,201399,2,0,P|173:324|129:329,1,90,8|0,0:0|0:0,0:0:0:0:
296,221,201672,2,0,P|251:215|212:194,1,90,2|0,0:0|0:0,0:0:0:0:
366,124,201945,1,8,0:0:0:0:
378,261,202081,1,0,0:0:0:0:
431,70,202217,1,2,0:0:0:0:
294,82,202353,1,2,0:0:0:0:
457,209,202490,2,0,P|464:165|460:140,1,67.5000025749208,8|0,0:0|0:0,0:0:0:0:
248,187,202763,6,0,P|324:187|386:172,1,135,2|0,0:0|0:0,0:0:0:0:
212,107,203036,6,0,B|216:150|248:186|248:186|240:269|179:302,1,229.500004377365,4|0,0:1|0:0,0:0:0:0:
44,214,203581,2,0,L|153:205,1,90,8|0,0:0|0:0,0:0:0:0:
276,95,203854,2,0,L|167:86,1,90,2|0,0:0|0:0,0:0:0:0:
387,53,204127,1,8,0:0:0:0:
322,174,204263,1,0,0:0:0:0:
433,255,204399,1,2,0:0:0:0:
498,134,204535,1,2,0:0:0:0:
295,141,204672,2,0,L|279:226,1,67.5000025749208,4|0,0:2|0:0,0:0:0:0:
452,357,204945,6,0,B|433:256|433:256|475:290,1,135,2|0,0:0|0:0,0:0:0:0:
340,249,205217,6,0,P|289:244|126:307,1,229.500004377365,4|0,0:1|0:0,0:0:0:0:
57,106,205763,2,0,L|48:195,1,90,8|0,0:0|0:0,0:0:0:0:
215,236,206036,2,0,L|206:146,1,90,2|0,0:0|0:0,0:0:0:0:
111,275,206308,1,8,0:0:0:0:
271,329,206445,1,0,0:0:0:0:
116,287,206581,1,2,0:0:0:0:
275,341,206717,1,2,0:0:0:0:
122,297,206854,2,0,L|48:311,1,67.5000025749208,8|0,0:0|0:0,0:0:0:0:
275,341,207127,6,0,P|350:355|406:335,1,135,2|0,0:0|0:0,0:0:0:0:
400,180,207399,6,0,P|373:226|334:263,1,107.999996704102,8|0,0:0|0:0,0:0:0:0:
460,121,207945,1,8,0:0:0:0:
460,121,208081,2,0,L|330:133,1,125.999996154785,2|2,0:0|0:0,0:0:0:0:
218,65,208490,6,0,P|284:100|267:173,1,161.999995056153,8|0,0:0|0:0,0:0:0:0:
223,73,208899,1,2,0:0:0:0:
223,73,209036,6,0,P|183:64|149:42,1,80.9999975280763,4|0,0:0|0:0,0:0:0:0:
203,169,209581,6,0,P|245:102|355:78,1,161.999995056153,4|2,0:2|0:0,0:0:0:0:
466,67,209990,1,0,0:0:0:0:
367,227,210127,2,0,P|353:194|354:148,1,72,8|0,0:0|0:0,0:0:0:0:
446,321,210399,2,0,P|404:328|362:319,1,85.4999977169037,2|0,0:0|0:0,0:0:0:0:
177,259,210672,1,8,0:0:0:0:
281,246,210808,1,0,0:0:0:0:
91,202,210945,2,0,L|54:288,1,80.9999975280763,2|2,0:0|0:0,0:0:0:0:
188,159,211217,2,0,L|131:84,1,80.9999975280763,8|0,0:0|0:0,0:0:0:0:
326,93,211490,2,0,L|239:56,1,80.9999975280763,2|0,0:0|0:0,0:0:0:0:
449,56,211763,6,0,P|346:75|291:164,1,216,8|0,0:0|0:0,0:0:0:0:
419,250,212308,2,0,P|423:215|418:179,1,72,8|0,0:0|0:0,0:0:0:0:
219,278,212581,2,0,P|254:282|310:274,1,90,2|0,0:0|0:0,0:0:0:0:
119,276,212854,2,0,L|97:366,1,72,8|0,0:0|0:0,0:0:0:0:
173,187,213127,2,0,L|157:125,1,62.9999980773926,2|2,0:0|0:0,0:0:0:0:
281,193,213399,6,0,P|187:206|95:189,1,188.999994232178,4|0,0:2|0:0,0:0:0:0:
155,114,213945,6,0,L|189:272,1,161.999995056153,4|2,0:2|0:0,0:0:0:0:
96,363,214354,1,0,0:0:0:0:
282,309,214490,2,0,P|315:310|360:325,1,72,8|0,0:0|0:0,0:0:0:0:
498,231,214763,2,0,P|464:229|414:212,1,85.4999977169037,2|0,0:0|0:0,0:0:0:0:
437,47,215036,1,8,0:0:0:0:
470,147,215172,1,0,0:0:0:0:
286,86,215308,2,0,L|362:121,1,80.9999975280763,2|2,0:0|0:0,0:0:0:0:
197,131,215581,2,0,P|186:92|190:52,1,80.9999975280763,8|0,0:0|0:0,0:0:0:0:
117,184,215854,2,0,P|127:222|123:262,1,80.9999975280763,2|2,0:0|0:0,0:0:0:0:
63,116,216127,6,0,P|158:165|265:176,1,216,8|0,0:0|0:0,0:0:0:0:
428,85,216672,2,0,P|392:84|357:94,1,72,8|0,0:0|0:0,0:0:0:0:
410,253,216945,2,0,L|404:159,1,90,2|0,0:0|0:0,0:0:0:0:
304,325,217217,2,0,L|309:241,1,72,8|0,0:0|0:0,0:0:0:0:
151,275,217490,2,0,P|182:285|213:287,1,62.9999980773926,2|2,0:0|0:0,0:0:0:0:
162,183,217763,1,4,0:2:0:0:
59,293,217899,1,0,0:0:0:0:
145,142,218036,1,2,0:0:0:0:
42,252,218172,1,2,0:0:0:0:
133,104,218308,6,0,B|180:71|180:71|370:56,1,242.999992584229,4|0,0:1|0:0,0:0:0:0:
477,157,218854,2,0,L|382:164,1,80.9999975280763,8|0,0:0|0:0,0:0:0:0:
210,149,219127,2,0,L|304:141,1,80.9999975280763,2|0,0:0|0:0,0:0:0:0:
277,293,219399,2,0,P|261:260|258:225,1,72,8|0,0:0|0:0,0:0:0:0:
388,291,219672,2,0,P|385:322|374:351,1,62.9999980773926,2|2,0:0|0:0,0:0:0:0:
187,278,219945,6,0,P|245:208|334:224,1,188.999994232178,8|0,0:0|0:0,0:0:0:0:
388,291,220490,6,0,B|315:147|315:147|363:154|395:138,1,242.999992584229,8|0,0:0|0:0,0:0:0:0:
484,22,221036,2,0,P|443:20|404:30,1,80.9999975280763,8|0,0:0|0:0,0:0:0:0:
229,57,221308,2,0,P|268:67|308:65,1,80.9999975280763,2|0,0:0|0:0,0:0:0:0:
156,19,221581,2,0,L|143:89,1,72,8|0,0:0|0:0,0:0:0:0:
26,170,221854,2,0,L|16:100,1,62.9999980773926,2|2,0:0|0:0,0:0:0:0:
143,89,222127,6,0,L|110:276,1,188.999994232178,4|0,0:2|0:0,0:0:0:0:
157,349,222672,6,0,P|175:236|285:204,1,242.999992584229,4|0,0:1|0:0,0:0:0:0:
439,295,223217,2,0,B|389:298|389:298|358:291,1,80.9999975280763,8|0,0:0|0:0,0:0:0:0:
457,151,223490,2,0,P|480:183|487:223,1,80.9999975280763,2|0,0:0|0:0,0:0:0:0:
329,207,223763,2,0,P|343:175|369:150,1,72,8|0,0:0|0:0,0:0:0:0:
258,259,224036,2,0,L|244:197,1,62.9999980773926,2|2,0:0|0:0,0:0:0:0:
320,331,224308,1,8,0:0:0:0:
128,314,224445,1,0,0:0:0:0:
223,344,224581,1,2,0:0:0:0:
65,241,224717,1,0,0:0:0:0:
157,110,224854,6,0,P|168:167|158:225,1,107.999996704102,8|0,0:0|0:0,0:0:0:0:
105,48,225399,1,8,0:0:0:0:
105,48,225536,2,0,B|200:55|200:55|226:69,1,125.999996154785,2|2,0:0|0:0,0:0:0:0:
356,90,225945,6,0,B|296:78|235:107|235:107|253:140,1,161.999995056153,8|0,0:0|0:0,0:0:0:0:
306,263,226354,1,2,0:0:0:0:
306,263,226490,6,0,B|328:213|328:213|203:225,1,180,0|0,0:0|0:0,0:0:0:0:
203,225,227036,5,0,0:0:0:0:
