osu file format v14

[General]
AudioFilename: BTS () - I NEED U.mp3
AudioLeadIn: 0
PreviewTime: 47680
Countdown: 0
SampleSet: Normal
StackLeniency: 0.7
Mode: 1
LetterboxInBreaks: 0
WidescreenStoryboard: 0

[Editor]
DistanceSpacing: 1.2
BeatDivisor: 4
GridSize: 4
TimelineZoom: 2.2

[Metadata]
Title:I NEED U
TitleUnicode:I NEED U
Artist:BTS
ArtistUnicode:방탄소년단
Creator:Melanie
Version:Muzukashii
Source:
Tags:bangtan boys sonyeondan bangtansonyeondan beyond the scene bulletproof boy scouts bighit big hit entertainment 빅히트엔터테인먼트 3rd mini album 1st special young forever HYYH hwayang yeonhwa hwayang-yeonhwa hwa yang yeon hwa 화양연화 花樣年華 Most Beautiful Moment in Life mood for love Pt.1 pt 1 part one repackage 랩몬스터 슈가 진 제이홉 지민 뷔 정국 jungkook rap monster j-hope jimin v suga jin yoongi k-pop kpop
BeatmapID:1407613
BeatmapSetID:665065

[Difficulty]
HPDrainRate:5
CircleSize:5
OverallDifficulty:5
ApproachRate:5
SliderMultiplier:1.4
SliderTickRate:1

[Events]
//Background and Video events
0,0,"bginu.jpg",0,0
//Break Periods
//Storyboard Layer 0 (Background)
//Storyboard Layer 1 (Fail)
//Storyboard Layer 2 (Pass)
//Storyboard Layer 3 (Foreground)
//Storyboard Sound Samples

[TimingPoints]
307,379.746835443038,4,1,0,50,1,0
307,-133.333333333333,4,1,0,50,0,0
24610,-125,4,1,0,60,0,0
36762,-117.647058823529,4,1,0,70,0,0
48914,-100,4,1,0,100,0,1
73218,-100,4,1,0,80,0,0
85370,-100,4,1,0,70,0,0
109674,-111.111111111111,4,1,0,75,0,0
121825,-100,4,1,0,100,0,1
146129,-133.333333333333,4,1,0,60,0,0
158281,-111.111111111111,4,1,0,70,0,0
164357,-105.263157894737,4,1,0,80,0,0
171952,-100,4,1,0,100,0,1
196256,-100,4,1,0,80,0,0

[HitObjects]
248,116,307,5,0,0:0:0:0:
248,116,1066,1,8,0:0:0:0:
248,116,1256,1,0,0:0:0:0:
248,116,1446,1,8,0:0:0:0:
248,116,1636,1,8,0:0:0:0:
248,116,1825,1,0,0:0:0:0:
248,116,2585,1,0,0:0:0:0:
248,116,2775,1,8,0:0:0:0:
248,116,2965,1,8,0:0:0:0:
248,116,3155,1,0,0:0:0:0:
248,116,3344,1,8,0:0:0:0:
248,116,4104,1,0,0:0:0:0:
248,116,4389,1,8,0:0:0:0:
248,116,4674,1,8,0:0:0:0:
248,116,4863,1,0,0:0:0:0:
248,116,6382,1,8,0:0:0:0:
248,116,7142,1,8,0:0:0:0:
248,116,7332,1,0,0:0:0:0:
248,116,7522,1,8,0:0:0:0:
248,116,7712,1,8,0:0:0:0:
208,188,7901,5,0,0:0:0:0:
208,188,8661,1,8,0:0:0:0:
208,188,8851,1,0,0:0:0:0:
248,116,9041,1,8,0:0:0:0:
208,188,9231,1,0,0:0:0:0:
208,188,9420,1,0,0:0:0:0:
208,188,9800,1,0,0:0:0:0:
248,116,10180,1,8,0:0:0:0:
248,116,10465,1,8,0:0:0:0:
248,116,10750,1,8,0:0:0:0:
248,116,10939,1,0,0:0:0:0:
248,116,11699,1,0,0:0:0:0:
248,116,12458,1,0,0:0:0:0:
248,116,13218,1,8,0:0:0:0:
248,116,13408,1,0,0:0:0:0:
248,116,13598,1,8,0:0:0:0:
248,116,13788,1,8,0:0:0:0:
248,116,14737,1,8,0:0:0:0:
248,116,14927,1,8,0:0:0:0:
248,116,15117,1,0,0:0:0:0:
248,116,15307,1,0,0:0:0:0:
248,116,15876,1,8,0:0:0:0:
248,116,16256,1,8,0:0:0:0:
248,116,16541,1,0,0:0:0:0:
248,116,16825,1,8,0:0:0:0:
248,116,17015,1,0,0:0:0:0:
248,116,17395,1,8,0:0:0:0:
248,116,17775,1,8,0:0:0:0:
248,116,18060,1,0,0:0:0:0:
248,116,18344,1,0,0:0:0:0:
248,116,18534,1,8,0:0:0:0:
248,116,19294,1,8,0:0:0:0:
248,116,19484,1,0,0:0:0:0:
206,188,19674,1,8,0:0:0:0:
248,116,19863,1,0,0:0:0:0:
248,116,20053,1,0,0:0:0:0:
248,116,20813,1,8,0:0:0:0:
248,116,21003,1,8,0:0:0:0:
248,116,21193,1,0,0:0:0:0:
248,116,21382,1,8,0:0:0:0:
248,116,21952,1,0,0:0:0:0:
248,116,22332,1,8,0:0:0:0:
248,116,22617,1,0,0:0:0:0:
248,116,22901,1,8,0:0:0:0:
248,116,23471,1,8,0:0:0:0:
248,116,23851,1,8,0:0:0:0:
206,188,24136,1,8,0:0:0:0:
206,188,24420,1,8,0:0:0:0:
248,116,24610,1,0,0:0:0:0:
248,116,25370,1,8,0:0:0:0:
206,188,25560,1,8,0:0:0:0:
206,188,25750,1,8,0:0:0:0:
206,188,25939,1,0,0:0:0:0:
248,116,26129,1,0,0:0:0:0:
248,116,26509,1,0,0:0:0:0:
248,116,26889,1,8,0:0:0:0:
248,116,27079,1,0,0:0:0:0:
248,116,27269,1,8,0:0:0:0:
248,116,27458,1,8,0:0:0:0:
248,116,27648,1,0,0:0:0:0:
248,116,28028,1,0,0:0:0:0:
248,116,28408,1,8,0:0:0:0:
248,116,28693,1,0,0:0:0:0:
248,116,28977,1,8,0:0:0:0:
248,116,29167,1,0,0:0:0:0:
248,116,29547,1,8,0:0:0:0:
248,116,29927,1,8,0:0:0:0:
248,116,30307,1,0,0:0:0:0:
248,116,30496,1,8,0:0:0:0:
248,116,30686,1,0,0:0:0:0:
248,116,30876,1,0,0:0:0:0:
248,116,31066,1,8,0:0:0:0:
248,116,31446,1,8,0:0:0:0:
248,116,31731,1,0,0:0:0:0:
248,116,32015,1,0,0:0:0:0:
248,116,32205,1,0,0:0:0:0:
248,116,32490,1,8,0:0:0:0:
248,116,32775,1,0,0:0:0:0:
248,116,32965,1,8,0:0:0:0:
256,120,33250,1,0,0:0:0:0:
248,116,33534,1,8,0:0:0:0:
248,116,33724,1,0,0:0:0:0:
248,116,34294,1,0,0:0:0:0:
248,116,34389,1,0,0:0:0:0:
248,116,34484,1,8,0:0:0:0:
256,120,34674,1,0,0:0:0:0:
256,120,34863,1,8,0:0:0:0:
248,116,35243,1,8,0:0:0:0:
248,116,35433,1,8,0:0:0:0:
248,116,35623,1,0,0:0:0:0:
256,120,35813,1,0,0:0:0:0:
248,116,36003,1,8,0:0:0:0:
248,116,36762,1,4,0:0:0:0:
252,118,37142,1,8,0:0:0:0:
248,116,37332,1,0,0:0:0:0:
248,116,37522,1,8,0:0:0:0:
248,116,37901,1,8,0:0:0:0:
248,116,38281,1,0,0:0:0:0:
248,116,38471,1,0,0:0:0:0:
248,116,38851,1,0,0:0:0:0:
248,116,39041,1,8,0:0:0:0:
248,116,39420,1,8,0:0:0:0:
248,116,39800,1,0,0:0:0:0:
248,116,39990,1,0,0:0:0:0:
248,116,40370,1,0,0:0:0:0:
248,116,40560,1,8,0:0:0:0:
248,116,40939,1,0,0:0:0:0:
248,116,41319,1,8,0:0:0:0:
248,116,41699,1,0,0:0:0:0:
248,116,41889,1,0,0:0:0:0:
248,116,41984,1,0,0:0:0:0:
248,116,42079,1,8,0:0:0:0:
248,116,42269,1,0,0:0:0:0:
248,116,42458,1,8,0:0:0:0:
248,116,42838,1,4,0:0:0:0:
248,116,43218,1,0,0:0:0:0:
248,116,43598,1,8,0:0:0:0:
248,116,44357,1,8,0:0:0:0:
248,116,44547,1,8,0:0:0:0:
248,116,44737,1,0,0:0:0:0:
248,116,45117,1,0,0:0:0:0:
240,112,45496,1,0,0:0:0:0:
256,192,45876,12,0,47395,0:0:0:0:
248,112,47775,5,0,0:0:0:0:
248,112,48155,1,8,0:0:0:0:
248,112,48439,1,8,0:0:0:0:
248,112,48724,1,0,0:0:0:0:
248,112,48914,1,12,0:0:0:0:
188,108,49674,1,8,0:0:0:0:
188,108,50243,1,8,0:0:0:0:
188,108,50433,1,0,0:0:0:0:
188,108,50623,1,8,0:0:0:0:
188,108,50813,1,0,0:0:0:0:
188,108,51193,1,8,0:0:0:0:
192,108,51572,1,8,0:0:0:0:
192,108,51667,1,8,0:0:0:0:
192,108,51762,1,8,0:0:0:0:
192,108,51952,1,0,0:0:0:0:
188,108,52142,1,0,0:0:0:0:
188,108,52332,1,8,0:0:0:0:
188,108,52712,1,8,0:0:0:0:
188,108,53091,1,0,0:0:0:0:
188,108,53281,1,8,0:0:0:0:
188,108,53471,1,0,0:0:0:0:
188,108,53661,1,8,0:0:0:0:
188,108,54041,1,0,0:0:0:0:
188,108,54231,1,8,0:0:0:0:
188,108,54610,1,8,0:0:0:0:
188,108,54737,1,8,0:0:0:0:
188,108,54863,1,0,0:0:0:0:
188,108,54990,1,12,0:0:0:0:
104,136,55750,1,8,0:0:0:0:
104,136,56319,1,8,0:0:0:0:
104,136,56509,1,0,0:0:0:0:
104,136,56699,1,8,0:0:0:0:
104,136,56889,1,0,0:0:0:0:
104,136,57269,1,8,0:0:0:0:
104,136,57648,1,8,0:0:0:0:
104,136,57743,1,8,0:0:0:0:
104,136,57838,1,8,0:0:0:0:
104,136,58028,1,0,0:0:0:0:
104,136,58218,1,0,0:0:0:0:
104,136,58598,1,0,0:0:0:0:
104,136,58788,1,8,0:0:0:0:
104,136,59167,1,0,0:0:0:0:
104,136,59357,1,8,0:0:0:0:
240,112,59452,1,8,0:0:0:0:
104,136,59547,1,0,0:0:0:0:
104,136,59737,1,8,0:0:0:0:
104,136,60117,1,0,0:0:0:0:
104,136,60307,1,8,0:0:0:0:
104,136,60686,1,0,0:0:0:0:
104,136,60876,1,8,0:0:0:0:
104,136,61066,1,12,0:0:0:0:
104,136,61825,1,8,0:0:0:0:
104,136,62204,1,0,0:0:0:0:
104,136,62395,1,8,0:0:0:0:
104,136,62774,1,8,0:0:0:0:
104,136,62964,1,0,0:0:0:0:
104,136,63344,1,8,0:0:0:0:
104,136,63724,1,0,0:0:0:0:
104,136,64104,1,12,0:0:0:0:
104,136,64484,1,0,0:0:0:0:
104,136,64863,1,8,0:0:0:0:
104,136,65243,1,0,0:0:0:0:
104,136,65433,1,8,0:0:0:0:
104,136,65813,1,8,0:0:0:0:
104,136,66003,1,0,0:0:0:0:
104,136,66383,1,8,0:0:0:0:
104,136,66762,1,8,0:0:0:0:
104,136,66889,1,8,0:0:0:0:
104,136,67015,1,8,0:0:0:0:
104,136,67142,1,0,0:0:0:0:
104,136,67522,1,0,0:0:0:0:
104,136,67901,1,8,0:0:0:0:
104,136,68281,1,0,0:0:0:0:
104,136,68471,1,8,0:0:0:0:
104,136,68851,1,8,0:0:0:0:
104,136,69041,1,0,0:0:0:0:
104,136,69420,1,8,0:0:0:0:
104,136,69800,1,0,0:0:0:0:
104,136,69990,1,8,0:0:0:0:
236,100,70180,1,0,0:0:0:0:
104,136,70275,1,0,0:0:0:0:
104,136,70370,1,0,0:0:0:0:
104,136,70560,1,8,0:0:0:0:
104,136,70939,1,8,0:0:0:0:
104,136,71319,1,0,0:0:0:0:
104,136,71509,1,8,0:0:0:0:
104,136,71889,1,0,0:0:0:0:
104,136,72079,1,8,0:0:0:0:
104,136,72458,1,8,0:0:0:0:
104,136,72743,1,8,0:0:0:0:
104,136,73028,1,0,0:0:0:0:
104,136,73218,1,12,0:0:0:0:
104,136,73598,1,8,0:0:0:0:
104,136,73788,1,0,0:0:0:0:
104,136,73977,1,8,0:0:0:0:
104,136,74357,1,0,0:0:0:0:
104,136,74547,1,8,0:0:0:0:
104,136,74737,1,0,0:0:0:0:
104,136,74927,1,8,0:0:0:0:
121,134,75307,1,0,0:0:0:0:
104,136,75496,1,8,0:0:0:0:
104,136,75876,1,8,0:0:0:0:
104,136,76256,1,0,0:0:0:0:
104,136,76636,1,0,0:0:0:0:
104,136,76826,1,0,0:0:0:0:
104,136,77015,1,8,0:0:0:0:
104,136,77395,1,0,0:0:0:0:
104,136,77585,1,8,0:0:0:0:
104,136,77965,1,8,0:0:0:0:
104,136,78155,1,0,0:0:0:0:
104,136,78534,1,0,0:0:0:0:
104,136,78914,1,8,0:0:0:0:
104,136,79041,1,8,0:0:0:0:
104,136,79167,1,8,0:0:0:0:
104,136,79294,1,8,0:0:0:0:
196,128,79674,1,0,0:0:0:0:
196,128,79863,1,0,0:0:0:0:
196,128,80053,1,8,0:0:0:0:
196,128,80433,1,0,0:0:0:0:
196,128,80623,1,8,0:0:0:0:
196,128,81003,1,8,0:0:0:0:
196,128,81193,1,0,0:0:0:0:
196,128,81572,1,8,0:0:0:0:
196,128,81952,1,8,0:0:0:0:
196,128,82047,1,8,0:0:0:0:
196,128,82142,1,8,0:0:0:0:
196,128,82332,1,0,0:0:0:0:
196,128,82712,1,8,0:0:0:0:
196,128,82902,1,0,0:0:0:0:
196,128,83091,1,8,0:0:0:0:
196,128,83471,1,0,0:0:0:0:
196,128,83661,1,8,0:0:0:0:
196,128,83851,1,8,0:0:0:0:
196,128,84231,1,8,0:0:0:0:
196,128,84610,1,8,0:0:0:0:
196,128,84990,1,8,0:0:0:0:
196,128,85117,1,8,0:0:0:0:
196,128,85243,1,8,0:0:0:0:
196,128,85370,1,0,0:0:0:0:
300,124,85750,1,0,0:0:0:0:
300,124,85939,1,0,0:0:0:0:
300,124,86129,1,8,0:0:0:0:
300,124,86509,1,0,0:0:0:0:
300,124,86699,1,8,0:0:0:0:
300,124,86889,1,0,0:0:0:0:
300,124,87269,1,0,0:0:0:0:
300,124,87648,1,8,0:0:0:0:
300,124,88028,1,8,0:0:0:0:
121,134,88218,1,8,0:0:0:0:
300,124,88408,1,0,0:0:0:0:
300,124,88788,1,0,0:0:0:0:
300,124,88977,1,8,0:0:0:0:
300,124,89357,1,0,0:0:0:0:
300,124,89737,1,8,0:0:0:0:
300,124,89927,1,0,0:0:0:0:
300,124,90117,1,8,0:0:0:0:
300,124,90212,1,8,0:0:0:0:
300,124,90307,1,0,0:0:0:0:
300,124,90496,1,8,0:0:0:0:
300,124,91066,1,8,0:0:0:0:
300,124,91193,1,8,0:0:0:0:
300,124,91319,1,8,0:0:0:0:
300,124,91446,1,0,0:0:0:0:
300,124,92205,1,8,0:0:0:0:
300,124,92585,1,0,0:0:0:0:
300,124,92775,1,8,0:0:0:0:
300,124,93155,1,8,0:0:0:0:
300,124,93344,1,0,0:0:0:0:
300,124,93724,1,8,0:0:0:0:
300,124,94104,1,8,0:0:0:0:
300,124,94199,1,8,0:0:0:0:
300,124,94294,1,8,0:0:0:0:
300,124,94484,1,0,0:0:0:0:
300,124,94863,1,0,0:0:0:0:
300,124,95243,1,8,0:0:0:0:
300,124,95623,1,0,0:0:0:0:
300,124,95813,1,8,0:0:0:0:
300,124,96003,1,0,0:0:0:0:
300,124,96382,1,0,0:0:0:0:
300,124,96572,1,0,0:0:0:0:
300,124,96762,1,8,0:0:0:0:
300,124,97142,1,8,0:0:0:0:
300,124,97332,1,8,0:0:0:0:
300,124,97522,1,0,0:0:0:0:
300,124,97901,1,0,0:0:0:0:
300,124,98471,1,0,0:0:0:0:
300,124,98851,1,8,0:0:0:0:
300,124,99041,1,0,0:0:0:0:
300,124,99420,1,0,0:0:0:0:
300,124,99990,1,8,0:0:0:0:
300,124,100370,1,0,0:0:0:0:
300,124,100560,1,0,0:0:0:0:
300,124,100750,1,0,0:0:0:0:
300,124,100939,1,8,0:0:0:0:
300,124,101509,1,0,0:0:0:0:
300,124,101889,1,8,0:0:0:0:
300,124,102079,1,0,0:0:0:0:
300,124,102458,1,0,0:0:0:0:
260,128,102838,1,8,0:0:0:0:
300,124,103218,1,8,0:0:0:0:
300,124,103344,1,8,0:0:0:0:
300,124,103471,1,8,0:0:0:0:
300,124,103598,1,0,0:0:0:0:
196,124,103977,1,0,0:0:0:0:
196,124,104357,1,8,0:0:0:0:
196,124,104737,1,0,0:0:0:0:
196,124,104927,1,8,0:0:0:0:
196,124,105307,1,8,0:0:0:0:
196,124,105496,1,0,0:0:0:0:
32,148,105876,1,8,0:0:0:0:
72,144,106256,1,0,0:0:0:0:
72,144,106636,1,8,0:0:0:0:
72,144,106825,1,0,0:0:0:0:
72,144,107205,1,8,0:0:0:0:
72,144,107395,1,0,0:0:0:0:
72,144,107585,1,0,0:0:0:0:
72,144,107775,1,8,0:0:0:0:
72,144,108155,1,8,0:0:0:0:
72,144,108344,1,0,0:0:0:0:
72,144,108534,1,8,0:0:0:0:
72,144,109104,1,8,0:0:0:0:
72,144,109294,1,0,0:0:0:0:
72,144,109674,1,12,0:0:0:0:
72,144,110053,1,0,0:0:0:0:
72,144,110433,1,8,0:0:0:0:
72,144,110623,1,8,0:0:0:0:
72,144,110813,1,0,0:0:0:0:
72,144,111193,1,0,0:0:0:0:
72,144,111382,1,8,0:0:0:0:
72,144,111572,1,0,0:0:0:0:
72,144,111952,1,8,0:0:0:0:
72,144,112142,1,0,0:0:0:0:
72,144,112332,1,0,0:0:0:0:
72,144,112522,1,8,0:0:0:0:
297,130,112712,1,8,0:0:0:0:
72,144,112901,1,0,0:0:0:0:
72,144,113091,1,8,0:0:0:0:
72,144,113471,1,8,0:0:0:0:
72,144,113851,1,8,0:0:0:0:
72,144,114231,1,8,0:0:0:0:
72,144,114420,1,0,0:0:0:0:
72,144,114610,1,8,0:0:0:0:
72,144,114990,1,0,0:0:0:0:
72,144,115180,1,8,0:0:0:0:
72,144,115370,1,0,0:0:0:0:
72,144,115750,1,4,0:0:0:0:
72,144,115939,1,0,0:0:0:0:
72,144,116129,1,8,0:0:0:0:
72,144,116509,1,8,0:0:0:0:
72,144,116889,1,0,0:0:0:0:
72,144,117079,1,0,0:0:0:0:
72,144,117269,1,8,0:0:0:0:
297,130,117458,1,8,0:0:0:0:
297,130,117648,1,0,0:0:0:0:
72,144,118028,1,8,0:0:0:0:
72,144,118408,1,8,0:0:0:0:
256,192,118788,12,0,120307,0:0:0:0:
192,192,120686,5,0,0:0:0:0:
192,192,121066,1,8,0:0:0:0:
192,192,121351,1,8,0:0:0:0:
192,192,121636,1,0,0:0:0:0:
192,192,121825,1,12,0:0:0:0:
184,108,122585,1,8,0:0:0:0:
184,108,123154,1,8,0:0:0:0:
184,108,123344,1,0,0:0:0:0:
184,108,123534,1,8,0:0:0:0:
184,108,123724,1,0,0:0:0:0:
184,108,124104,1,8,0:0:0:0:
188,108,124484,1,8,0:0:0:0:
188,108,124673,1,0,0:0:0:0:
188,108,124863,1,8,0:0:0:0:
184,108,125053,1,8,0:0:0:0:
184,108,125243,1,0,0:0:0:0:
184,108,125623,1,8,0:0:0:0:
184,108,126002,1,0,0:0:0:0:
184,108,126192,1,8,0:0:0:0:
184,108,126382,1,0,0:0:0:0:
184,108,126572,1,8,0:0:0:0:
184,108,126952,1,0,0:0:0:0:
184,108,127142,1,8,0:0:0:0:
184,108,127521,1,8,0:0:0:0:
184,108,127648,1,8,0:0:0:0:
184,108,127774,1,0,0:0:0:0:
184,108,127901,1,8,0:0:0:0:
100,136,128661,1,8,0:0:0:0:
100,136,129230,1,8,0:0:0:0:
100,136,129420,1,0,0:0:0:0:
100,136,129610,1,8,0:0:0:0:
100,136,129800,1,0,0:0:0:0:
100,136,130180,1,8,0:0:0:0:
100,136,130559,1,8,0:0:0:0:
96,136,130655,1,8,0:0:0:0:
100,136,130750,1,0,0:0:0:0:
100,136,130939,1,0,0:0:0:0:
100,136,131129,1,8,0:0:0:0:
100,136,131509,1,0,0:0:0:0:
100,136,131699,1,8,0:0:0:0:
100,136,132078,1,0,0:0:0:0:
100,136,132268,1,8,0:0:0:0:
100,136,132363,1,8,0:0:0:0:
100,136,132458,1,0,0:0:0:0:
100,136,132648,1,8,0:0:0:0:
100,136,133028,1,0,0:0:0:0:
100,136,133218,1,8,0:0:0:0:
100,136,133597,1,0,0:0:0:0:
100,136,133787,1,8,0:0:0:0:
100,136,133977,1,12,0:0:0:0:
96,136,134357,1,0,0:0:0:0:
100,136,134736,1,8,0:0:0:0:
100,136,135115,1,0,0:0:0:0:
100,136,135306,1,8,0:0:0:0:
100,136,135685,1,8,0:0:0:0:
100,136,135875,1,0,0:0:0:0:
100,136,136255,1,8,0:0:0:0:
100,136,136635,1,0,0:0:0:0:
100,136,137015,1,12,0:0:0:0:
100,136,137395,1,0,0:0:0:0:
100,136,137774,1,8,0:0:0:0:
100,136,138154,1,0,0:0:0:0:
100,136,138344,1,8,0:0:0:0:
100,136,138439,1,0,0:0:0:0:
100,136,138534,1,8,0:0:0:0:
100,136,138724,1,8,0:0:0:0:
100,136,138914,1,0,0:0:0:0:
100,136,139294,1,8,0:0:0:0:
100,136,139673,1,8,0:0:0:0:
100,136,139800,1,8,0:0:0:0:
100,136,139926,1,8,0:0:0:0:
100,136,140053,1,0,0:0:0:0:
100,136,140433,1,0,0:0:0:0:
100,136,140812,1,8,0:0:0:0:
100,136,141192,1,0,0:0:0:0:
100,136,141382,1,8,0:0:0:0:
100,136,141762,1,8,0:0:0:0:
100,136,141952,1,0,0:0:0:0:
100,136,142331,1,8,0:0:0:0:
100,136,142711,1,0,0:0:0:0:
100,136,142901,1,8,0:0:0:0:
100,136,143281,1,0,0:0:0:0:
100,136,143471,1,8,0:0:0:0:
100,136,143850,5,8,0:0:0:0:
100,136,144231,1,0,0:0:0:0:
100,136,144420,1,8,0:0:0:0:
100,136,144800,1,0,0:0:0:0:
100,136,144990,1,8,0:0:0:0:
100,136,145369,1,8,0:0:0:0:
100,136,145654,1,8,0:0:0:0:
208,124,145655,1,0,0:0:0:0:
100,136,145939,1,0,0:0:0:0:
100,136,146129,1,12,0:0:0:0:
208,124,146889,1,8,0:0:0:0:
208,124,148408,1,8,0:0:0:0:
208,124,149927,1,8,0:0:0:0:
96,136,151066,1,8,0:0:0:0:
208,124,151446,1,8,0:0:0:0:
208,124,151731,1,8,0:0:0:0:
208,124,152015,1,0,0:0:0:0:
208,124,152205,1,0,0:0:0:0:
208,124,152965,1,8,0:0:0:0:
208,124,154484,1,8,0:0:0:0:
208,124,156003,1,8,0:0:0:0:
96,136,157142,1,0,0:0:0:0:
208,124,157522,1,8,0:0:0:0:
297,130,157807,1,0,0:0:0:0:
297,130,158091,1,0,0:0:0:0:
208,124,158281,1,12,0:0:0:0:
208,124,159041,1,8,0:0:0:0:
208,124,159420,1,0,0:0:0:0:
208,124,159610,1,8,0:0:0:0:
208,124,159990,1,8,0:0:0:0:
208,124,160180,1,0,0:0:0:0:
208,124,160370,1,0,0:0:0:0:
208,124,160560,1,8,0:0:0:0:
208,124,160939,1,0,0:0:0:0:
208,124,161319,1,8,0:0:0:0:
208,124,161699,1,0,0:0:0:0:
297,130,161889,1,0,0:0:0:0:
297,130,161984,1,0,0:0:0:0:
96,136,162079,1,8,0:0:0:0:
297,130,162269,1,0,0:0:0:0:
208,124,162458,1,0,0:0:0:0:
208,124,162648,1,8,0:0:0:0:
208,124,162838,1,0,0:0:0:0:
208,124,163218,1,0,0:0:0:0:
208,124,163598,1,8,0:0:0:0:
208,124,163977,1,8,0:0:0:0:
208,124,164104,1,8,0:0:0:0:
208,124,164231,1,8,0:0:0:0:
208,124,164357,1,0,0:0:0:0:
208,124,164737,1,0,0:0:0:0:
208,124,165117,1,0,0:0:0:0:
208,124,165496,1,0,0:0:0:0:
297,130,165686,1,0,0:0:0:0:
208,124,165876,1,0,0:0:0:0:
208,124,166256,1,0,0:0:0:0:
208,124,166636,1,0,0:0:0:0:
208,124,167015,1,0,0:0:0:0:
256,192,167395,12,0,170433,0:0:0:0:
228,152,170813,5,0,0:0:0:0:
228,152,171193,1,8,0:0:0:0:
228,152,171477,1,0,0:0:0:0:
228,152,171762,1,0,0:0:0:0:
228,152,171952,1,12,0:0:0:0:
188,108,172712,5,8,0:0:0:0:
188,108,173281,1,8,0:0:0:0:
188,108,173471,1,0,0:0:0:0:
188,108,173661,1,8,0:0:0:0:
188,108,173851,1,0,0:0:0:0:
188,108,174231,1,8,0:0:0:0:
192,108,174610,1,8,0:0:0:0:
192,108,174800,1,8,0:0:0:0:
192,108,174990,1,0,0:0:0:0:
188,108,175180,1,0,0:0:0:0:
188,108,175370,1,8,0:0:0:0:
188,108,175750,1,8,0:0:0:0:
188,108,176129,1,0,0:0:0:0:
188,108,176319,1,8,0:0:0:0:
188,108,176509,1,0,0:0:0:0:
188,108,176699,1,8,0:0:0:0:
188,108,177079,1,0,0:0:0:0:
188,108,177269,1,8,0:0:0:0:
188,108,177648,1,8,0:0:0:0:
188,108,177775,1,8,0:0:0:0:
188,108,177901,1,8,0:0:0:0:
188,108,178028,1,12,0:0:0:0:
104,136,178788,1,8,0:0:0:0:
104,136,179357,1,8,0:0:0:0:
104,136,179547,1,0,0:0:0:0:
104,136,179737,1,8,0:0:0:0:
104,136,179927,1,0,0:0:0:0:
104,136,180307,1,8,0:0:0:0:
104,136,180686,1,8,0:0:0:0:
104,136,180876,1,8,0:0:0:0:
104,136,180971,1,8,0:0:0:0:
104,136,181066,1,0,0:0:0:0:
104,136,181256,1,0,0:0:0:0:
104,136,181636,1,0,0:0:0:0:
104,136,181826,1,8,0:0:0:0:
104,136,182205,1,0,0:0:0:0:
104,136,182395,1,8,0:0:0:0:
104,136,182490,1,8,0:0:0:0:
104,136,182585,1,0,0:0:0:0:
104,136,182775,1,8,0:0:0:0:
104,136,183155,1,0,0:0:0:0:
104,136,183345,1,8,0:0:0:0:
104,136,183724,1,0,0:0:0:0:
104,136,184104,1,8,0:0:0:0:
104,136,184863,1,8,0:0:0:0:
104,136,185242,1,0,0:0:0:0:
104,136,185433,1,8,0:0:0:0:
104,136,185812,1,8,0:0:0:0:
104,136,186002,1,0,0:0:0:0:
104,136,186382,1,8,0:0:0:0:
104,136,186762,1,0,0:0:0:0:
104,136,187142,1,8,0:0:0:0:
104,136,187901,1,8,0:0:0:0:
104,136,188281,1,0,0:0:0:0:
104,136,188471,1,8,0:0:0:0:
104,136,188566,1,8,0:0:0:0:
104,136,188661,1,8,0:0:0:0:
104,136,188851,1,8,0:0:0:0:
104,136,189041,1,0,0:0:0:0:
104,136,189421,1,8,0:0:0:0:
104,136,189800,1,8,0:0:0:0:
104,136,189927,1,8,0:0:0:0:
104,136,190053,1,8,0:0:0:0:
104,136,190180,1,0,0:0:0:0:
104,136,190560,1,0,0:0:0:0:
104,136,190939,1,8,0:0:0:0:
104,136,191319,1,0,0:0:0:0:
104,136,191509,1,8,0:0:0:0:
100,132,191604,1,8,0:0:0:0:
100,132,191699,1,0,0:0:0:0:
104,136,191889,1,8,0:0:0:0:
104,136,192079,1,0,0:0:0:0:
104,136,192458,1,8,0:0:0:0:
104,136,192838,1,0,0:0:0:0:
104,136,193028,1,8,0:0:0:0:
100,136,193218,1,0,0:0:0:0:
104,136,193408,1,0,0:0:0:0:
104,136,193598,1,8,0:0:0:0:
104,136,193977,1,8,0:0:0:0:
104,136,194357,1,0,0:0:0:0:
104,136,194547,1,8,0:0:0:0:
100,132,194642,1,8,0:0:0:0:
100,136,194737,1,0,0:0:0:0:
104,136,194927,1,0,0:0:0:0:
104,136,195117,1,8,0:0:0:0:
104,136,195496,1,8,0:0:0:0:
104,136,195781,1,8,0:0:0:0:
104,136,196066,1,0,0:0:0:0:
104,136,196256,1,12,0:0:0:0:
104,128,196636,1,0,0:0:0:0:
104,128,196825,1,0,0:0:0:0:
104,128,197015,1,8,0:0:0:0:
104,128,197395,1,0,0:0:0:0:
104,128,197585,1,8,0:0:0:0:
104,128,197965,1,8,0:0:0:0:
104,128,198155,1,0,0:0:0:0:
104,128,198534,1,8,0:0:0:0:
104,128,198914,1,8,0:0:0:0:
104,128,199104,1,8,0:0:0:0:
104,128,199294,1,0,0:0:0:0:
104,128,199674,1,8,0:0:0:0:
104,128,199864,1,0,0:0:0:0:
104,128,200053,1,8,0:0:0:0:
104,128,200433,1,0,0:0:0:0:
104,128,200623,1,8,0:0:0:0:
104,128,200718,1,0,0:0:0:0:
104,128,200813,1,8,0:0:0:0:
104,128,201003,1,8,0:0:0:0:
104,128,201193,1,0,0:0:0:0:
104,128,201572,1,8,0:0:0:0:
104,128,201952,1,8,0:0:0:0:
104,128,202079,1,8,0:0:0:0:
104,128,202205,1,8,0:0:0:0:
104,128,202332,1,0,0:0:0:0:
104,128,202712,1,8,0:0:0:0:
104,128,202902,1,0,0:0:0:0:
104,128,203091,1,8,0:0:0:0:
108,128,203471,1,0,0:0:0:0:
108,128,203661,1,8,0:0:0:0:
108,128,203851,1,0,0:0:0:0:
108,128,204041,1,8,0:0:0:0:
108,128,204610,1,8,0:0:0:0:
108,128,204990,1,8,0:0:0:0:
108,128,205180,1,0,0:0:0:0:
108,128,205370,1,0,0:0:0:0:
108,128,205750,1,8,0:0:0:0:
108,128,205939,1,0,0:0:0:0:
108,128,206129,1,8,0:0:0:0:
108,128,206509,1,0,0:0:0:0:
108,128,206699,1,8,0:0:0:0:
108,128,206889,1,8,0:0:0:0:
108,128,207269,1,8,0:0:0:0:
108,128,207648,1,8,0:0:0:0:
108,128,208028,1,8,0:0:0:0:
108,128,208155,1,8,0:0:0:0:
108,128,208281,1,8,0:0:0:0:
