osu file format v14

[General]
AudioFilename: BTS () - I NEED U.mp3
AudioLeadIn: 0
PreviewTime: 47680
Countdown: 0
SampleSet: Normal
StackLeniency: 0.7
Mode: 1
LetterboxInBreaks: 0
WidescreenStoryboard: 1

[Editor]
DistanceSpacing: 1.2
BeatDivisor: 4
GridSize: 4
TimelineZoom: 2.2

[Metadata]
Title:I NEED U
TitleUnicode:I NEED U
Artist:BTS
ArtistUnicode:방탄소년단
Creator:Melanie
Version:Inner Oni
Source:
Tags:bangtan boys sonyeondan bangtansonyeondan beyond the scene bulletproof boy scouts bighit big hit entertainment 빅히트엔터테인먼트 3rd mini album 1st special young forever HYYH hwayang yeonhwa hwayang-yeonhwa hwa yang yeon hwa 화양연화 花樣年華 Most Beautiful Moment in Life mood for love Pt.1 pt 1 part one repackage 랩몬스터 슈가 진 제이홉 지민 뷔 정국 jungkook rap monster j-hope jimin v suga jin yoongi k-pop kpop
BeatmapID:1408240
BeatmapSetID:665065

[Difficulty]
HPDrainRate:7
CircleSize:5
OverallDifficulty:5.5
ApproachRate:5
SliderMultiplier:1.4
SliderTickRate:1

[Events]
//Background and Video events
0,0,"bginu.jpg",0,0
//Break Periods
//Storyboard Layer 0 (Background)
//Storyboard Layer 1 (Fail)
//Storyboard Layer 2 (Pass)
//Storyboard Layer 3 (Foreground)
//Storyboard Sound Samples

[TimingPoints]
307,379.746835443038,4,1,0,50,1,0
307,-133.333333333333,4,1,0,50,0,0
24610,-125,4,1,0,60,0,0
36762,-117.647058823529,4,1,0,70,0,0
48914,-100,4,1,0,100,0,1
73218,-100,4,1,0,80,0,0
85370,-100,4,1,0,70,0,0
109674,-111.111111111111,4,1,0,75,0,0
121825,-100,4,1,0,100,0,1
146129,-133.333333333333,4,1,0,60,0,0
158281,-111.111111111111,4,1,0,70,0,0
164357,-105.263157894737,4,1,0,80,0,0
171952,-100,4,1,0,100,0,1
196256,-100,4,1,0,80,0,0

[HitObjects]
256,176,307,5,0,0:0:0:0:
288,224,1066,5,8,0:0:0:0:
256,176,1256,1,8,0:0:0:0:
256,176,1446,1,0,0:0:0:0:
256,176,1636,1,8,0:0:0:0:
256,176,1826,1,0,0:0:0:0:
288,224,2585,1,0,0:0:0:0:
256,176,2775,1,0,0:0:0:0:
256,176,2965,1,8,0:0:0:0:
256,176,3155,1,0,0:0:0:0:
256,176,3344,1,8,0:0:0:0:
256,176,3724,1,0,0:0:0:0:
288,224,4104,1,8,0:0:0:0:
256,176,4389,1,8,0:0:0:0:
256,176,4674,1,8,0:0:0:0:
256,176,4863,1,0,0:0:0:0:
256,176,5623,1,0,0:0:0:0:
256,176,6003,1,0,0:0:0:0:
272,176,6382,1,8,0:0:0:0:
288,224,7142,1,0,0:0:0:0:
240,176,7332,1,0,0:0:0:0:
240,176,7522,1,0,0:0:0:0:
240,176,7712,1,8,0:0:0:0:
272,176,7901,1,0,0:0:0:0:
288,224,8661,1,8,0:0:0:0:
240,176,8851,1,8,0:0:0:0:
240,176,9041,1,8,0:0:0:0:
240,176,9231,1,0,0:0:0:0:
288,224,9420,1,8,0:0:0:0:
256,176,9800,1,0,0:0:0:0:
288,176,10179,1,8,0:0:0:0:
240,176,10465,1,8,0:0:0:0:
240,176,10750,1,0,0:0:0:0:
288,224,10939,1,8,0:0:0:0:
240,184,11319,1,0,0:0:0:0:
288,208,11699,1,8,0:0:0:0:
240,184,11984,1,0,0:0:0:0:
288,208,12269,1,8,0:0:0:0:
288,208,12458,1,0,0:0:0:0:
288,208,13218,1,8,0:0:0:0:
256,176,13408,1,0,0:0:0:0:
288,224,13598,1,8,0:0:0:0:
256,176,13788,1,8,0:0:0:0:
288,224,13977,1,0,0:0:0:0:
288,224,14357,1,8,0:0:0:0:
288,224,14737,1,8,0:0:0:0:
304,240,14927,1,8,0:0:0:0:
288,224,15117,1,0,0:0:0:0:
288,224,15307,1,0,0:0:0:0:
288,224,15496,1,8,0:0:0:0:
304,240,15876,1,0,0:0:0:0:
288,224,16256,1,8,0:0:0:0:
288,224,16446,1,0,0:0:0:0:
288,224,16636,1,0,0:0:0:0:
288,224,16825,1,8,0:0:0:0:
288,224,17205,1,8,0:0:0:0:
288,224,17395,1,0,0:0:0:0:
288,224,17775,1,8,0:0:0:0:
288,224,18060,1,8,0:0:0:0:
288,224,18344,1,0,0:0:0:0:
240,184,18534,1,8,0:0:0:0:
240,184,18724,1,0,0:0:0:0:
288,224,19294,1,8,0:0:0:0:
288,224,19484,1,8,0:0:0:0:
288,224,19674,1,8,0:0:0:0:
288,224,19863,1,0,0:0:0:0:
288,224,20053,1,0,0:0:0:0:
288,224,20433,1,0,0:0:0:0:
288,224,20813,1,8,0:0:0:0:
288,224,21003,1,8,0:0:0:0:
288,224,21193,1,8,0:0:0:0:
288,224,21382,1,0,0:0:0:0:
288,224,21572,1,8,0:0:0:0:
288,224,21952,1,0,0:0:0:0:
288,224,22332,1,8,0:0:0:0:
288,224,22617,1,0,0:0:0:0:
288,224,22901,1,8,0:0:0:0:
288,224,23091,1,0,0:0:0:0:
288,224,23471,1,0,0:0:0:0:
288,224,23851,1,8,0:0:0:0:
300,228,24136,1,0,0:0:0:0:
288,224,24420,1,8,0:0:0:0:
288,224,24610,1,8,0:0:0:0:
288,224,24800,1,0,0:0:0:0:
288,224,24990,1,0,0:0:0:0:
288,224,25370,1,8,0:0:0:0:
284,216,25560,1,0,0:0:0:0:
284,216,25750,1,8,0:0:0:0:
284,216,25939,1,8,0:0:0:0:
288,224,26129,1,0,0:0:0:0:
288,224,26509,1,0,0:0:0:0:
288,224,26889,1,8,0:0:0:0:
288,224,27079,1,8,0:0:0:0:
288,224,27269,1,0,0:0:0:0:
288,224,27458,1,0,0:0:0:0:
288,224,27838,1,8,0:0:0:0:
288,224,28028,1,0,0:0:0:0:
284,216,28218,1,0,0:0:0:0:
288,224,28408,1,8,0:0:0:0:
288,224,28788,1,0,0:0:0:0:
288,224,29167,1,0,0:0:0:0:
288,224,29547,1,0,0:0:0:0:
288,224,29927,1,8,0:0:0:0:
288,224,30117,1,0,0:0:0:0:
288,224,30307,1,8,0:0:0:0:
288,224,30496,1,8,0:0:0:0:
288,224,30686,1,0,0:0:0:0:
288,224,31066,1,0,0:0:0:0:
288,224,31256,1,0,0:0:0:0:
288,224,31446,1,8,0:0:0:0:
288,224,31731,1,8,0:0:0:0:
288,224,32015,1,0,0:0:0:0:
288,224,32205,1,8,0:0:0:0:
288,224,32490,1,8,0:0:0:0:
288,224,32774,1,0,0:0:0:0:
288,224,32965,1,8,0:0:0:0:
288,224,33250,1,0,0:0:0:0:
288,224,33534,1,8,0:0:0:0:
288,224,33724,1,0,0:0:0:0:
288,224,34104,1,8,0:0:0:0:
288,224,34294,1,0,0:0:0:0:
288,224,34389,1,0,0:0:0:0:
288,224,34484,1,8,0:0:0:0:
288,224,34674,1,0,0:0:0:0:
288,224,34863,1,8,0:0:0:0:
288,224,35243,1,8,0:0:0:0:
288,224,35433,1,8,0:0:0:0:
288,224,35623,1,0,0:0:0:0:
288,224,35813,1,0,0:0:0:0:
288,224,36003,1,8,0:0:0:0:
288,224,36382,1,0,0:0:0:0:
288,224,36762,1,4,0:0:0:0:
288,224,37142,1,8,0:0:0:0:
288,224,37332,1,0,0:0:0:0:
288,224,37522,1,8,0:0:0:0:
288,224,37901,1,0,0:0:0:0:
288,224,38281,1,8,0:0:0:0:
288,224,38471,1,0,0:0:0:0:
288,224,38661,1,8,0:0:0:0:
288,224,38851,1,0,0:0:0:0:
288,224,39041,1,8,0:0:0:0:
288,224,39420,1,0,0:0:0:0:
288,224,39800,1,8,0:0:0:0:
288,224,39990,1,0,0:0:0:0:
288,224,40180,1,8,0:0:0:0:
288,224,40370,1,8,0:0:0:0:
288,224,40560,1,0,0:0:0:0:
288,224,40939,1,0,0:0:0:0:
288,224,41319,1,8,0:0:0:0:
288,224,41699,1,0,0:0:0:0:
288,224,41889,1,0,0:0:0:0:
288,224,41984,1,0,0:0:0:0:
288,224,42079,1,8,0:0:0:0:
288,224,42269,1,8,0:0:0:0:
288,224,42458,1,0,0:0:0:0:
288,224,42838,1,4,0:0:0:0:
288,224,43028,1,0,0:0:0:0:
296,220,43123,1,0,0:0:0:0:
288,224,43218,1,8,0:0:0:0:
288,224,43408,1,0,0:0:0:0:
288,224,43598,1,8,0:0:0:0:
272,224,43977,1,0,0:0:0:0:
288,224,44357,5,8,0:0:0:0:
288,224,44547,1,0,0:0:0:0:
296,220,44642,1,0,0:0:0:0:
288,224,44737,1,8,0:0:0:0:
272,224,44927,1,0,0:0:0:0:
296,220,45022,1,0,0:0:0:0:
288,224,45117,1,8,0:0:0:0:
288,224,45496,1,0,0:0:0:0:
288,224,45876,1,0,0:0:0:0:
288,224,45971,1,8,0:0:0:0:
288,224,46066,1,0,0:0:0:0:
288,224,46161,1,8,0:0:0:0:
288,224,46256,1,0,0:0:0:0:
284,224,46351,1,8,0:0:0:0:
284,224,46446,1,0,0:0:0:0:
288,224,46541,1,8,0:0:0:0:
288,224,46636,1,0,0:0:0:0:
288,224,46731,1,8,0:0:0:0:
288,224,46825,1,0,0:0:0:0:
288,224,46920,1,8,0:0:0:0:
288,224,47015,1,0,0:0:0:0:
288,224,47110,1,8,0:0:0:0:
288,224,47205,1,0,0:0:0:0:
288,224,47300,1,8,0:0:0:0:
256,176,47775,5,0,0:0:0:0:
256,176,48155,5,0,0:0:0:0:
256,176,48439,1,8,0:0:0:0:
256,176,48724,1,0,0:0:0:0:
256,176,48914,1,12,0:0:0:0:
296,220,49294,1,0,0:0:0:0:
256,176,49484,1,0,0:0:0:0:
256,176,49674,1,8,0:0:0:0:
256,176,50053,1,8,0:0:0:0:
256,176,50243,1,8,0:0:0:0:
256,176,50433,1,8,0:0:0:0:
268,192,50528,1,8,0:0:0:0:
256,176,50623,1,0,0:0:0:0:
268,192,50718,1,0,0:0:0:0:
248,176,50813,1,8,0:0:0:0:
256,176,51003,1,0,0:0:0:0:
256,176,51193,1,8,0:0:0:0:
244,168,51382,1,0,0:0:0:0:
256,176,51572,1,8,0:0:0:0:
256,176,51636,1,8,0:0:0:0:
256,176,51699,1,8,0:0:0:0:
256,176,51762,1,8,0:0:0:0:
256,176,51952,1,0,0:0:0:0:
256,176,52332,1,0,0:0:0:0:
256,176,52522,1,0,0:0:0:0:
288,224,52617,1,0,0:0:0:0:
256,176,52712,1,8,0:0:0:0:
244,168,52901,1,8,0:0:0:0:
256,176,53091,1,0,0:0:0:0:
256,176,53281,1,8,0:0:0:0:
272,192,53471,1,8,0:0:0:0:
256,192,53566,1,0,0:0:0:0:
272,192,53661,1,8,0:0:0:0:
272,192,53756,1,8,0:0:0:0:
256,192,53851,1,0,0:0:0:0:
256,176,54041,1,8,0:0:0:0:
288,224,54136,1,8,0:0:0:0:
256,176,54231,1,0,0:0:0:0:
256,176,54420,1,8,0:0:0:0:
256,176,54610,1,8,0:0:0:0:
256,176,54737,1,0,0:0:0:0:
256,176,54863,1,0,0:0:0:0:
256,176,54990,1,8,0:0:0:0:
256,192,55370,1,0,0:0:0:0:
256,192,55750,1,8,0:0:0:0:
256,192,56129,1,0,0:0:0:0:
256,192,56319,1,8,0:0:0:0:
256,192,56414,1,8,0:0:0:0:
256,192,56509,1,0,0:0:0:0:
256,192,56699,1,8,0:0:0:0:
256,192,56889,1,0,0:0:0:0:
256,192,57079,1,8,0:0:0:0:
256,192,57269,1,8,0:0:0:0:
256,192,57363,1,8,0:0:0:0:
256,192,57458,1,0,0:0:0:0:
256,192,57553,1,0,0:0:0:0:
256,192,57648,1,8,0:0:0:0:
256,192,57838,1,8,0:0:0:0:
256,192,57933,1,0,0:0:0:0:
256,192,58028,1,8,0:0:0:0:
256,192,58218,1,0,0:0:0:0:
256,192,58408,1,0,0:0:0:0:
256,192,58598,1,0,0:0:0:0:
272,184,58693,1,0,0:0:0:0:
256,192,58788,1,8,0:0:0:0:
256,192,59167,1,0,0:0:0:0:
256,192,59357,1,8,0:0:0:0:
256,192,59547,1,0,0:0:0:0:
256,200,59642,1,0,0:0:0:0:
256,192,59737,1,8,0:0:0:0:
272,184,59832,1,0,0:0:0:0:
272,184,59927,1,8,0:0:0:0:
256,192,60117,1,0,0:0:0:0:
256,192,60307,1,8,0:0:0:0:
256,192,60686,1,0,0:0:0:0:
256,192,60876,1,8,0:0:0:0:
256,192,61066,1,12,0:0:0:0:
256,192,61446,1,0,0:0:0:0:
256,192,61825,1,8,0:0:0:0:
276,248,62205,1,0,0:0:0:0:
256,192,62395,1,8,0:0:0:0:
272,184,62490,1,8,0:0:0:0:
272,184,62585,1,0,0:0:0:0:
256,192,62775,1,8,0:0:0:0:
256,192,62965,1,0,0:0:0:0:
256,192,63344,1,8,0:0:0:0:
256,192,63724,1,8,0:0:0:0:
256,192,63788,1,8,0:0:0:0:
256,192,63851,1,8,0:0:0:0:
256,192,63914,1,8,0:0:0:0:
256,192,64104,1,12,0:0:0:0:
256,192,64484,1,0,0:0:0:0:
256,192,64863,1,8,0:0:0:0:
276,248,65053,1,8,0:0:0:0:
256,192,65243,1,0,0:0:0:0:
256,192,65433,1,8,0:0:0:0:
272,184,65528,1,0,0:0:0:0:
256,176,65623,1,8,0:0:0:0:
256,192,65813,1,8,0:0:0:0:
256,192,66003,1,0,0:0:0:0:
256,192,66382,1,0,0:0:0:0:
256,192,66762,1,8,0:0:0:0:
256,192,66889,1,8,0:0:0:0:
256,192,67015,1,0,0:0:0:0:
256,192,67142,1,12,0:0:0:0:
256,192,67522,1,8,0:0:0:0:
256,192,67901,1,8,0:0:0:0:
256,192,68281,1,0,0:0:0:0:
256,192,68471,1,8,0:0:0:0:
256,192,68851,1,8,0:0:0:0:
256,192,69041,1,0,0:0:0:0:
256,192,69420,1,8,0:0:0:0:
256,192,69800,1,8,0:0:0:0:
256,192,69863,1,8,0:0:0:0:
256,192,69927,1,8,0:0:0:0:
256,192,69990,1,0,0:0:0:0:
256,192,70180,1,12,0:0:0:0:
256,192,70560,1,8,0:0:0:0:
256,192,70939,1,8,0:0:0:0:
256,192,71319,1,0,0:0:0:0:
256,192,71509,1,8,0:0:0:0:
256,192,71889,1,0,0:0:0:0:
256,192,72079,1,8,0:0:0:0:
256,192,72458,1,8,0:0:0:0:
256,192,72743,1,8,0:0:0:0:
256,192,73028,1,8,0:0:0:0:
256,192,73218,1,12,0:0:0:0:
256,192,73598,1,0,0:0:0:0:
256,192,73788,1,0,0:0:0:0:
256,192,73977,1,8,0:0:0:0:
256,192,74167,1,0,0:0:0:0:
256,176,74547,1,8,0:0:0:0:
256,192,74642,1,0,0:0:0:0:
256,192,74737,5,0,0:0:0:0:
256,192,74927,1,8,0:0:0:0:
256,192,75117,1,0,0:0:0:0:
256,192,75496,1,8,0:0:0:0:
256,192,75876,1,8,0:0:0:0:
256,192,75939,1,8,0:0:0:0:
256,192,76003,1,8,0:0:0:0:
256,192,76066,1,8,0:0:0:0:
256,192,76256,1,0,0:0:0:0:
256,192,76636,1,0,0:0:0:0:
256,192,76825,1,0,0:0:0:0:
256,192,76920,1,0,0:0:0:0:
256,192,77015,1,8,0:0:0:0:
256,192,77395,5,0,0:0:0:0:
256,192,77585,1,8,0:0:0:0:
256,192,77775,1,0,0:0:0:0:
256,192,77965,5,8,0:0:0:0:
256,192,78155,1,8,0:0:0:0:
256,192,78345,1,0,0:0:0:0:
256,192,78534,1,8,0:0:0:0:
256,192,78914,1,8,0:0:0:0:
256,192,79041,1,8,0:0:0:0:
256,192,79167,1,8,0:0:0:0:
256,192,79294,1,0,0:0:0:0:
256,192,79674,1,0,0:0:0:0:
256,192,79863,1,0,0:0:0:0:
272,192,80053,1,8,0:0:0:0:
256,192,80433,1,0,0:0:0:0:
272,192,80623,1,8,0:0:0:0:
256,192,80813,1,0,0:0:0:0:
272,192,81003,1,8,0:0:0:0:
256,192,81382,1,0,0:0:0:0:
272,192,81572,1,8,0:0:0:0:
272,192,81952,1,8,0:0:0:0:
256,200,82015,1,8,0:0:0:0:
256,200,82079,1,8,0:0:0:0:
256,200,82142,1,8,0:0:0:0:
256,192,82332,1,0,0:0:0:0:
272,192,82522,1,8,0:0:0:0:
256,192,82712,1,8,0:0:0:0:
272,192,82901,1,0,0:0:0:0:
256,192,83091,1,8,0:0:0:0:
256,192,83471,1,0,0:0:0:0:
256,192,83661,1,8,0:0:0:0:
256,176,83851,5,8,0:0:0:0:
256,176,83914,5,8,0:0:0:0:
256,176,83977,1,8,0:0:0:0:
256,176,84231,1,8,0:0:0:0:
256,176,84294,1,8,0:0:0:0:
256,176,84357,1,8,0:0:0:0:
256,176,84611,1,8,0:0:0:0:
256,176,84674,1,8,0:0:0:0:
256,176,84737,1,8,0:0:0:0:
256,176,84990,1,8,0:0:0:0:
256,176,85117,1,8,0:0:0:0:
256,176,85243,1,8,0:0:0:0:
256,176,85370,1,0,0:0:0:0:
256,176,85750,1,0,0:0:0:0:
264,184,85844,1,0,0:0:0:0:
264,184,85939,1,0,0:0:0:0:
264,184,86034,1,0,0:0:0:0:
256,176,86129,1,8,0:0:0:0:
256,176,86319,1,0,0:0:0:0:
272,192,86509,1,8,0:0:0:0:
256,192,86604,1,0,0:0:0:0:
272,192,86699,1,8,0:0:0:0:
272,192,86794,1,8,0:0:0:0:
256,192,86889,1,0,0:0:0:0:
256,176,87079,1,8,0:0:0:0:
256,176,87269,1,0,0:0:0:0:
272,192,87648,1,8,0:0:0:0:
256,176,88028,1,8,0:0:0:0:
256,176,88091,1,8,0:0:0:0:
272,192,88155,1,8,0:0:0:0:
272,192,88218,1,8,0:0:0:0:
272,208,88408,1,0,0:0:0:0:
272,192,88788,1,0,0:0:0:0:
272,192,88977,1,8,0:0:0:0:
272,192,89357,1,0,0:0:0:0:
272,192,89547,1,8,0:0:0:0:
272,192,89737,1,0,0:0:0:0:
272,192,89927,1,8,0:0:0:0:
256,192,90022,1,8,0:0:0:0:
272,192,90117,1,0,0:0:0:0:
272,192,90212,1,0,0:0:0:0:
256,192,90307,1,0,0:0:0:0:
272,192,90496,1,0,0:0:0:0:
272,192,90686,1,8,0:0:0:0:
272,192,91066,1,8,0:0:0:0:
272,192,91193,1,8,0:0:0:0:
272,192,91319,1,0,0:0:0:0:
272,192,91446,1,0,0:0:0:0:
272,192,91636,1,8,0:0:0:0:
272,192,91731,1,8,0:0:0:0:
272,192,91825,1,0,0:0:0:0:
272,192,92015,1,0,0:0:0:0:
272,192,92205,1,8,0:0:0:0:
272,192,92585,1,8,0:0:0:0:
272,192,92775,1,8,0:0:0:0:
272,192,92870,1,0,0:0:0:0:
272,192,92965,1,0,0:0:0:0:
272,192,93155,1,8,0:0:0:0:
272,192,93344,1,0,0:0:0:0:
272,192,93724,1,8,0:0:0:0:
272,192,94104,1,8,0:0:0:0:
272,192,94167,1,8,0:0:0:0:
272,192,94231,1,8,0:0:0:0:
272,192,94294,1,8,0:0:0:0:
272,192,94484,1,0,0:0:0:0:
220,168,94674,1,0,0:0:0:0:
240,176,94863,1,0,0:0:0:0:
240,176,95053,1,0,0:0:0:0:
240,176,95148,1,0,0:0:0:0:
240,176,95243,1,8,0:0:0:0:
240,176,95433,1,0,0:0:0:0:
240,176,95623,1,0,0:0:0:0:
240,176,95718,1,0,0:0:0:0:
240,176,95908,1,0,0:0:0:0:
240,176,96003,1,8,0:0:0:0:
240,176,96193,1,8,0:0:0:0:
240,176,96382,1,0,0:0:0:0:
240,176,96477,1,0,0:0:0:0:
240,176,96572,1,0,0:0:0:0:
240,176,96667,1,0,0:0:0:0:
240,176,96762,1,8,0:0:0:0:
240,176,96952,1,0,0:0:0:0:
240,176,97142,1,8,0:0:0:0:
240,176,97205,1,8,0:0:0:0:
240,176,97269,1,8,0:0:0:0:
240,176,97332,1,8,0:0:0:0:
240,176,97522,1,0,0:0:0:0:
240,176,97712,1,0,0:0:0:0:
240,176,97901,1,0,0:0:0:0:
240,176,98281,1,8,0:0:0:0:
240,176,98471,1,0,0:0:0:0:
240,176,98851,1,8,0:0:0:0:
240,176,99041,1,0,0:0:0:0:
256,168,99231,1,8,0:0:0:0:
240,176,99420,1,0,0:0:0:0:
240,176,99800,1,8,0:0:0:0:
256,168,100180,1,8,0:0:0:0:
256,168,100243,1,8,0:0:0:0:
256,168,100307,1,8,0:0:0:0:
240,176,100370,1,8,0:0:0:0:
240,176,100560,1,8,0:0:0:0:
240,176,100750,1,0,0:0:0:0:
240,176,100939,1,0,0:0:0:0:
240,176,101319,1,8,0:0:0:0:
240,176,101509,1,0,0:0:0:0:
240,176,101889,1,8,0:0:0:0:
240,176,102079,1,0,0:0:0:0:
240,176,102458,1,0,0:0:0:0:
240,176,102838,1,8,0:0:0:0:
240,176,103218,1,8,0:0:0:0:
240,176,103344,1,8,0:0:0:0:
240,176,103471,1,8,0:0:0:0:
240,176,103598,1,0,0:0:0:0:
224,176,103977,1,8,0:0:0:0:
256,168,104167,1,0,0:0:0:0:
240,160,104357,1,8,0:0:0:0:
256,168,104547,1,0,0:0:0:0:
240,160,104737,1,0,0:0:0:0:
256,168,104927,1,8,0:0:0:0:
240,160,105117,1,0,0:0:0:0:
240,160,105307,1,8,0:0:0:0:
240,160,105496,1,0,0:0:0:0:
240,160,105686,1,0,0:0:0:0:
240,160,105876,1,8,0:0:0:0:
240,160,106066,1,0,0:0:0:0:
240,160,106256,1,8,0:0:0:0:
256,168,106319,1,8,0:0:0:0:
240,160,106382,1,8,0:0:0:0:
240,160,106446,1,8,0:0:0:0:
240,160,106636,1,0,0:0:0:0:
240,160,107015,1,0,0:0:0:0:
240,160,107395,1,8,0:0:0:0:
240,160,107775,1,0,0:0:0:0:
240,160,108155,1,0,0:0:0:0:
240,160,108534,1,0,0:0:0:0:
240,160,109104,1,0,0:0:0:0:
240,160,109294,1,0,0:0:0:0:
240,160,109484,1,0,0:0:0:0:
240,160,109674,1,12,0:0:0:0:
240,160,109863,1,0,0:0:0:0:
240,160,110053,1,8,0:0:0:0:
240,160,110433,1,8,0:0:0:0:
240,160,110623,1,8,0:0:0:0:
240,160,110813,1,0,0:0:0:0:
240,160,111003,1,0,0:0:0:0:
240,160,111193,1,8,0:0:0:0:
240,160,111382,1,0,0:0:0:0:
240,160,111572,1,8,0:0:0:0:
240,160,111952,1,8,0:0:0:0:
240,160,112142,1,8,0:0:0:0:
240,160,112332,1,0,0:0:0:0:
240,160,112522,1,8,0:0:0:0:
240,160,112712,1,0,0:0:0:0:
228,160,112901,1,0,0:0:0:0:
240,160,113091,1,8,0:0:0:0:
240,160,113471,1,0,0:0:0:0:
228,160,113661,1,8,0:0:0:0:
240,160,113851,1,8,0:0:0:0:
228,160,114041,1,0,0:0:0:0:
240,160,114231,1,8,0:0:0:0:
240,160,114610,1,0,0:0:0:0:
240,160,114990,1,0,0:0:0:0:
240,160,115370,1,8,0:0:0:0:
240,160,115560,1,0,0:0:0:0:
240,160,115750,1,12,0:0:0:0:
240,160,115939,1,0,0:0:0:0:
240,160,116129,1,8,0:0:0:0:
240,160,116509,1,8,0:0:0:0:
240,160,116699,1,8,0:0:0:0:
240,160,116889,1,8,0:0:0:0:
240,160,117079,1,0,0:0:0:0:
240,160,117269,1,12,0:0:0:0:
240,160,117648,1,8,0:0:0:0:
240,160,117838,1,0,0:0:0:0:
240,160,118028,1,8,0:0:0:0:
240,160,118218,1,0,0:0:0:0:
240,160,118408,1,8,0:0:0:0:
240,160,118598,1,8,0:0:0:0:
240,160,118788,1,0,0:0:0:0:
240,160,118882,1,8,0:0:0:0:
240,160,118977,1,0,0:0:0:0:
240,160,119072,1,8,0:0:0:0:
240,160,119167,1,0,0:0:0:0:
240,160,119262,1,8,0:0:0:0:
240,160,119357,1,0,0:0:0:0:
240,160,119452,1,8,0:0:0:0:
240,160,119547,1,0,0:0:0:0:
240,160,119642,1,8,0:0:0:0:
240,160,119737,1,0,0:0:0:0:
240,160,119832,1,8,0:0:0:0:
240,160,119927,1,0,0:0:0:0:
240,160,120022,1,8,0:0:0:0:
240,160,120117,1,0,0:0:0:0:
240,160,120212,1,8,0:0:0:0:
256,176,120686,5,0,0:0:0:0:
256,176,121066,5,0,0:0:0:0:
256,176,121351,1,8,0:0:0:0:
256,176,121636,1,0,0:0:0:0:
256,176,121825,1,12,0:0:0:0:
256,176,122205,1,0,0:0:0:0:
256,176,122585,1,8,0:0:0:0:
240,160,122965,1,8,0:0:0:0:
256,176,123155,1,8,0:0:0:0:
256,176,123344,1,8,0:0:0:0:
268,192,123439,1,8,0:0:0:0:
256,176,123534,1,0,0:0:0:0:
268,192,123629,1,0,0:0:0:0:
248,176,123724,1,8,0:0:0:0:
248,176,123914,1,0,0:0:0:0:
256,176,124104,5,8,0:0:0:0:
256,176,124483,1,8,0:0:0:0:
256,176,124547,1,8,0:0:0:0:
256,176,124610,1,8,0:0:0:0:
256,176,124673,1,8,0:0:0:0:
256,176,124863,1,0,0:0:0:0:
256,176,125243,1,0,0:0:0:0:
256,176,125433,1,0,0:0:0:0:
288,224,125528,1,0,0:0:0:0:
256,176,125623,1,8,0:0:0:0:
244,168,125813,1,8,0:0:0:0:
256,176,126002,1,0,0:0:0:0:
256,176,126192,1,8,0:0:0:0:
272,192,126382,1,8,0:0:0:0:
256,192,126477,1,8,0:0:0:0:
272,192,126572,1,0,0:0:0:0:
272,192,126667,1,0,0:0:0:0:
256,192,126762,1,8,0:0:0:0:
256,176,126952,1,8,0:0:0:0:
288,224,127047,1,8,0:0:0:0:
256,176,127142,1,8,0:0:0:0:
256,176,127331,1,8,0:0:0:0:
256,176,127522,1,8,0:0:0:0:
256,176,127648,1,0,0:0:0:0:
256,176,127774,1,0,0:0:0:0:
256,176,127901,1,12,0:0:0:0:
256,192,128281,1,0,0:0:0:0:
256,192,128661,1,8,0:0:0:0:
256,192,129040,1,0,0:0:0:0:
256,192,129230,1,8,0:0:0:0:
256,192,129325,1,8,0:0:0:0:
256,192,129420,1,0,0:0:0:0:
256,192,129610,1,8,0:0:0:0:
256,192,129800,1,0,0:0:0:0:
256,192,130180,1,8,0:0:0:0:
256,192,130559,1,8,0:0:0:0:
256,192,130749,1,8,0:0:0:0:
256,192,130844,1,8,0:0:0:0:
256,192,130939,1,0,0:0:0:0:
256,192,131129,1,0,0:0:0:0:
256,192,131319,1,8,0:0:0:0:
256,192,131509,1,0,0:0:0:0:
256,192,131699,1,8,0:0:0:0:
244,168,131794,1,0,0:0:0:0:
244,168,131889,1,0,0:0:0:0:
244,168,131984,1,0,0:0:0:0:
256,192,132079,1,8,0:0:0:0:
256,192,132268,1,8,0:0:0:0:
256,192,132458,1,0,0:0:0:0:
256,192,132648,1,8,0:0:0:0:
256,192,133028,1,0,0:0:0:0:
256,192,133218,1,8,0:0:0:0:
256,192,133597,1,0,0:0:0:0:
256,192,133787,1,8,0:0:0:0:
256,192,133977,1,12,0:0:0:0:
256,192,134357,1,0,0:0:0:0:
256,192,134736,1,8,0:0:0:0:
256,192,135116,1,0,0:0:0:0:
256,192,135306,1,8,0:0:0:0:
248,176,135401,1,0,0:0:0:0:
248,176,135496,1,8,0:0:0:0:
256,192,135686,1,8,0:0:0:0:
256,192,135876,1,0,0:0:0:0:
256,192,136255,1,8,0:0:0:0:
256,192,136635,1,8,0:0:0:0:
256,192,136699,1,8,0:0:0:0:
256,192,136762,1,8,0:0:0:0:
256,192,136825,1,8,0:0:0:0:
256,192,137015,1,12,0:0:0:0:
256,192,137395,1,0,0:0:0:0:
256,192,137774,1,8,0:0:0:0:
256,176,137965,1,8,0:0:0:0:
256,192,138154,1,0,0:0:0:0:
256,192,138344,1,8,0:0:0:0:
256,192,138724,1,8,0:0:0:0:
256,192,138914,1,0,0:0:0:0:
256,192,139293,1,0,0:0:0:0:
256,192,139673,1,8,0:0:0:0:
256,192,139800,1,8,0:0:0:0:
256,192,139926,1,0,0:0:0:0:
256,192,140053,1,12,0:0:0:0:
256,192,140433,1,8,0:0:0:0:
256,192,140812,1,8,0:0:0:0:
256,192,141192,1,0,0:0:0:0:
256,192,141382,1,8,0:0:0:0:
256,192,141572,1,0,0:0:0:0:
256,192,141762,1,8,0:0:0:0:
256,192,141952,1,0,0:0:0:0:
256,192,142331,1,8,0:0:0:0:
256,192,142711,1,8,0:0:0:0:
256,192,142774,1,8,0:0:0:0:
256,192,142838,1,8,0:0:0:0:
256,192,142901,1,0,0:0:0:0:
256,192,143091,1,12,0:0:0:0:
256,192,143471,1,8,0:0:0:0:
256,192,143850,1,8,0:0:0:0:
256,192,144230,1,0,0:0:0:0:
256,192,144420,1,8,0:0:0:0:
256,192,144800,1,0,0:0:0:0:
256,192,144990,1,8,0:0:0:0:
256,192,145369,1,8,0:0:0:0:
256,192,145654,1,8,0:0:0:0:
256,192,145939,1,8,0:0:0:0:
256,192,146129,1,12,0:0:0:0:
256,192,146889,1,8,0:0:0:0:
256,196,147269,1,0,0:0:0:0:
256,192,147648,1,0,0:0:0:0:
256,192,148218,1,0,0:0:0:0:
256,192,148408,1,8,0:0:0:0:
256,192,148788,1,0,0:0:0:0:
256,192,149167,1,0,0:0:0:0:
256,192,149547,1,0,0:0:0:0:
256,192,149927,1,8,0:0:0:0:
248,176,150307,1,8,0:0:0:0:
256,192,150686,1,0,0:0:0:0:
256,176,151066,1,8,0:0:0:0:
256,176,151446,1,8,0:0:0:0:
256,176,151731,1,8,0:0:0:0:
256,176,152015,1,8,0:0:0:0:
256,176,152205,1,0,0:0:0:0:
256,192,152965,1,8,0:0:0:0:
256,192,153344,1,0,0:0:0:0:
248,176,153724,1,8,0:0:0:0:
256,192,154104,1,0,0:0:0:0:
256,196,154294,1,0,0:0:0:0:
256,192,154484,1,8,0:0:0:0:
256,192,154863,1,0,0:0:0:0:
256,192,155243,1,0,0:0:0:0:
256,192,156003,1,8,0:0:0:0:
256,192,156382,1,0,0:0:0:0:
256,176,156762,1,0,0:0:0:0:
256,176,157142,1,8,0:0:0:0:
256,176,157522,1,8,0:0:0:0:
256,176,157807,1,0,0:0:0:0:
256,176,158091,1,0,0:0:0:0:
256,176,158281,1,12,0:0:0:0:
288,208,158661,1,0,0:0:0:0:
288,208,159041,1,0,0:0:0:0:
288,208,159420,1,0,0:0:0:0:
288,208,159610,1,8,0:0:0:0:
288,208,159800,1,0,0:0:0:0:
288,208,159990,1,8,0:0:0:0:
288,208,160180,1,0,0:0:0:0:
256,196,160275,1,0,0:0:0:0:
256,196,160370,1,0,0:0:0:0:
256,196,160465,1,0,0:0:0:0:
288,208,160560,1,8,0:0:0:0:
288,208,160939,1,8,0:0:0:0:
288,208,161319,1,8,0:0:0:0:
256,176,161699,1,8,0:0:0:0:
256,176,161794,1,8,0:0:0:0:
256,176,161889,1,0,0:0:0:0:
256,176,161984,1,0,0:0:0:0:
256,176,162079,1,8,0:0:0:0:
272,208,162458,1,0,0:0:0:0:
272,208,162648,1,8,0:0:0:0:
272,208,162838,1,0,0:0:0:0:
256,196,162933,1,0,0:0:0:0:
272,208,163028,1,0,0:0:0:0:
248,176,163218,1,8,0:0:0:0:
272,208,163598,1,8,0:0:0:0:
256,176,163977,1,8,0:0:0:0:
256,176,164104,1,8,0:0:0:0:
256,176,164231,1,8,0:0:0:0:
256,176,164357,1,0,0:0:0:0:
192,176,164737,1,0,0:0:0:0:
192,176,164927,1,0,0:0:0:0:
192,176,165117,1,0,0:0:0:0:
192,176,165307,1,0,0:0:0:0:
192,176,165496,1,0,0:0:0:0:
192,176,165686,1,0,0:0:0:0:
192,176,165781,1,0,0:0:0:0:
192,176,165876,1,0,0:0:0:0:
192,176,166066,1,0,0:0:0:0:
192,176,166256,1,0,0:0:0:0:
192,176,166446,5,0,0:0:0:0:
192,176,166636,1,0,0:0:0:0:
192,176,166825,1,0,0:0:0:0:
256,196,166920,1,0,0:0:0:0:
192,176,167015,1,0,0:0:0:0:
192,176,167205,1,0,0:0:0:0:
240,160,167395,1,0,0:0:0:0:
240,160,167489,1,8,0:0:0:0:
240,160,167584,1,0,0:0:0:0:
240,160,167679,1,8,0:0:0:0:
240,160,167774,1,0,0:0:0:0:
240,160,167870,1,8,0:0:0:0:
240,160,167964,1,0,0:0:0:0:
240,160,168059,1,8,0:0:0:0:
240,160,168154,1,0,0:0:0:0:
240,160,168249,1,8,0:0:0:0:
240,160,168344,1,0,0:0:0:0:
240,160,168439,1,8,0:0:0:0:
240,160,168534,1,0,0:0:0:0:
240,160,168629,1,8,0:0:0:0:
240,160,168724,1,0,0:0:0:0:
240,160,168819,1,8,0:0:0:0:
256,192,169104,12,0,170433,0:0:0:0:
256,176,170813,5,0,0:0:0:0:
256,176,171193,5,8,0:0:0:0:
256,176,171477,1,8,0:0:0:0:
256,176,171762,1,0,0:0:0:0:
256,176,171952,1,12,0:0:0:0:
256,176,172522,1,0,0:0:0:0:
256,176,172712,1,8,0:0:0:0:
256,176,173281,1,8,0:0:0:0:
256,176,173471,1,8,0:0:0:0:
268,192,173566,1,8,0:0:0:0:
256,176,173661,1,0,0:0:0:0:
268,192,173756,1,0,0:0:0:0:
248,176,173851,1,8,0:0:0:0:
268,184,174041,1,0,0:0:0:0:
256,176,174231,1,8,0:0:0:0:
256,176,174610,1,8,0:0:0:0:
256,176,174674,1,8,0:0:0:0:
256,176,174737,1,8,0:0:0:0:
256,176,174800,1,8,0:0:0:0:
256,176,174990,1,0,0:0:0:0:
256,176,175370,1,0,0:0:0:0:
256,176,175560,1,0,0:0:0:0:
288,224,175655,1,0,0:0:0:0:
256,176,175750,1,8,0:0:0:0:
256,196,175939,1,0,0:0:0:0:
256,176,176129,1,0,0:0:0:0:
256,176,176319,1,8,0:0:0:0:
272,192,176509,1,8,0:0:0:0:
256,192,176604,1,0,0:0:0:0:
272,192,176699,1,0,0:0:0:0:
256,196,176794,1,8,0:0:0:0:
256,192,176889,1,0,0:0:0:0:
256,176,177079,1,8,0:0:0:0:
288,224,177174,1,8,0:0:0:0:
256,176,177269,1,0,0:0:0:0:
256,176,177458,1,8,0:0:0:0:
256,176,177648,1,8,0:0:0:0:
256,176,177775,1,0,0:0:0:0:
256,176,177901,1,0,0:0:0:0:
256,176,178028,1,8,0:0:0:0:
256,192,178408,1,0,0:0:0:0:
256,192,178788,1,8,0:0:0:0:
256,192,179167,1,8,0:0:0:0:
256,192,179357,1,0,0:0:0:0:
256,192,179452,1,0,0:0:0:0:
256,192,179547,1,8,0:0:0:0:
256,192,179737,1,8,0:0:0:0:
256,192,179927,1,0,0:0:0:0:
256,192,180307,1,8,0:0:0:0:
256,192,180686,1,8,0:0:0:0:
256,192,180750,1,8,0:0:0:0:
256,192,180813,1,8,0:0:0:0:
260,188,180876,1,8,0:0:0:0:
256,192,181066,1,0,0:0:0:0:
256,192,181256,1,8,0:0:0:0:
256,192,181446,1,8,0:0:0:0:
256,192,181636,1,0,0:0:0:0:
256,192,181826,1,8,0:0:0:0:
248,192,181920,1,0,0:0:0:0:
248,192,182015,1,8,0:0:0:0:
248,192,182110,1,8,0:0:0:0:
256,192,182205,1,0,0:0:0:0:
256,192,182395,1,8,0:0:0:0:
256,192,182585,1,0,0:0:0:0:
256,192,182775,1,8,0:0:0:0:
256,192,182965,1,0,0:0:0:0:
256,192,183060,1,0,0:0:0:0:
256,192,183155,1,0,0:0:0:0:
256,192,183345,1,8,0:0:0:0:
256,192,183724,1,0,0:0:0:0:
256,192,184104,1,12,0:0:0:0:
256,192,184484,1,0,0:0:0:0:
256,192,184863,1,8,0:0:0:0:
256,192,185243,1,0,0:0:0:0:
256,192,185433,1,8,0:0:0:0:
256,192,185528,1,0,0:0:0:0:
256,192,185623,1,0,0:0:0:0:
256,192,185813,1,8,0:0:0:0:
256,192,186003,1,0,0:0:0:0:
256,192,186382,1,8,0:0:0:0:
256,192,186762,1,8,0:0:0:0:
256,192,186826,1,8,0:0:0:0:
256,192,186889,1,8,0:0:0:0:
256,192,186952,1,8,0:0:0:0:
256,192,187142,1,0,0:0:0:0:
256,192,187522,1,0,0:0:0:0:
256,192,187901,1,8,0:0:0:0:
256,192,188281,1,0,0:0:0:0:
256,192,188471,1,8,0:0:0:0:
256,192,188566,1,0,0:0:0:0:
256,192,188661,1,0,0:0:0:0:
256,192,188851,1,8,0:0:0:0:
256,192,189041,1,0,0:0:0:0:
256,192,189136,1,0,0:0:0:0:
256,176,189231,1,0,0:0:0:0:
256,192,189420,1,8,0:0:0:0:
256,192,189800,1,8,0:0:0:0:
256,192,189927,1,8,0:0:0:0:
256,192,190053,1,0,0:0:0:0:
256,192,190180,1,12,0:0:0:0:
256,192,190560,1,8,0:0:0:0:
256,192,190939,1,8,0:0:0:0:
256,192,191129,1,0,0:0:0:0:
256,192,191319,1,0,0:0:0:0:
256,192,191509,1,8,0:0:0:0:
256,192,191699,1,8,0:0:0:0:
256,192,191794,1,0,0:0:0:0:
256,192,191889,1,8,0:0:0:0:
72,12,191984,1,8,0:0:0:0:
256,192,192079,1,0,0:0:0:0:
256,192,192458,1,8,0:0:0:0:
256,192,192838,1,8,0:0:0:0:
256,192,192901,1,8,0:0:0:0:
256,192,192965,1,8,0:0:0:0:
256,192,193028,1,0,0:0:0:0:
256,192,193218,1,12,0:0:0:0:
256,192,193598,1,8,0:0:0:0:
256,192,193977,1,8,0:0:0:0:
256,192,194357,1,0,0:0:0:0:
256,192,194547,1,8,0:0:0:0:
256,192,194927,1,0,0:0:0:0:
256,192,195117,1,8,0:0:0:0:
256,192,195496,1,8,0:0:0:0:
256,192,195781,1,8,0:0:0:0:
256,192,196066,1,8,0:0:0:0:
256,192,196256,1,12,0:0:0:0:
256,192,196636,1,0,0:0:0:0:
256,192,196826,1,0,0:0:0:0:
256,192,197015,1,8,0:0:0:0:
256,192,197205,1,0,0:0:0:0:
256,192,197585,1,8,0:0:0:0:
256,192,197680,1,0,0:0:0:0:
256,192,197775,1,0,0:0:0:0:
256,192,197965,1,8,0:0:0:0:
256,192,198155,1,0,0:0:0:0:
256,192,198534,1,8,0:0:0:0:
256,192,198914,1,8,0:0:0:0:
256,192,198977,1,8,0:0:0:0:
256,192,199041,1,8,0:0:0:0:
256,192,199104,1,8,0:0:0:0:
256,192,199294,1,0,0:0:0:0:
256,192,199674,1,0,0:0:0:0:
256,192,199863,1,0,0:0:0:0:
256,192,199958,1,0,0:0:0:0:
256,192,200053,1,8,0:0:0:0:
240,152,200243,1,8,0:0:0:0:
256,192,200433,5,0,0:0:0:0:
256,192,200623,1,8,0:0:0:0:
256,192,200813,1,0,0:0:0:0:
256,192,201003,5,8,0:0:0:0:
256,192,201098,1,8,0:0:0:0:
256,192,201193,1,8,0:0:0:0:
256,192,201383,1,0,0:0:0:0:
256,192,201572,1,8,0:0:0:0:
256,160,201952,1,8,0:0:0:0:
256,192,202079,1,8,0:0:0:0:
256,192,202205,1,8,0:0:0:0:
256,160,202332,1,12,0:0:0:0:
256,192,202712,1,0,0:0:0:0:
256,192,202901,1,0,0:0:0:0:
272,192,203091,1,8,0:0:0:0:
256,192,203471,1,0,0:0:0:0:
272,192,203661,1,8,0:0:0:0:
256,192,203851,1,0,0:0:0:0:
272,192,204041,1,8,0:0:0:0:
260,180,204231,1,0,0:0:0:0:
260,180,204325,1,0,0:0:0:0:
260,180,204420,1,0,0:0:0:0:
260,180,204515,1,0,0:0:0:0:
272,192,204610,1,8,0:0:0:0:
272,192,204990,1,8,0:0:0:0:
256,188,205053,1,8,0:0:0:0:
272,192,205117,1,8,0:0:0:0:
256,188,205180,1,8,0:0:0:0:
256,192,205370,1,0,0:0:0:0:
256,192,205750,1,8,0:0:0:0:
272,192,205939,1,0,0:0:0:0:
256,192,206129,1,8,0:0:0:0:
256,192,206509,1,0,0:0:0:0:
256,192,206699,1,8,0:0:0:0:
256,176,206889,5,8,0:0:0:0:
256,176,206952,5,8,0:0:0:0:
256,176,207015,1,8,0:0:0:0:
256,176,207269,1,8,0:0:0:0:
256,176,207332,1,8,0:0:0:0:
256,176,207395,1,8,0:0:0:0:
256,176,207649,1,8,0:0:0:0:
256,176,207712,1,8,0:0:0:0:
256,176,207775,1,8,0:0:0:0:
256,176,208028,1,8,0:0:0:0:
256,176,208155,1,8,0:0:0:0:
256,176,208281,1,8,0:0:0:0:
