osu file format v14

[General]
AudioFilename: BTS () - I NEED U.mp3
AudioLeadIn: 0
PreviewTime: 47680
Countdown: 0
SampleSet: None
StackLeniency: 0.7
Mode: 1
LetterboxInBreaks: 0
WidescreenStoryboard: 0

[Editor]
DistanceSpacing: 1.2
BeatDivisor: 4
GridSize: 4
TimelineZoom: 2.2

[Metadata]
Title:I NEED U
TitleUnicode:I NEED U
Artist:BTS
ArtistUnicode:방탄소년단
Creator:Melanie
Version:Futsuu
Source:
Tags:bangtan boys sonyeondan bangtansonyeondan beyond the scene bulletproof boy scouts bighit big hit entertainment 빅히트엔터테인먼트 3rd mini album 1st special young forever HYYH hwayang yeonhwa hwayang-yeonhwa hwa yang yeon hwa 화양연화 花樣年華 Most Beautiful Moment in Life mood for love Pt.1 pt 1 part one repackage 랩몬스터 슈가 진 제이홉 지민 뷔 정국 jungkook rap monster j-hope jimin v suga jin yoongi k-pop kpop
BeatmapID:1439328
BeatmapSetID:665065

[Difficulty]
HPDrainRate:5
CircleSize:5
OverallDifficulty:5
ApproachRate:5
SliderMultiplier:1.4
SliderTickRate:1

[Events]
//Background and Video events
0,0,"bginu.jpg",0,0
//Break Periods
2,146329,157081
//Storyboard Layer 0 (Background)
//Storyboard Layer 1 (Fail)
//Storyboard Layer 2 (Pass)
//Storyboard Layer 3 (Foreground)
//Storyboard Sound Samples

[TimingPoints]
307,379.746835443038,4,1,0,100,1,0
307,-133.333333333333,4,1,0,100,0,0
24610,-125,4,1,0,100,0,0
36762,-117.647058823529,4,1,0,100,0,0
48914,-100,4,1,0,100,0,1
73218,-100,4,1,0,100,0,0
85370,-100,4,1,0,100,0,0
109674,-111.111111111111,4,1,0,100,0,0
121825,-100,4,1,0,100,0,1
146129,-133.333333333333,4,1,0,100,0,0
158281,-111.111111111111,4,1,0,100,0,0
164357,-105.263157894737,4,1,0,100,0,0
171952,-100,4,1,0,100,0,1
196256,-100,4,1,0,100,0,0

[HitObjects]
256,176,307,5,0,0:0:0:0:
288,224,1066,5,8,0:0:0:0:
256,176,1446,1,0,0:0:0:0:
256,176,1826,1,8,0:0:0:0:
288,224,2585,1,0,0:0:0:0:
256,176,3344,1,8,0:0:0:0:
288,224,4104,1,8,0:0:0:0:
256,176,5623,1,0,0:0:0:0:
272,176,6382,1,8,0:0:0:0:
288,224,7142,1,0,0:0:0:0:
240,176,7522,1,8,0:0:0:0:
272,176,7901,1,0,0:0:0:0:
288,224,8661,1,8,0:0:0:0:
288,224,9420,1,8,0:0:0:0:
288,176,10179,1,8,0:0:0:0:
288,224,10939,1,8,0:0:0:0:
240,184,11319,1,0,0:0:0:0:
288,208,11699,1,8,0:0:0:0:
288,208,12458,1,0,0:0:0:0:
288,208,13218,1,8,0:0:0:0:
256,176,13408,1,0,0:0:0:0:
288,224,13598,1,8,0:0:0:0:
288,224,13977,1,0,0:0:0:0:
288,224,14737,1,8,0:0:0:0:
288,224,15496,1,8,0:0:0:0:
288,224,16256,1,8,0:0:0:0:
288,224,16636,1,0,0:0:0:0:
288,224,17015,1,8,0:0:0:0:
288,224,17205,1,8,0:0:0:0:
288,224,17395,1,0,0:0:0:0:
288,224,17775,1,8,0:0:0:0:
240,184,18534,1,0,0:0:0:0:
288,224,19294,1,8,0:0:0:0:
288,224,19674,1,8,0:0:0:0:
288,224,20053,1,0,0:0:0:0:
288,224,20813,1,8,0:0:0:0:
288,224,21193,1,8,0:0:0:0:
288,224,21382,1,0,0:0:0:0:
288,224,21572,1,8,0:0:0:0:
288,224,21952,1,0,0:0:0:0:
288,224,22712,1,0,0:0:0:0:
288,224,22901,1,8,0:0:0:0:
288,224,23091,1,0,0:0:0:0:
288,224,23471,1,0,0:0:0:0:
288,224,23851,1,8,0:0:0:0:
288,224,24610,1,8,0:0:0:0:
288,224,25370,1,8,0:0:0:0:
284,216,25750,1,8,0:0:0:0:
288,224,26509,1,0,0:0:0:0:
288,224,26889,1,8,0:0:0:0:
288,224,27079,1,8,0:0:0:0:
288,224,27269,1,0,0:0:0:0:
288,224,27648,1,0,0:0:0:0:
288,224,28408,1,8,0:0:0:0:
288,224,28788,1,0,0:0:0:0:
288,224,29547,1,0,0:0:0:0:
288,224,30117,1,0,0:0:0:0:
288,224,30307,1,8,0:0:0:0:
288,224,30496,1,8,0:0:0:0:
288,224,30686,1,0,0:0:0:0:
288,224,31446,1,8,0:0:0:0:
288,224,32205,1,8,0:0:0:0:
288,224,32965,1,8,0:0:0:0:
288,224,33344,1,0,0:0:0:0:
288,224,33534,1,8,0:0:0:0:
288,224,33724,1,0,0:0:0:0:
288,224,34104,1,0,0:0:0:0:
288,224,34484,1,8,0:0:0:0:
288,224,35243,1,8,0:0:0:0:
288,224,35623,1,0,0:0:0:0:
288,224,36003,1,8,0:0:0:0:
288,224,36762,1,4,0:0:0:0:
288,224,37142,1,8,0:0:0:0:
288,224,37522,1,8,0:0:0:0:
288,224,38281,1,8,0:0:0:0:
288,224,38661,1,8,0:0:0:0:
288,224,39041,1,8,0:0:0:0:
288,224,39800,1,8,0:0:0:0:
288,224,40180,1,0,0:0:0:0:
288,224,40560,1,8,0:0:0:0:
288,224,41319,1,8,0:0:0:0:
288,224,41699,1,0,0:0:0:0:
288,224,41889,1,0,0:0:0:0:
288,224,42079,1,8,0:0:0:0:
288,224,42458,1,0,0:0:0:0:
288,224,42838,1,4,0:0:0:0:
288,224,43218,1,8,0:0:0:0:
288,224,43408,1,0,0:0:0:0:
288,224,43598,1,8,0:0:0:0:
272,224,43977,1,0,0:0:0:0:
288,224,44357,1,8,0:0:0:0:
288,224,45117,1,8,0:0:0:0:
288,224,45496,1,0,0:0:0:0:
256,192,45876,12,0,47395,0:0:0:0:
256,176,48914,5,12,0:0:0:0:
296,220,49294,1,0,0:0:0:0:
256,176,49484,1,0,0:0:0:0:
256,176,49674,1,8,0:0:0:0:
256,176,50053,1,8,0:0:0:0:
256,176,50433,1,8,0:0:0:0:
248,176,50813,1,8,0:0:0:0:
256,176,51003,1,0,0:0:0:0:
256,176,51193,1,8,0:0:0:0:
256,176,51572,1,8,0:0:0:0:
256,176,51952,1,0,0:0:0:0:
256,176,52332,1,0,0:0:0:0:
256,176,52712,1,8,0:0:0:0:
244,168,52901,1,8,0:0:0:0:
256,176,53091,1,0,0:0:0:0:
256,176,53281,1,8,0:0:0:0:
256,192,53851,1,0,0:0:0:0:
256,176,54231,1,8,0:0:0:0:
172,208,54610,2,0,L|168:60,1,140
256,192,55750,1,8,0:0:0:0:
256,192,56129,1,0,0:0:0:0:
256,192,56319,1,8,0:0:0:0:
256,192,56509,1,0,0:0:0:0:
256,192,56889,1,0,0:0:0:0:
256,192,57269,1,8,0:0:0:0:
256,192,57648,1,8,0:0:0:0:
256,192,57838,1,8,0:0:0:0:
256,192,58028,1,0,0:0:0:0:
256,192,58788,1,8,0:0:0:0:
256,192,59167,1,0,0:0:0:0:
256,192,59547,1,0,0:0:0:0:
272,184,59737,1,0,0:0:0:0:
272,184,59927,1,8,0:0:0:0:
256,192,60307,1,8,0:0:0:0:
256,192,60686,1,0,0:0:0:0:
256,192,61066,1,12,0:0:0:0:
256,192,61825,1,8,0:0:0:0:
276,248,62205,1,0,0:0:0:0:
272,184,62585,1,0,0:0:0:0:
256,192,63344,1,8,0:0:0:0:
256,192,63724,1,8,0:0:0:0:
256,192,63914,1,0,0:0:0:0:
256,192,64104,1,8,0:0:0:0:
256,192,64484,1,0,0:0:0:0:
256,192,64863,1,8,0:0:0:0:
256,192,65243,1,0,0:0:0:0:
256,192,65433,1,8,0:0:0:0:
256,176,65623,1,0,0:0:0:0:
256,192,66003,1,0,0:0:0:0:
256,192,66382,1,0,0:0:0:0:
152,216,66762,2,0,L|152:76,1,140
256,192,67901,1,8,0:0:0:0:
256,192,68281,1,0,0:0:0:0:
256,192,68471,1,8,0:0:0:0:
256,192,68661,1,0,0:0:0:0:
256,192,69041,1,0,0:0:0:0:
256,192,69420,1,8,0:0:0:0:
256,192,69800,1,8,0:0:0:0:
256,192,69990,1,0,0:0:0:0:
256,192,70180,1,8,0:0:0:0:
256,192,70560,1,8,0:0:0:0:
256,192,70939,1,8,0:0:0:0:
256,192,71319,1,0,0:0:0:0:
256,192,71699,1,8,0:0:0:0:
256,192,72079,1,8,0:0:0:0:
256,192,73218,1,12,0:0:0:0:
256,192,73598,1,0,0:0:0:0:
256,192,73788,1,0,0:0:0:0:
256,192,73977,1,8,0:0:0:0:
256,192,74357,1,0,0:0:0:0:
256,192,74737,5,0,0:0:0:0:
256,192,75117,1,0,0:0:0:0:
256,192,75496,1,8,0:0:0:0:
256,192,75876,1,8,0:0:0:0:
256,192,76066,1,8,0:0:0:0:
256,192,76256,1,0,0:0:0:0:
256,192,76636,1,8,0:0:0:0:
256,192,76825,1,0,0:0:0:0:
256,192,77015,1,8,0:0:0:0:
256,192,77395,5,0,0:0:0:0:
256,192,78155,1,0,0:0:0:0:
256,192,78534,1,8,0:0:0:0:
216,252,78914,2,0,L|216:92,1,140
256,192,79674,1,0,0:0:0:0:
256,192,79863,1,0,0:0:0:0:
272,192,80053,1,8,0:0:0:0:
256,192,80433,1,0,0:0:0:0:
272,192,80623,1,8,0:0:0:0:
256,192,80813,1,0,0:0:0:0:
272,192,81572,1,8,0:0:0:0:
272,192,81952,1,8,0:0:0:0:
256,200,82142,1,8,0:0:0:0:
256,192,82332,1,0,0:0:0:0:
256,192,82712,1,8,0:0:0:0:
272,192,82901,1,0,0:0:0:0:
256,192,83091,1,8,0:0:0:0:
256,192,83471,1,0,0:0:0:0:
256,192,83661,1,8,0:0:0:0:
148,224,84990,2,0,L|140:72,1,140
256,176,85750,1,0,0:0:0:0:
264,184,85939,1,0,0:0:0:0:
256,176,86129,1,8,0:0:0:0:
272,192,86509,1,8,0:0:0:0:
256,192,86889,1,0,0:0:0:0:
256,176,87079,1,8,0:0:0:0:
256,176,87269,1,0,0:0:0:0:
272,192,87648,1,8,0:0:0:0:
256,176,88028,1,8,0:0:0:0:
272,208,88408,1,0,0:0:0:0:
272,192,88788,1,0,0:0:0:0:
272,192,89167,1,8,0:0:0:0:
272,192,89927,1,8,0:0:0:0:
256,192,90307,1,0,0:0:0:0:
272,192,90686,1,8,0:0:0:0:
192,224,91066,2,0,L|188:52,1,140
272,192,91825,1,0,0:0:0:0:
272,192,92205,1,8,0:0:0:0:
272,192,92585,1,8,0:0:0:0:
272,192,92775,1,8,0:0:0:0:
272,192,92965,1,0,0:0:0:0:
272,192,93344,1,0,0:0:0:0:
272,192,93724,1,8,0:0:0:0:
272,192,94104,1,8,0:0:0:0:
272,192,94484,1,0,0:0:0:0:
240,176,94863,1,0,0:0:0:0:
240,176,95053,1,0,0:0:0:0:
240,176,95243,1,8,0:0:0:0:
240,176,95433,1,0,0:0:0:0:
240,176,95813,1,0,0:0:0:0:
240,176,96003,1,8,0:0:0:0:
240,176,96193,1,8,0:0:0:0:
240,176,96382,1,0,0:0:0:0:
240,176,96762,1,8,0:0:0:0:
240,176,96952,1,0,0:0:0:0:
240,176,97142,1,8,0:0:0:0:
240,176,97332,1,8,0:0:0:0:
240,176,97901,1,0,0:0:0:0:
240,176,98281,1,8,0:0:0:0:
240,176,98851,1,8,0:0:0:0:
240,176,99041,1,0,0:0:0:0:
240,176,99800,1,8,0:0:0:0:
256,168,100180,1,8,0:0:0:0:
240,176,100370,1,0,0:0:0:0:
240,176,100560,1,8,0:0:0:0:
240,176,100939,1,0,0:0:0:0:
240,176,101319,1,8,0:0:0:0:
240,176,102079,1,0,0:0:0:0:
240,176,102458,1,0,0:0:0:0:
240,176,102838,1,8,0:0:0:0:
128,208,103218,2,0,L|124:68,1,140
224,176,103977,1,8,0:0:0:0:
256,168,104167,1,0,0:0:0:0:
240,160,104357,1,8,0:0:0:0:
256,168,104547,1,0,0:0:0:0:
240,160,105117,1,0,0:0:0:0:
240,160,105307,1,8,0:0:0:0:
240,160,105496,1,0,0:0:0:0:
240,160,105876,1,0,0:0:0:0:
240,160,106256,1,8,0:0:0:0:
240,160,106636,1,0,0:0:0:0:
240,160,107015,1,0,0:0:0:0:
240,160,107775,1,0,0:0:0:0:
240,160,108155,1,0,0:0:0:0:
240,160,108534,1,0,0:0:0:0:
240,160,109674,1,12,0:0:0:0:
240,160,110053,1,8,0:0:0:0:
240,160,110433,1,8,0:0:0:0:
240,160,110623,1,8,0:0:0:0:
240,160,110813,1,0,0:0:0:0:
240,160,111193,1,8,0:0:0:0:
240,160,111382,1,0,0:0:0:0:
240,160,111572,1,8,0:0:0:0:
240,160,111952,1,8,0:0:0:0:
240,160,112712,1,0,0:0:0:0:
228,160,112901,1,0,0:0:0:0:
240,160,113091,1,8,0:0:0:0:
240,160,113471,1,0,0:0:0:0:
228,160,113851,1,8,0:0:0:0:
240,160,114231,1,8,0:0:0:0:
240,160,114610,1,0,0:0:0:0:
240,160,115370,1,8,0:0:0:0:
240,160,115750,1,0,0:0:0:0:
240,160,116129,1,8,0:0:0:0:
240,160,116509,1,8,0:0:0:0:
240,160,116889,1,8,0:0:0:0:
240,160,117079,1,0,0:0:0:0:
240,160,117269,1,8,0:0:0:0:
240,160,117648,1,8,0:0:0:0:
240,160,118028,1,8,0:0:0:0:
240,160,118408,1,8,0:0:0:0:
256,192,118788,12,0,120307,0:0:0:0:
256,176,121825,5,12,0:0:0:0:
256,176,122585,1,8,0:0:0:0:
240,160,122965,1,0,0:0:0:0:
256,176,123155,1,8,0:0:0:0:
256,176,123344,1,0,0:0:0:0:
248,176,123724,1,8,0:0:0:0:
256,176,124104,5,8,0:0:0:0:
256,176,124863,1,0,0:0:0:0:
256,176,125243,1,0,0:0:0:0:
256,176,125433,1,0,0:0:0:0:
256,176,125623,1,8,0:0:0:0:
256,176,126002,1,0,0:0:0:0:
256,176,126192,1,8,0:0:0:0:
272,192,126382,1,8,0:0:0:0:
256,192,126762,1,8,0:0:0:0:
256,176,127522,1,8,0:0:0:0:
256,176,127901,1,12,0:0:0:0:
256,192,128281,1,0,0:0:0:0:
256,192,128661,1,8,0:0:0:0:
256,192,129040,1,0,0:0:0:0:
256,192,129230,1,8,0:0:0:0:
256,192,129420,1,0,0:0:0:0:
256,192,129800,1,0,0:0:0:0:
256,192,130180,1,8,0:0:0:0:
256,192,130939,1,0,0:0:0:0:
256,192,131319,1,8,0:0:0:0:
256,192,131699,1,8,0:0:0:0:
244,168,131889,1,0,0:0:0:0:
256,192,132079,1,8,0:0:0:0:
256,192,132458,1,0,0:0:0:0:
256,192,132648,1,8,0:0:0:0:
256,192,133218,1,8,0:0:0:0:
256,192,133598,1,8,0:0:0:0:
256,192,133977,1,12,0:0:0:0:
256,192,134736,1,8,0:0:0:0:
256,192,135117,1,0,0:0:0:0:
256,192,135306,1,8,0:0:0:0:
256,192,135496,1,8,0:0:0:0:
256,192,135876,1,0,0:0:0:0:
256,192,136255,1,8,0:0:0:0:
256,192,137015,1,8,0:0:0:0:
256,192,137395,1,0,0:0:0:0:
256,192,137774,1,8,0:0:0:0:
256,192,138154,1,0,0:0:0:0:
256,192,138534,1,8,0:0:0:0:
256,192,138724,1,8,0:0:0:0:
256,192,138914,1,0,0:0:0:0:
256,192,139293,1,0,0:0:0:0:
140,208,139674,2,0,L|140:60,1,140
256,192,140812,1,8,0:0:0:0:
256,192,141192,1,0,0:0:0:0:
256,192,141382,1,8,0:0:0:0:
256,192,141572,1,0,0:0:0:0:
256,192,141952,1,0,0:0:0:0:
256,192,142331,1,8,0:0:0:0:
256,192,143091,1,12,0:0:0:0:
256,192,143471,1,8,0:0:0:0:
256,192,143850,1,8,0:0:0:0:
256,192,144230,1,0,0:0:0:0:
256,192,144420,1,8,0:0:0:0:
256,192,144990,1,8,0:0:0:0:
256,192,146129,1,12,0:0:0:0:
256,176,158281,5,12,0:0:0:0:
288,208,159041,1,0,0:0:0:0:
288,208,159420,1,0,0:0:0:0:
288,208,159800,1,0,0:0:0:0:
288,208,160180,1,0,0:0:0:0:
288,208,160560,1,8,0:0:0:0:
288,208,161319,1,8,0:0:0:0:
256,176,161699,1,8,0:0:0:0:
256,176,162079,1,8,0:0:0:0:
272,208,162458,1,0,0:0:0:0:
272,208,162838,1,0,0:0:0:0:
272,208,163598,1,8,0:0:0:0:
144,204,163977,2,0,L|140:64,1,125.999996154785
192,176,164737,1,0,0:0:0:0:
192,176,165496,1,0,0:0:0:0:
192,176,165876,1,0,0:0:0:0:
192,176,166256,1,0,0:0:0:0:
192,176,167015,1,0,0:0:0:0:
256,192,167395,12,0,170433,0:0:0:0:
256,176,171952,5,12,0:0:0:0:
256,176,172712,1,8,0:0:0:0:
256,176,173281,1,8,0:0:0:0:
256,176,173471,1,8,0:0:0:0:
248,176,173661,1,0,0:0:0:0:
256,176,174231,1,8,0:0:0:0:
256,176,174610,1,8,0:0:0:0:
256,176,174800,1,8,0:0:0:0:
256,176,174990,1,0,0:0:0:0:
256,176,175370,1,0,0:0:0:0:
256,176,175750,1,8,0:0:0:0:
272,192,176509,1,8,0:0:0:0:
272,192,176699,1,0,0:0:0:0:
256,192,176889,1,0,0:0:0:0:
256,176,177269,1,0,0:0:0:0:
256,176,177648,1,0,0:0:0:0:
256,176,178028,1,8,0:0:0:0:
256,192,178788,1,8,0:0:0:0:
256,192,179167,1,8,0:0:0:0:
256,192,179547,1,0,0:0:0:0:
256,192,179737,1,8,0:0:0:0:
256,192,179927,1,0,0:0:0:0:
256,192,180307,1,8,0:0:0:0:
256,192,180686,1,8,0:0:0:0:
256,192,180876,1,8,0:0:0:0:
256,192,181066,1,0,0:0:0:0:
256,192,181446,1,8,0:0:0:0:
256,192,182205,1,0,0:0:0:0:
256,192,182585,1,0,0:0:0:0:
256,192,182775,1,8,0:0:0:0:
256,192,182965,1,0,0:0:0:0:
256,192,183345,1,8,0:0:0:0:
256,192,183724,1,0,0:0:0:0:
256,192,184104,1,12,0:0:0:0:
256,192,184863,1,8,0:0:0:0:
256,192,185243,1,0,0:0:0:0:
256,192,185433,1,8,0:0:0:0:
256,192,185623,1,0,0:0:0:0:
256,192,186003,1,0,0:0:0:0:
256,192,186382,1,8,0:0:0:0:
256,192,186762,1,8,0:0:0:0:
256,192,187142,1,0,0:0:0:0:
256,192,187901,1,8,0:0:0:0:
256,192,188281,1,0,0:0:0:0:
256,192,188471,1,8,0:0:0:0:
256,192,188661,1,0,0:0:0:0:
256,192,189041,1,0,0:0:0:0:
256,192,189420,1,8,0:0:0:0:
160,240,189800,2,0,L|168:72,1,140
256,192,190560,1,8,0:0:0:0:
256,192,190939,1,8,0:0:0:0:
256,192,191319,1,0,0:0:0:0:
256,192,191699,1,8,0:0:0:0:
72,12,191889,1,8,0:0:0:0:
256,192,192079,1,0,0:0:0:0:
256,192,192458,1,8,0:0:0:0:
256,192,192838,1,8,0:0:0:0:
256,192,193028,1,0,0:0:0:0:
256,192,193218,1,8,0:0:0:0:
256,192,193598,1,8,0:0:0:0:
256,192,193977,1,8,0:0:0:0:
256,192,194357,1,0,0:0:0:0:
256,192,194547,1,8,0:0:0:0:
256,192,196256,1,12,0:0:0:0:
256,192,196636,1,0,0:0:0:0:
256,192,196826,1,0,0:0:0:0:
256,192,197015,1,8,0:0:0:0:
256,192,197585,1,8,0:0:0:0:
256,192,197775,1,0,0:0:0:0:
256,192,197965,1,8,0:0:0:0:
256,192,198534,1,8,0:0:0:0:
256,192,198914,1,8,0:0:0:0:
256,192,199294,1,0,0:0:0:0:
256,192,199674,1,0,0:0:0:0:
256,192,199863,1,0,0:0:0:0:
256,192,200053,1,8,0:0:0:0:
256,192,200433,5,0,0:0:0:0:
256,192,200813,1,0,0:0:0:0:
256,192,201193,1,8,0:0:0:0:
256,192,201383,1,0,0:0:0:0:
256,192,201572,1,8,0:0:0:0:
172,248,201952,2,0,L|180:92,1,140
256,192,202712,1,0,0:0:0:0:
256,192,202901,1,0,0:0:0:0:
272,192,203091,1,8,0:0:0:0:
256,192,203471,1,0,0:0:0:0:
256,192,203851,1,0,0:0:0:0:
272,192,204610,1,8,0:0:0:0:
272,192,204990,1,8,0:0:0:0:
256,188,205180,1,8,0:0:0:0:
256,192,205370,1,0,0:0:0:0:
256,192,205750,1,8,0:0:0:0:
272,192,205939,1,0,0:0:0:0:
256,192,206129,1,8,0:0:0:0:
256,192,206509,1,0,0:0:0:0:
256,192,206699,1,8,0:0:0:0:
252,184,206889,1,8,0:0:0:0:
252,184,207269,1,8,0:0:0:0:
252,184,207648,1,8,0:0:0:0:
256,176,208028,1,8,0:0:0:0:
