osu file format v14

[General]
AudioFilename: BTS - DOPE.mp3
AudioLeadIn: 0
PreviewTime: 96385
Countdown: 0
SampleSet: Soft
StackLeniency: 0.7
Mode: 0
LetterboxInBreaks: 0
WidescreenStoryboard: 0

[Editor]
Bookmarks: 21549,55835,58952,71419,90120,133757,146224,164926,208562
DistanceSpacing: 1.1
BeatDivisor: 4
GridSize: 4
TimelineZoom: 1.599999

[Metadata]
Title:DOPE
TitleUnicode:쩔어
Artist:BTS
ArtistUnicode:방탄소년단
Creator:DeRandom Otaku
Version:Veyron's Insane
Source:
Tags:kpop trap 화양연화 The Most Beautiful Moment In Life Pt. 1 jimin suga jungkook rapmonster jin v jhope bighit entertainment 랩몬스터 슈가 진 제이홉 지민 뷔 정국 Cerulean Veyron
BeatmapID:1060652
BeatmapSetID:497583

[Difficulty]
HPDrainRate:6.5
CircleSize:4.5
OverallDifficulty:7
ApproachRate:9
SliderMultiplier:1.7
SliderTickRate:1

[Events]
//Background and Video events
0,0,"bg.jpg",0,0
//Break Periods
2,47903,55290
2,122903,130095
2,196929,204900
//Storyboard Layer 0 (Background)
//Storyboard Layer 1 (Fail)
//Storyboard Layer 2 (Pass)
//Storyboard Layer 3 (Foreground)
//Storyboard Sound Samples

[TimingPoints]
9137,389.61038961039,4,2,1,50,1,0
10890,-142.857142857143,4,2,1,40,0,0
11669,-100,4,2,1,50,0,0
14007,-142.857142857143,4,2,1,40,0,0
14591,-100,4,2,1,50,0,0
17124,-142.857142857143,4,2,1,40,0,0
17903,-100,4,2,1,50,0,0
32513,-100,4,2,1,30,0,0
33682,-50,4,2,1,70,0,0
34072,-83.3333333333333,4,2,2,80,0,1
46539,-100,4,2,1,60,0,0
61344,-83.3333333333333,4,2,1,40,0,0
62124,-100,4,2,1,60,0,0
64461,-83.3333333333333,4,2,1,40,0,0
65240,-100,4,2,1,60,0,0
70695,-71.4285714285714,4,2,1,50,0,0
71474,-100,4,2,1,60,0,0
73227,-142.857142857143,4,2,1,60,0,0
73812,-100,4,2,1,60,0,0
76344,-142.857142857143,4,2,1,60,0,0
76929,-100,4,2,1,60,0,0
79461,-142.857142857143,4,2,1,60,0,0
80046,-100,4,2,1,60,0,0
83942,-100,4,2,1,60,0,0
94851,-100,4,2,1,30,0,0
96020,-50,4,2,1,70,0,0
96409,-83.3333333333333,4,2,2,80,0,1
108487,-50,4,2,2,80,0,0
108877,-83.3333333333333,4,2,2,80,0,1
121344,-100,4,2,1,50,0,0
133812,-100,4,2,1,60,0,0
169656,-100,4,2,1,30,0,0
170825,-50,4,2,1,70,0,0
171214,-83.3333333333333,4,2,2,80,0,1
183292,-50,4,2,2,80,0,0
183682,-83.3333333333333,4,2,2,80,0,1
196149,-100,4,2,1,40,0,0
220695,-50,4,2,1,80,0,0
221085,-83.3333333333333,4,2,2,90,0,1
233552,-142.857142857143,4,2,0,20,0,0

[Colours]
Combo1 : 255,26,26
Combo2 : 255,111,111
Combo3 : 9,255,255
Combo4 : 30,113,251

[HitObjects]
324,232,8552,5,0,2:0:0:0:
327,248,8649,1,0,2:0:0:0:
331,264,8747,1,0,2:0:0:0:
205,137,8942,1,0,0:0:0:0:
398,104,9137,5,6,0:0:0:0:
398,103,9526,2,0,P|372:140|332:164,1,85,0|0,0:0|0:0,0:0:0:0:
198,98,9916,1,0,0:0:0:0:
257,159,10111,1,0,0:0:0:0:
92,123,10305,1,0,0:0:0:0:
115,41,10500,1,0,0:0:0:0:
144,303,10695,5,2,0:0:0:0:
36,213,10890,2,0,P|117:135|216:187,1,237.999992736817,0|0,0:0|0:0,0:0:0:0:
333,311,11864,2,0,L|356:219,1,85,0|0,0:0|0:0,0:0:0:0:
426,75,12253,6,0,L|449:167,1,85,2|0,0:0|0:0,0:0:0:0:
268,139,12643,2,0,P|310:141|349:127,1,85,0|0,0:0|0:0,0:0:0:0:
198,48,13033,1,0,0:0:0:0:
114,35,13228,1,0,0:0:0:0:
184,152,13423,1,0,0:0:0:0:
268,139,13618,1,0,0:0:0:0:
60,101,13812,5,2,0:0:0:0:
51,220,14007,2,0,B|56:257|82:278|82:278|123:269|123:269|149:295|185:296,1,178.499994552612,0|0,0:0|0:0,0:0:0:0:
398,240,14786,1,0,0:0:0:0:
398,240,14883,1,0,0:0:0:0:
398,240,14981,2,0,P|355:238|313:244,1,85,0|0,0:0|0:0,0:0:0:0:
190,147,15370,6,0,P|232:145|274:151,1,85,2|0,0:0|0:0,0:0:0:0:
177,55,15760,2,0,P|135:75|99:113,1,85,0|0,0:0|0:0,0:0:0:0:
99,288,16149,1,0,0:0:0:0:
125,207,16344,1,0,0:0:0:0:
239,345,16539,1,0,0:0:0:0:
213,264,16734,1,0,0:0:0:0:
416,327,16929,5,2,0:0:0:0:
202,274,17124,2,0,P|224:178|350:181,1,237.999992736817,0|0,0:0|0:0,0:0:0:0:
287,54,18098,2,0,L|259:144,1,85,0|0,0:0|0:0,0:0:0:0:
448,208,18487,6,0,L|422:126,1,85,2|0,0:0|0:0,0:0:0:0:
298,256,18877,2,0,P|336:275|381:277,1,85,0|0,0:0|0:0,0:0:0:0:
448,208,19266,1,0,0:0:0:0:
246,179,19461,1,0,0:0:0:0:
268,261,19656,1,0,0:0:0:0:
224,334,19851,1,0,0:0:0:0:
141,353,20046,6,0,P|97:349|52:333,1,85,2|0,0:0|0:0,0:0:0:0:
193,194,20435,2,0,P|211:234|220:281,1,85,0|0,0:0|0:0,0:0:0:0:
28,229,20825,2,0,P|53:192|89:161,1,85,0|0,0:0|0:0,0:0:0:0:
83,165,21117,1,0,0:0:0:0:
83,165,21214,1,0,0:0:0:0:
285,73,21409,1,0,0:0:0:0:
211,245,21604,6,0,P|130:234|83:166,1,170,4|8,0:0|0:0,0:0:0:0:
273,187,22188,1,0,0:0:0:0:
273,187,22383,2,0,L|292:282,1,85,8|0,0:0|0:0,0:0:0:0:
425,249,22773,2,0,L|407:344,1,85,8|8,0:0|0:0,0:0:0:0:
503,171,23162,5,8,0:0:0:0:
348,242,23357,1,8,0:0:0:0:
503,145,23552,2,0,P|448:131|417:128,1,85,8|0,0:0|0:0,0:0:0:0:
281,228,23942,2,0,P|323:222|364:211,1,85,8|0,0:0|0:0,0:0:0:0:
364,211,24234,1,0,0:0:0:0:
364,211,24331,1,8,0:0:0:0:
229,138,24526,1,0,0:0:0:0:
246,307,24721,6,0,P|316:291|365:195,1,170,4|8,0:0|0:0,0:0:0:0:
325,72,25305,1,0,0:0:0:0:
325,72,25500,2,0,B|304:121|304:121|296:159,1,85,8|0,0:0|0:0,0:0:0:0:
129,125,25890,2,0,B|155:107|155:107|205:87,1,85,8|8,0:0|0:0,0:0:0:0:
83,206,26279,5,8,0:0:0:0:
44,130,26474,1,8,0:0:0:0:
172,214,26669,2,0,P|152:259|119:285,1,85,8|0,0:0|0:0,0:0:0:0:
308,341,27059,2,0,P|269:324|240:293,1,85,8|0,0:0|0:0,0:0:0:0:
240,293,27351,1,0,0:0:0:0:
240,293,27448,1,8,0:0:0:0:
247,140,27643,1,0,0:0:0:0:
462,208,27838,6,0,P|416:215|376:209,1,85,12|0,3:2|3:0,0:0:0:0:
247,140,28227,2,0,P|293:147|333:141,1,85,8|0,3:2|3:0,0:0:0:0:
172,33,28617,2,0,L|154:121,1,85,8|0,3:2|3:0,0:0:0:0:
82,290,29007,2,0,L|64:202,1,85,8|0,3:2|3:0,0:0:0:0:
241,175,29396,5,8,3:2:0:0:
156,170,29591,1,0,3:0:0:0:
285,253,29786,1,8,3:2:0:0:
331,181,29981,1,0,3:0:0:0:
195,250,30175,1,8,3:2:0:0:
234,325,30370,1,0,3:2:0:0:
234,325,30468,1,0,0:0:0:0:
234,325,30565,2,0,L|322:356,1,85,8|0,3:2|3:0,0:0:0:0:
115,237,30955,6,0,L|68:220,3,42.5,8|0|8|0,3:2|3:2|3:2|3:0,0:0:0:0:
98,141,31344,2,0,L|72:97,3,42.5,8|0|8|0,3:2|3:0|3:2|3:0,0:0:0:0:
148,57,31734,1,8,3:2:0:0:
176,66,31831,1,0,3:0:0:0:
205,72,31928,1,8,3:2:0:0:
235,73,32026,1,0,3:0:0:0:
264,70,32123,1,8,3:2:0:0:
293,64,32221,1,0,3:0:0:0:
321,54,32318,1,8,3:2:0:0:
319,84,32415,1,0,3:0:0:0:
315,113,32513,5,0,0:0:0:0:
319,232,32903,1,0,0:0:0:0:
412,305,33292,1,0,0:0:0:0:
412,305,33682,6,0,B|346:298|346:298|325:303|311:317|311:317|263:309|263:309|218:328|179:314,1,212.5,0|0,0:0|0:0,0:0:0:0:
63,345,34072,6,0,P|108:311|119:164,1,203.999993774414,4|0,3:2|0:0,0:0:0:0:
48,77,34656,1,0,0:0:0:0:
175,224,34851,2,0,P|227:219|281:194,1,101.999996887207,8|0,0:0|0:0,0:0:0:0:
445,137,35240,2,0,P|392:132|338:107,1,101.999996887207,0|0,3:2|0:0,0:0:0:0:
259,28,35630,5,0,0:0:0:0:
166,108,35825,1,0,0:0:0:0:
341,214,36020,1,0,3:0:0:0:
261,121,36215,1,0,0:0:0:0:
374,238,36409,2,0,B|444:228|444:228|473:209,1,101.999996887207,8|0,0:0|3:0,0:0:0:0:
284,103,36799,2,0,B|214:113|214:113|185:132,1,101.999996887207,0|0,0:0|3:0,0:0:0:0:
100,331,37188,6,0,P|232:221|248:181,1,203.999993774414,4|0,3:2|0:0,0:0:0:0:
120,207,37773,1,0,0:0:0:0:
305,315,37968,2,0,L|204:319,1,101.999996887207,8|0,0:0|0:0,0:0:0:0:
434,238,38357,2,0,L|333:234,1,101.999996887207,0|0,3:0|0:0,0:0:0:0:
447,320,38747,5,0,0:0:0:0:
482,192,38942,1,0,0:0:0:0:
342,44,39137,1,0,3:0:0:0:
377,172,39332,1,0,0:0:0:0:
231,62,39526,2,0,P|180:57|129:61,1,101.999996887207,8|0,0:0|3:0,0:0:0:0:
192,191,39916,2,0,P|242:195|293:190,1,101.999996887207,0|0,0:0|3:0,0:0:0:0:
84,122,40305,6,0,P|62:175|144:296,1,203.999993774414,4|0,3:2|0:0,0:0:0:0:
254,302,40890,1,0,0:0:0:0:
468,233,41085,2,0,B|395:225|395:225|364:233,1,101.999996887207,8|0,0:0|0:0,0:0:0:0:
216,147,41474,2,0,B|243:154|243:154|316:146,1,101.999996887207,0|0,3:0|0:0,0:0:0:0:
408,64,41864,5,0,0:0:0:0:
473,168,42059,1,0,0:0:0:0:
263,207,42253,1,0,3:0:0:0:
283,86,42448,1,0,0:0:0:0:
460,277,42643,1,8,0:0:0:0:
339,299,42838,1,0,3:0:0:0:
370,180,43033,2,0,L|405:70,1,101.999996887207,0|0,0:0|3:0,0:0:0:0:
437,284,43422,6,0,P|376:205|277:200,1,203.999993774414,4|0,3:2|0:0,0:0:0:0:
194,290,44007,1,0,3:0:0:0:
318,111,44201,2,0,P|252:186|134:225,1,203.999993774414,0|0,0:0|3:0,0:0:0:0:
36,202,44786,1,0,0:0:0:0:
215,59,44981,6,0,P|265:66|306:96,1,101.999996887207,0|0,0:0|3:0,0:0:0:0:
138,221,45370,2,0,P|88:213|47:183,1,101.999996887207,0|0,0:0|0:0,0:0:0:0:
179,139,45760,1,8,0:0:0:0:
188,145,46149,1,8,0:0:0:0:
195,151,46539,5,4,0:0:0:0:
363,165,55890,6,0,P|399:115|391:211,1,255,8|8,0:0|0:0,0:0:0:0:
159,151,57059,2,0,P|123:201|131:105,1,255,8|8,0:0|0:0,0:0:0:0:
115,99,57740,1,8,0:0:0:0:
115,99,57838,1,8,0:0:0:0:
234,54,58033,1,8,0:0:0:0:
123,229,58227,2,0,L|109:330,1,85,8|8,0:0|0:0,0:0:0:0:
289,251,58617,2,0,L|275:150,1,85,8|8,0:0|0:0,0:0:0:0:
299,102,58909,1,8,0:0:0:0:
299,102,59007,6,0,P|266:176|186:190,1,170,4|0,3:2|0:0,0:0:0:0:
95,142,59591,1,0,3:0:0:0:
216,296,59786,2,0,P|241:262|258:223,1,85,8|0,0:0|0:0,0:0:0:0:
424,264,60175,2,0,P|382:258|339:263,1,85,0|0,3:0|0:0,0:0:0:0:
347,127,60565,2,0,P|355:197|424:264,1,170,0|0,0:0|0:0,0:0:0:0:
424,264,61344,5,0,0:0:0:0:
424,264,61539,2,0,B|368:257|368:257|346:268|346:268|294:264|294:264|270:273|270:273|225:266,1,203.999993774414,0|0,0:0|0:0,0:0:0:0:
124,331,62124,6,0,B|159:309|159:309|232:203,1,170,0|0,3:0|0:0,0:0:0:0:
256,104,62708,1,0,0:0:0:0:
69,97,62903,2,0,P|131:124|176:122,1,106.25,8|0,0:0|0:0,0:0:0:0:
256,104,63292,2,0,L|343:109,1,85,0|0,3:0|0:0,0:0:0:0:
444,245,63682,1,0,0:0:0:0:
359,240,63876,1,0,0:0:0:0:
274,235,64072,1,0,0:0:0:0:
274,235,64461,5,0,0:0:0:0:
274,235,64656,2,0,B|245:209|210:209|210:209|200:238|171:257|171:257|133:256|109:227,1,203.999993774414,0|0,0:0|0:0,0:0:0:0:
251,141,65240,6,0,P|290:155|325:179,1,85,0|0,3:0|0:0,0:0:0:0:
138,321,65630,1,0,0:0:0:0:
110,311,65727,1,0,0:0:0:0:
84,296,65824,1,0,3:0:0:0:
143,126,66020,2,0,P|150:167|146:210,1,85,8|0,0:0|0:0,0:0:0:0:
98,92,66409,1,0,3:0:0:0:
119,90,66506,1,0,0:0:0:0:
140,89,66603,1,0,0:0:0:0:
161,87,66701,1,0,0:0:0:0:
182,86,66799,6,0,L|279:78,1,85,0|0,0:0|0:0,0:0:0:0:
349,33,67091,1,0,0:0:0:0:
349,33,67188,2,0,P|361:73|354:114,1,85,0|0,3:0|0:0,0:0:0:0:
282,177,67481,1,0,0:0:0:0:
282,177,67578,2,0,B|326:184|326:184|363:205,1,85,8|0,0:0|3:0,0:0:0:0:
412,331,67968,1,0,0:0:0:0:
391,327,68065,1,0,0:0:0:0:
370,324,68162,1,0,3:0:0:0:
351,314,68260,1,0,0:0:0:0:
334,304,68357,6,0,P|293:292|250:294,1,85,8|0,0:0|0:0,0:0:0:0:
156,335,68747,1,0,0:0:0:0:
205,159,68942,2,0,P|179:195|170:235,1,85,8|0,0:0|0:0,0:0:0:0:
156,335,69331,1,0,0:0:0:0:
9,226,69526,2,0,P|32:263|66:286,1,85,8|0,0:0|0:0,0:0:0:0:
156,335,69916,5,0,0:0:0:0:
63,134,70111,1,8,0:0:0:0:
63,134,70208,1,8,0:0:0:0:
63,134,70305,2,0,P|70:93|90:55,1,85,8|0,0:0|0:0,0:0:0:0:
219,26,70695,5,0,0:0:0:0:
219,26,70890,2,0,B|206:53|206:53|216:76|216:76|210:101|210:101|230:115|230:115|238:141|238:141|264:144|264:144|286:160|286:160|312:153|312:153|343:160,1,237.999992736817,0|0,0:0|0:0,0:0:0:0:
432,123,71474,6,0,P|352:186|357:259,1,170,4|8,0:0|0:0,0:0:0:0:
385,326,72059,1,0,0:0:0:0:
235,209,72253,2,0,L|330:186,1,85,8|0,0:0|0:0,0:0:0:0:
154,291,72643,1,8,0:0:0:0:
236,311,72837,1,8,0:0:0:0:
79,325,73033,5,8,0:0:0:0:
170,215,73227,2,0,P|89:242|80:326,1,178.499994552612,8|8,0:0|0:0,0:0:0:0:
225,253,74007,1,0,0:0:0:0:
225,253,74104,1,0,0:0:0:0:
225,253,74201,2,0,P|220:197|229:157,1,85,8|0,0:0|0:0,0:0:0:0:
280,345,74591,6,0,L|162:206,1,170,8|8,0:0|0:0,0:0:0:0:
96,172,75175,1,0,0:0:0:0:
214,38,75370,1,8,0:0:0:0:
201,122,75565,1,0,0:0:0:0:
341,87,75760,1,8,0:0:0:0:
354,171,75955,1,8,0:0:0:0:
188,206,76149,5,8,0:0:0:0:
372,252,76344,2,0,P|413:320|340:349,1,178.499994552612,8|8,0:0|0:0,0:0:0:0:
194,290,77124,1,0,0:0:0:0:
194,290,77221,1,0,0:0:0:0:
194,290,77318,2,0,B|248:275|248:275|277:276,1,85,8|0,0:0|0:0,0:0:0:0:
102,345,77708,6,0,P|160:285|180:204,1,170,4|8,0:0|0:0,0:0:0:0:
148,125,78292,1,0,0:0:0:0:
299,69,78487,2,0,P|257:64|216:76,1,85,8|0,0:0|0:0,0:0:0:0:
364,146,78877,1,8,0:0:0:0:
399,69,79071,1,8,0:0:0:0:
267,155,79266,5,8,0:0:0:0:
436,57,79461,2,0,P|457:139|441:237,1,178.499994552612,8|8,0:0|0:0,0:0:0:0:
399,304,80240,1,0,0:0:0:0:
335,189,80435,1,8,0:0:0:0:
291,262,80630,1,0,0:0:0:0:
356,120,80825,6,0,B|325:118|325:118|266:137,1,85,8|0,0:0|0:0,0:0:0:0:
93,68,81214,2,0,B|145:85|145:85|176:83,1,85,8|0,0:0|0:0,0:0:0:0:
6,25,81604,1,8,0:0:0:0:
97,164,81799,1,0,0:0:0:0:
64,85,81994,1,8,0:0:0:0:
108,245,82188,1,8,0:0:0:0:
260,321,82383,6,0,L|173:280,1,85,8|8,0:0|0:0,0:0:0:0:
387,264,82773,2,0,L|292:246,1,85,8|0,0:0|0:0,0:0:0:0:
459,327,83162,2,0,P|479:290|482:248,1,85,8|0,0:0|0:0,0:0:0:0:
380,75,83552,2,0,P|359:111|356:153,1,85,8|0,0:0|0:0,0:0:0:0:
465,33,83942,6,0,P|425:51|276:37,1,170,12|8,0:0|0:0,0:0:0:0:
54,112,84721,2,0,P|93:130|243:116,1,170,8|8,0:0|0:0,0:0:0:0:
294,91,85305,1,8,0:0:0:0:
456,143,85500,6,0,P|417:125|377:111,1,85,8|0,0:0|0:0,0:0:0:0:
300,235,85890,2,0,P|340:221|378:203,1,85,8|0,0:0|0:0,0:0:0:0:
192,217,86279,1,8,0:0:0:0:
270,252,86474,1,0,0:0:0:0:
347,288,86669,1,8,0:0:0:0:
424,324,86864,1,0,0:0:0:0:
205,290,87059,6,0,P|169:291|101:302,1,85,8|0,0:0|0:0,0:0:0:0:
261,155,87448,2,0,P|218:148|176:147,1,85,8|0,0:0|0:0,0:0:0:0:
398,69,87838,2,0,P|355:67|313:61,1,85,8|0,0:0|0:0,0:0:0:0:
508,42,88227,2,0,P|506:84|500:126,1,85,8|8,0:0|0:0,0:0:0:0:
332,188,88617,6,0,P|406:162|451:227,1,170,8|8,0:0|0:0,0:0:0:0:
282,244,89201,1,0,0:0:0:0:
282,244,89396,2,0,P|244:264|197:279,1,85,8|0,0:0|0:0,0:0:0:0:
52,303,89786,2,0,P|88:314|139:343,1,85,8|0,0:0|0:0,0:0:0:0:
163,204,90175,5,12,3:2:0:0:
102,112,90370,1,0,3:0:0:0:
306,128,90565,1,8,3:2:0:0:
312,17,90760,1,0,3:0:0:0:
213,128,90955,1,8,3:2:0:0:
207,17,91150,1,0,3:0:0:0:
355,202,91344,1,8,3:2:0:0:
416,110,91539,1,0,3:0:0:0:
292,244,91734,6,0,P|324:270|366:275,1,85,8|0,3:2|3:0,0:0:0:0:
476,73,92124,2,0,P|443:46|401:41,1,85,8|0,3:2|3:0,0:0:0:0:
367,277,92513,2,0,P|404:259|428:224,1,85,8|0,3:2|3:0,0:0:0:0:
402,42,92903,2,0,P|364:59|340:94,1,85,8|0,3:2|3:0,0:0:0:0:
427,200,93292,6,0,L|437:250,3,42.5,8|0|8|0,3:2|3:0|3:2|3:0,0:0:0:0:
335,205,93682,2,0,L|345:155,3,42.5,8|0|8|0,3:2|3:0|3:2|3:0,0:0:0:0:
381,268,94072,1,8,3:2:0:0:
359,269,94169,1,0,3:0:0:0:
338,271,94266,1,8,3:2:0:0:
317,273,94364,1,0,3:0:0:0:
296,274,94461,1,8,3:2:0:0:
277,264,94559,1,0,3:0:0:0:
260,254,94656,1,8,3:2:0:0:
242,243,94753,1,0,3:0:0:0:
220,245,94851,5,0,0:0:0:0:
205,247,95240,1,0,0:0:0:0:
188,249,95630,1,0,0:0:0:0:
170,253,96020,6,0,B|169:292|137:296|110:289|102:257|119:222|119:222|142:183|125:145,1,212.5,0|0,0:0|0:0,0:0:0:0:
56,53,96409,6,0,P|87:94|226:60,1,203.999993774414,4|0,3:2|0:0,0:0:0:0:
310,20,96994,1,0,0:0:0:0:
404,200,97188,2,0,P|396:128|397:96,1,101.999996887207,8|0,0:0|0:0,0:0:0:0:
280,267,97578,2,0,P|288:195|287:163,1,101.999996887207,0|0,3:0|0:0,0:0:0:0:
170,205,97968,5,0,0:0:0:0:
369,247,98162,1,0,0:0:0:0:
150,162,98357,1,0,3:0:0:0:
388,288,98551,1,0,0:0:0:0:
278,151,98747,2,0,L|261:51,1,101.999996887207,8|0,0:0|3:0,0:0:0:0:
382,146,99137,2,0,L|369:248,1,101.999996887207,0|0,0:0|3:0,0:0:0:0:
482,109,99526,6,0,P|408:43|312:64,1,203.999993774414,4|0,3:2|0:0,0:0:0:0:
255,174,100111,1,0,0:0:0:0:
87,79,100305,2,0,L|204:68,1,101.999996887207,8|0,0:0|0:0,0:0:0:0:
140,215,100695,2,0,L|23:226,1,101.999996887207,0|0,3:0|0:0,0:0:0:0:
237,278,101085,5,0,0:0:0:0:
450,289,101279,1,0,0:0:0:0:
339,341,101474,1,0,3:0:0:0:
454,173,101668,1,0,0:0:0:0:
276,149,101864,2,0,P|277:200|293:249,1,101.999996887207,8|0,0:0|3:0,0:0:0:0:
410,113,102253,2,0,P|408:62|392:13,1,101.999996887207,0|0,0:0|3:0,0:0:0:0:
205,189,102643,6,0,P|294:228|356:152,1,203.999993774414,4|0,3:2|0:0,0:0:0:0:
264,76,103227,1,0,0:0:0:0:
178,244,103422,2,0,B|172:171|172:171|185:133,1,101.999996887207,8|0,0:0|0:0,0:0:0:0:
98,360,103812,2,0,B|103:287|103:287|91:249,1,101.999996887207,0|0,3:0|0:0,0:0:0:0:
32,131,104201,5,0,0:0:0:0:
152,155,104396,1,0,0:0:0:0:
323,63,104591,1,0,3:0:0:0:
203,39,104786,1,0,0:0:0:0:
375,118,104981,2,0,B|400:73|400:73|388:22,1,101.999996887207,8|0,0:0|3:0,0:0:0:0:
176,111,105370,2,0,B|151:156|151:156|165:207,1,101.999996887207,0|0,0:0|3:0,0:0:0:0:
428,156,105760,6,0,P|342:200|288:300,1,203.999993774414,4|0,3:2|0:0,0:0:0:0:
437,307,106344,1,0,3:0:0:0:
378,106,106539,2,0,P|340:194|363:306,1,203.999993774414,0|0,0:0|3:0,0:0:0:0:
481,214,107124,1,0,0:0:0:0:
307,99,107318,2,0,P|335:191|424:261,1,203.999993774414,0|0,0:0|0:0,0:0:0:0:
436,263,108098,1,8,0:0:0:0:
436,263,108487,6,0,B|408:277|383:272|383:272|369:293|369:293|346:292|323:276|323:276|303:294|303:294|277:295|246:274,1,212.5,8|0,0:0|0:0,0:0:0:0:
9,176,108877,6,0,P|105:164|208:209,1,203.999993774414,4|0,3:2|0:0,0:0:0:0:
226,324,109461,1,0,0:0:0:0:
48,247,109656,2,0,P|100:242|150:264,1,101.999996887207,8|0,0:0|0:0,0:0:0:0:
323,311,110046,2,0,P|271:306|221:328,1,101.999996887207,0|0,3:0|0:0,0:0:0:0:
417,292,110435,5,0,0:0:0:0:
441,172,110630,1,0,0:0:0:0:
314,100,110825,1,0,3:0:0:0:
337,220,111020,1,0,0:0:0:0:
415,83,111214,2,0,P|402:44|351:3,1,101.999996887207,8|0,0:0|3:0,0:0:0:0:
282,191,111604,2,0,P|310:157|311:91,1,101.999996887207,0|0,0:0|3:0,0:0:0:0:
202,248,111994,6,0,B|334:195|334:195|401:202,1,203.999993774414,4|0,3:2|0:0,0:0:0:0:
488,281,112578,1,0,0:0:0:0:
244,308,112773,2,0,P|196:294|145:293,1,101.999996887207,8|0,0:0|0:0,0:0:0:0:
97,127,113162,2,0,P|95:177|81:226,1,101.999996887207,0|0,3:0|0:0,0:0:0:0:
38,58,113552,5,0,0:0:0:0:
231,38,113747,1,0,0:0:0:0:
133,10,113942,1,0,3:0:0:0:
270,133,114137,1,0,0:0:0:0:
138,81,114331,2,0,L|31:57,1,101.999996887207,8|0,0:0|0:0,0:0:0:0:
212,169,114721,2,0,L|319:193,1,101.999996887207,0|0,0:0|3:0,0:0:0:0:
123,143,115111,6,0,L|280:277,1,203.999993774414,4|0,3:2|0:0,0:0:0:0:
353,372,115695,1,0,0:0:0:0:
488,280,115890,2,0,P|446:272|381:280,1,101.999996887207,8|0,0:0|0:0,0:0:0:0:
393,89,116279,2,0,P|385:130|394:199,1,101.999996887207,0|0,3:0|0:0,0:0:0:0:
464,48,116669,5,0,0:0:0:0:
343,30,116864,1,0,0:0:0:0:
193,128,117059,1,0,3:0:0:0:
314,111,117254,1,0,0:0:0:0:
109,76,117448,2,0,P|94:115|106:177,1,101.999996887207,8|0,0:0|3:0,0:0:0:0:
287,197,117838,2,0,P|300:157|294:91,1,101.999996887207,0|0,0:0|3:0,0:0:0:0:
207,241,118227,6,0,L|421:203,1,203.999993774414,4|0,0:0|0:0,0:0:0:0:
264,59,119007,2,0,L|50:97,1,203.999993774414,0|0,0:0|0:0,0:0:0:0:
207,240,119786,2,0,P|257:257|410:204,1,203.999993774414,0|0,0:0|0:0,0:0:0:0:
265,60,120565,2,0,P|215:43|62:96,1,203.999993774414,8|8,0:0|0:0,0:0:0:0:
57,112,121344,5,4,3:0:0:0:
256,192,130695,12,4,132253,3:0:0:0:
254,194,132643,5,4,3:0:0:0:
361,126,133033,2,0,L|377:188,2,56.6666666666667,0|0|0,3:0|3:0|3:0,0:0:0:0:
226,107,133422,2,0,L|288:91,2,56.6666666666667,0|0|0,3:0|3:0|3:0,0:0:0:0:
82,70,133812,5,4,0:0:0:0:
100,79,133909,1,0,0:0:0:0:
117,93,134006,1,0,0:0:0:0:
130,109,134104,1,0,0:0:0:0:
61,141,134201,1,0,0:0:0:0:
57,161,134298,1,0,0:0:0:0:
58,181,134396,2,0,P|71:223|103:250,1,85,0|8,3:0|0:0,0:0:0:0:
202,230,134786,1,0,0:0:0:0:
265,370,134981,2,0,P|223:357|196:325,1,85,0|0,0:0|0:0,0:0:0:0:
332,271,135370,6,0,L|403:262,1,56.6666666666667,0|0,0:0|0:0,0:0:0:0:
450,253,135630,1,0,0:0:0:0:
349,201,135760,2,0,L|405:157,1,56.6666666666667,0|0,0:0|0:0,0:0:0:0:
442,126,136020,1,0,0:0:0:0:
327,134,136149,2,0,L|354:68,1,56.6666666666667,0|0,0:0|0:0,0:0:0:0:
372,23,136409,1,0,0:0:0:0:
274,86,136539,1,0,0:0:0:0:
274,86,136929,5,0,3:0:0:0:
252,83,137026,1,0,0:0:0:0:
231,81,137123,1,0,0:0:0:0:
210,79,137221,1,0,0:0:0:0:
179,144,137318,1,0,0:0:0:0:
157,146,137416,1,0,0:0:0:0:
136,148,137513,2,0,L|37:158,1,85,0|8,3:0|0:0,0:0:0:0:
11,251,137903,1,0,0:0:0:0:
219,241,138098,2,0,L|120:231,1,85,0|0,3:0|0:0,0:0:0:0:
226,310,138487,6,0,P|253:303|274:284,1,56.6666666666667,0|0,0:0|0:0,0:0:0:0:
285,223,138747,1,0,0:0:0:0:
315,344,138877,2,0,P|334:323|343:297,1,56.6666666666667,0|0,0:0|0:0,0:0:0:0:
322,238,139137,1,0,0:0:0:0:
408,327,139266,2,0,P|414:299|409:271,1,56.6666666666667,0|0,0:0|0:0,0:0:0:0:
361,232,139526,1,0,0:0:0:0:
478,275,139656,1,0,0:0:0:0:
478,275,140046,6,0,P|473:233|475:191,1,85,0|0,3:0|0:0,0:0:0:0:
436,47,140435,2,0,P|437:89|432:131,1,85,0|0,0:0|0:0,0:0:0:0:
383,179,140727,1,0,0:0:0:0:
383,179,140825,2,0,P|360:143|344:109,2,56.6666666666667,8|0|0,0:0|0:0|0:0,0:0:0:0:
266,136,141214,2,0,P|293:103|320:77,2,56.6666666666667,0|0|0,3:0|0:0|0:0,0:0:0:0:
268,10,141604,6,0,P|307:25|340:43,2,56.6666666666667,0|0|0,0:0|0:0|0:0,0:0:0:0:
148,48,141994,2,0,P|173:60|200:69,2,56.6666666666667,0|0|0,3:0|0:0|0:0,0:0:0:0:
183,173,142383,2,0,P|148:122|57:133,1,127.5,8|0,0:0|0:0,0:0:0:0:
139,232,142773,2,0,L|254:177,1,127.5,0|0,0:0|0:0,0:0:0:0:
355,100,143162,5,8,0:0:0:0:
351,120,143259,1,0,0:0:0:0:
350,142,143356,1,0,0:0:0:0:
354,163,143454,1,0,0:0:0:0:
360,183,143551,1,0,0:0:0:0:
371,202,143649,1,0,0:0:0:0:
378,222,143746,1,8,0:0:0:0:
381,243,143844,1,0,0:0:0:0:
381,264,143942,2,0,P|361:300|325:324,1,85,0|0,0:0|0:0,0:0:0:0:
88,241,144331,2,0,L|195:264,1,85,8|0,0:0|0:0,0:0:0:0:
325,323,144721,6,0,P|283:320|246:297,1,85,0|8,0:0|0:0,0:0:0:0:
238,288,145013,1,8,0:0:0:0:
233,275,145111,1,8,0:0:0:0:
228,131,145305,1,8,0:0:0:0:
176,324,145500,2,0,P|257:344|307:265,1,170,8|0,0:0|0:0,0:0:0:0:
165,91,146085,2,0,P|162:119|165:144,1,42.5,8|8,0:0|0:0,0:0:0:0:
177,173,146279,6,0,P|96:153|46:232,1,170,4|8,0:0|0:0,0:0:0:0:
127,243,146864,1,0,0:0:0:0:
258,205,147059,2,0,L|249:120,1,85,8|0,0:0|0:0,0:0:0:0:
363,31,147448,2,0,L|372:116,1,85,8|8,0:0|0:0,0:0:0:0:
459,198,147838,5,8,0:0:0:0:
459,198,148033,2,0,B|435:209|426:234|426:234|397:246|372:228|372:228|331:256|283:237|267:194|293:158,1,255,8|8,0:0|0:0,0:0:0:0:
374,312,148812,1,0,0:0:0:0:
374,312,148909,1,0,0:0:0:0:
373,312,149007,2,0,P|330:317|289:308,1,85,8|0,0:0|0:0,0:0:0:0:
120,316,149396,6,0,B|113:271|138:236|138:236|181:227|226:249,1,170,8|8,0:0|0:0,0:0:0:0:
290,298,149981,1,0,0:0:0:0:
120,210,150175,2,0,P|116:168|123:126,1,85,8|0,0:0|0:0,0:0:0:0:
294,170,150565,2,0,P|252:176|209:172,1,85,8|8,0:0|0:0,0:0:0:0:
330,91,150955,5,8,0:0:0:0:
330,91,151149,2,0,B|361:103|374:131|374:131|407:123|407:123|439:140|449:177|449:177|440:205|440:205|465:220|473:258,1,255,8|8,0:0|0:0,0:0:0:0:
339,287,151929,1,0,0:0:0:0:
339,287,152026,1,0,0:0:0:0:
339,287,152124,2,0,P|317:325|307:368,1,85,8|0,0:0|0:0,0:0:0:0:
404,251,152513,6,0,B|383:206|325:200|293:226|293:226|272:228|246:223,1,170,4|8,0:0|0:0,0:0:0:0:
200,158,153098,1,0,0:0:0:0:
162,322,153292,2,0,P|119:339|70:334,1,85,8|0,0:0|0:0,0:0:0:0:
66,185,153682,2,0,P|78:225|106:257,1,85,8|8,0:0|0:0,0:0:0:0:
200,158,154072,5,8,0:0:0:0:
200,158,154266,2,0,B|153:158|143:125|150:94|176:77|206:84|206:84|236:92|266:79|266:79|296:67|332:86,1,255,8|8,0:0|0:0,0:0:0:0:
391,130,155046,1,0,0:0:0:0:
446,66,155240,1,8,0:0:0:0:
403,217,155435,1,0,0:0:0:0:
446,66,155630,6,0,L|470:148,1,85,8|0,0:0|0:0,0:0:0:0:
379,298,156020,2,0,L|403:216,1,85,8|0,0:0|0:0,0:0:0:0:
425,359,156409,1,8,0:0:0:0:
340,366,156604,1,0,0:0:0:0:
220,234,156799,1,8,0:0:0:0:
305,241,156994,1,8,0:0:0:0:
147,269,157188,6,0,P|168:232|203:209,1,85,8|8,0:0|0:0,0:0:0:0:
383,199,157578,2,0,P|361:235|326:258,1,85,8|0,0:0|0:0,0:0:0:0:
357,117,157968,2,0,L|457:133,1,85,8|0,0:0|0:0,0:0:0:0:
440,130,158260,1,0,0:0:0:0:
440,130,158357,1,8,0:0:0:0:
301,182,158552,1,0,0:0:0:0:
469,58,158747,6,0,P|514:118|464:203,1,170,12|8,0:0|0:0,0:0:0:0:
273,254,159526,2,0,P|227:195|278:109,1,170,8|8,0:0|0:0,0:0:0:0:
373,133,160111,1,8,0:0:0:0:
376,243,160305,6,0,P|370:287|345:328,1,85,8|0,0:0|0:0,0:0:0:0:
171,331,160695,2,0,P|211:319|244:293,1,85,8|0,0:0|0:0,0:0:0:0:
31,234,161085,1,8,0:0:0:0:
186,166,161279,1,0,0:0:0:0:
134,319,161474,1,8,0:0:0:0:
106,130,161669,1,0,0:0:0:0:
134,319,161864,6,0,P|225:302|264:227,1,170,8|8,0:0|0:0,0:0:0:0:
143,54,162643,2,0,P|52:71|13:146,1,170,8|8,0:0|0:0,0:0:0:0:
44,213,163227,1,8,0:0:0:0:
214,201,163422,6,0,B|260:194|289:157|289:157|264:116|283:73,1,170,8|8,0:0|0:0,0:0:0:0:
360,110,164007,1,0,0:0:0:0:
208,102,164201,2,0,L|104:115,1,85,8|0,0:0|0:0,0:0:0:0:
282,198,164591,2,0,L|386:211,1,85,8|0,0:0|0:0,0:0:0:0:
474,318,164981,5,12,3:2:0:0:
343,352,165175,1,0,3:0:0:0:
372,219,165370,1,8,3:2:0:0:
479,340,165565,1,0,3:0:0:0:
318,343,165759,1,8,3:2:0:0:
386,196,165954,1,0,3:0:0:0:
474,361,166149,1,8,3:2:0:0:
301,317,166344,1,0,3:0:0:0:
420,184,166539,5,8,3:2:0:0:
445,50,166734,1,0,3:0:0:0:
217,75,166929,1,8,3:2:0:0:
351,100,167124,1,0,3:0:0:0:
125,196,167318,1,8,3:2:0:0:
259,171,167513,1,0,3:0:0:0:
104,352,167708,1,8,3:2:0:0:
206,262,167903,1,0,3:0:0:0:
424,300,168098,6,0,L|375:311,3,42.5,8|0|8|0,3:2|3:0|3:2|3:0,0:0:0:0:
375,187,168487,2,0,L|386:236,3,42.5,8|0|8|0,3:2|3:0|3:2|3:0,0:0:0:0:
217,236,168877,1,8,3:2:0:0:
241,230,168974,1,0,3:0:0:0:
266,225,169071,1,8,3:2:0:0:
291,220,169169,1,0,3:0:0:0:
309,211,169266,1,8,3:2:0:0:
298,188,169364,1,0,3:0:0:0:
291,164,169461,1,8,3:2:0:0:
288,139,169558,1,0,3:0:0:0:
289,113,169656,5,0,0:0:0:0:
295,97,170046,1,0,0:0:0:0:
300,80,170435,1,0,0:0:0:0:
306,63,170825,6,0,B|262:41|262:41|230:44|208:63|208:63|180:58|150:69|150:69|128:108,1,212.5,0|0,0:0|0:0,0:0:0:0:
43,226,171214,6,0,P|122:182|238:215,1,203.999993774414,4|0,3:2|0:0,0:0:0:0:
314,295,171799,1,0,0:0:0:0:
443,137,171994,2,0,L|423:238,1,101.999996887207,8|0,0:0|0:0,0:0:0:0:
311,66,172383,2,0,L|331:167,1,101.999996887207,0|0,3:0|0:0,0:0:0:0:
212,134,172773,5,0,0:0:0:0:
398,50,172968,1,0,0:0:0:0:
173,130,173162,1,0,3:0:0:0:
433,53,173357,1,0,0:0:0:0:
193,39,173552,2,0,P|167:78|188:148,1,101.999996887207,8|0,0:0|3:0,0:0:0:0:
310,263,173942,2,0,P|316:213|288:172,1,101.999996887207,0|0,0:0|3:0,0:0:0:0:
406,285,174331,6,0,P|409:206|342:96,1,203.999993774414,4|0,3:2|0:0,0:0:0:0:
226,79,174916,1,0,0:0:0:0:
56,150,175111,2,0,B|129:155|129:155|156:146,1,101.999996887207,8|0,0:0|0:0,0:0:0:0:
339,226,175500,2,0,B|311:235|311:235|238:231,1,101.999996887207,0|0,3:0|0:0,0:0:0:0:
56,150,175890,5,0,0:0:0:0:
32,270,176085,1,0,0:0:0:0:
260,250,176279,1,0,3:0:0:0:
140,226,176474,1,0,0:0:0:0:
311,307,176669,2,0,P|336:256|328:214,1,101.999996887207,8|0,0:0|3:0,0:0:0:0:
168,120,177059,2,0,P|199:167|240:181,1,101.999996887207,0|0,0:0|3:0,0:0:0:0:
503,140,177448,6,0,P|435:107|305:129,1,203.999993774414,4|0,3:2|0:0,0:0:0:0:
217,204,178033,1,0,0:0:0:0:
415,296,178227,2,0,L|399:189,1,101.999996887207,8|0,0:0|0:0,0:0:0:0:
293,71,178617,2,0,L|277:171,1,101.999996887207,0|0,3:0|0:0,0:0:0:0:
353,26,179007,5,0,0:0:0:0:
232,38,179201,1,0,0:0:0:0:
38,101,179396,1,0,3:0:0:0:
159,113,179590,1,0,0:0:0:0:
385,118,179786,2,0,P|381:69|353:25,1,101.999996887207,8|0,0:0|3:0,0:0:0:0:
127,88,180175,2,0,P|131:137|159:181,1,101.999996887207,0|0,0:0|3:0,0:0:0:0:
411,228,180565,6,0,P|336:224|208:268,1,203.999993774414,4|0,3:2|0:0,0:0:0:0:
101,332,181149,1,0,3:0:0:0:
58,132,181344,2,0,P|134:135|261:172,1,203.999993774414,0|0,0:0|3:0,0:0:0:0:
364,249,181929,1,0,0:0:0:0:
425,54,182124,2,0,P|350:50|222:94,1,203.999993774414,0|0,0:0|0:0,0:0:0:0:
213,103,182903,1,8,0:0:0:0:
213,103,183292,6,0,B|201:144|228:170|228:170|255:147|293:142|293:142|316:166|354:168,1,212.5,8|0,0:0|0:0,0:0:0:0:
489,240,183682,6,0,P|392:229|330:304,1,203.999993774414,4|0,3:2|0:0,0:0:0:0:
445,348,184266,1,0,0:0:0:0:
228,258,184461,2,0,L|335:246,1,101.999996887207,8|0,0:0|0:0,0:0:0:0:
195,341,184851,2,0,L|88:353,1,101.999996887207,0|0,3:0|0:0,0:0:0:0:
20,218,185240,5,0,0:0:0:0:
151,276,185435,1,0,0:0:0:0:
173,58,185630,1,0,3:0:0:0:
115,189,185825,1,0,0:0:0:0:
256,109,186020,2,0,P|301:85|327:42,1,101.999996887207,8|0,0:0|3:0,0:0:0:0:
279,219,186409,2,0,P|236:192|185:191,1,101.999996887207,0|0,0:0|3:0,0:0:0:0:
365,144,186799,6,0,P|365:202|452:322,1,203.999993774414,4|0,3:2|0:0,0:0:0:0:
504,235,187383,1,0,0:0:0:0:
331,192,187578,2,0,L|226:183,1,101.999996887207,8|0,0:0|0:0,0:0:0:0:
108,301,187968,2,0,L|209:292,1,101.999996887207,0|0,3:0|0:0,0:0:0:0:
353,346,188357,5,0,0:0:0:0:
388,228,188552,1,0,0:0:0:0:
235,135,188747,1,0,3:0:0:0:
270,252,188942,1,0,0:0:0:0:
140,171,189137,2,0,P|94:165|35:171,1,101.999996887207,8|0,0:0|3:0,0:0:0:0:
319,247,189526,2,0,P|268:252|217:246,1,101.999996887207,0|0,0:0|3:0,0:0:0:0:
408,201,189916,6,0,P|339:277|253:330,1,203.999993774414,4|0,3:2|0:0,0:0:0:0:
131,339,190500,1,0,0:0:0:0:
58,148,190695,2,0,P|52:198|57:249,1,101.999996887207,8|0,0:0|0:0,0:0:0:0:
191,137,191085,2,0,P|185:86|190:35,1,101.999996887207,0|0,3:0|0:0,0:0:0:0:
334,89,191474,5,0,0:0:0:0:
179,168,191669,1,0,0:0:0:0:
348,55,191864,1,0,3:0:0:0:
168,198,192059,1,0,0:0:0:0:
361,18,192253,2,0,P|416:14|463:33,1,101.999996887207,8|0,0:0|3:0,0:0:0:0:
266,214,192643,2,0,P|210:216|164:195,1,101.999996887207,0|0,0:0|3:0,0:0:0:0:
374,262,193033,6,0,P|316:247|342:129,1,203.999993774414,4|0,3:2|0:0,0:0:0:0:
362,32,193617,1,0,3:0:0:0:
136,171,193812,2,0,P|194:156|168:38,1,203.999993774414,0|0,0:0|3:0,0:0:0:0:
72,27,194396,1,0,0:0:0:0:
241,232,194591,2,0,B|99:244|99:244|115:265|165:264,1,203.999993774414,0|0,0:0|0:0,0:0:0:0:
309,129,195370,2,0,B|451:117|451:117|434:95|385:97,1,203.999993774414,8|8,0:0|0:0,0:0:0:0:
395,97,196149,5,4,3:2:0:0:
256,192,205500,12,4,208617,0:0:0:0:
134,248,209007,5,8,0:0:0:0:
148,256,209396,2,0,P|189:269|231:274,1,85,8|0,0:0|0:0,0:0:0:0:
140,139,209786,2,0,P|99:126|57:121,1,85,8|8,0:0|0:0,0:0:0:0:
194,199,210175,5,8,0:0:0:0:
204,89,210370,1,8,0:0:0:0:
141,139,210565,1,8,0:0:0:0:
251,149,210760,1,0,0:0:0:0:
97,76,210955,2,0,P|72:118|74:189,1,85,8|0,0:0|0:0,0:0:0:0:
67,153,211247,1,0,0:0:0:0:
67,153,211344,1,8,0:0:0:0:
129,265,211539,1,0,0:0:0:0:
238,332,211734,6,0,B|270:319|281:283|281:283|323:257|379:264,1,170,8|8,0:0|0:0,0:0:0:0:
458,296,212318,1,0,0:0:0:0:
305,203,212513,2,0,L|212:191,1,85,8|0,0:0|0:0,0:0:0:0:
109,285,212903,2,0,L|193:274,1,85,8|8,0:0|0:0,0:0:0:0:
372,176,213292,5,8,0:0:0:0:
491,129,213487,1,8,0:0:0:0:
391,50,213682,1,8,0:0:0:0:
372,176,213877,1,0,0:0:0:0:
476,250,214072,2,0,P|445:279|407:300,1,85,8|0,0:0|0:0,0:0:0:0:
408,299,214364,1,0,0:0:0:0:
408,299,214461,1,8,0:0:0:0:
277,263,214656,1,0,0:0:0:0:
115,316,214851,5,12,3:2:0:0:
179,177,215046,1,0,3:0:0:0:
186,355,215240,1,8,3:2:0:0:
103,138,215435,1,0,3:0:0:0:
259,327,215630,1,8,3:2:0:0:
26,156,215825,1,0,3:0:0:0:
259,327,216020,1,8,3:2:0:0:
88,117,216214,1,0,3:0:0:0:
115,315,216409,5,8,3:2:0:0:
243,269,216604,1,0,3:0:0:0:
345,179,216799,1,8,3:2:0:0:
402,55,216994,1,0,3:0:0:0:
196,104,217188,1,8,3:2:0:0:
219,186,217383,1,0,3:0:0:0:
243,268,217578,1,8,3:2:0:0:
267,350,217773,1,0,3:0:0:0:
388,243,217968,5,8,3:2:0:0:
403,228,218065,1,0,3:0:0:0:
413,209,218162,1,8,3:2:0:0:
419,189,218260,1,0,3:0:0:0:
419,168,218357,1,8,3:2:0:0:
413,147,218455,1,0,3:0:0:0:
403,129,218552,1,8,3:2:0:0:
387,116,218649,1,0,3:0:0:0:
326,69,218747,2,0,L|273:85,3,42.5,8|0|8|0,3:2|3:0|3:2|3:0,0:0:0:0:
233,149,219137,2,0,L|180:133,3,42.5,8|0|8|0,3:2|3:0|3:2|3:0,0:0:0:0:
151,145,219526,5,0,0:0:0:0:
107,72,219916,1,0,0:0:0:0:
103,88,220305,1,0,0:0:0:0:
100,104,220695,6,0,B|94:147|94:147|85:184|55:204|55:204|79:206|95:218|95:218|123:208|156:220,1,212.5,0|0,0:0|0:0,0:0:0:0:
248,315,221085,6,0,P|198:263|184:135,1,203.999993774414,4|0,3:2|0:0,0:0:0:0:
245,30,221669,1,0,0:0:0:0:
365,255,221864,2,0,P|320:221|290:168,1,101.999996887207,8|0,0:0|0:0,0:0:0:0:
423,58,222253,2,0,P|416:113|385:166,1,101.999996887207,0|0,3:0|0:0,0:0:0:0:
304,71,222643,5,0,0:0:0:0:
480,174,222838,1,0,0:0:0:0:
286,42,223033,1,0,3:0:0:0:
490,201,223227,1,0,0:0:0:0:
260,31,223422,2,0,P|207:27|156:34,1,101.999996887207,8|0,0:0|3:0,0:0:0:0:
357,170,223812,2,0,P|304:174|253:167,1,101.999996887207,0|0,0:0|3:0,0:0:0:0:
421,114,224201,6,0,P|429:210|343:254,1,203.999993774414,4|0,3:2|0:0,0:0:0:0:
226,217,224786,1,0,0:0:0:0:
413,267,224981,2,0,P|446:288|491:341,1,101.999996887207,8|0,0:0|0:0,0:0:0:0:
233,314,225370,2,0,P|200:293|155:240,1,101.999996887207,0|0,3:0|0:0,0:0:0:0:
140,145,225760,5,0,0:0:0:0:
161,353,225955,1,0,0:0:0:0:
24,157,226149,1,0,3:0:0:0:
203,198,226344,1,0,0:0:0:0:
80,321,226539,2,0,L|46:224,1,101.999996887207,8|0,0:0|3:0,0:0:0:0:
253,163,226929,2,0,L|218:259,1,101.999996887207,0|0,0:0|3:0,0:0:0:0:
193,87,227318,6,0,P|276:69|348:158,1,203.999993774414,4|0,3:2|0:0,0:0:0:0:
325,272,227903,1,0,0:0:0:0:
193,350,228098,2,0,P|200:249|252:162,1,203.999993774414,8|0,0:0|3:0,0:0:0:0:
355,96,228682,1,0,0:0:0:0:
472,270,228877,6,0,P|465:219|446:172,1,101.999996887207,0|0,0:0|0:0,0:0:0:0:
352,341,229266,2,0,P|370:293|377:243,1,101.999996887207,0|0,3:0|0:0,0:0:0:0:
172,256,229656,1,8,0:0:0:0:
293,273,229851,1,0,3:0:0:0:
83,180,230046,1,0,0:0:0:0:
66,301,230241,1,0,3:0:0:0:
168,168,230435,6,0,P|104:95|13:126,1,203.999993774414,4|0,3:2|0:0,0:0:0:0:
0,237,231020,1,0,3:2:0:0:
172,256,231214,2,0,L|276:66,1,203.999993774414,0|0,0:0|3:0,0:0:0:0:
368,21,231799,1,0,0:0:0:0:
448,175,231994,2,0,P|349:187|257:145,1,203.999993774414,0|0,0:0|0:0,0:0:0:0:
434,43,232773,1,0,0:0:0:0:
373,237,233162,1,0,0:0:0:0:
294,302,233357,1,0,0:0:0:0:
294,302,233552,6,0,P|244:324|172:315,2,118.999996368408,0|0|0,0:0|0:0|0:0,0:0:0:0:
222,207,234721,2,0,L|214:130,1,59.4999981842042,0|0,0:0|0:0,0:0:0:0:
131,192,235111,2,0,L|123:115,1,59.4999981842042,0|0,0:0|0:0,0:0:0:0:
222,207,235500,2,0,P|199:251|130:284,1,118.999996368408,0|0,0:0|0:0,0:0:0:0:
104,283,236279,5,0,0:0:0:0:
