osu file format v14

[General]
AudioFilename: BTS - DOPE.mp3
AudioLeadIn: 0
PreviewTime: 96385
Countdown: 0
SampleSet: Soft
StackLeniency: 0.7
Mode: 0
LetterboxInBreaks: 0
WidescreenStoryboard: 0

[Editor]
DistanceSpacing: 1
BeatDivisor: 4
GridSize: 4
TimelineZoom: 2.599999

[Metadata]
Title:DOPE
TitleUnicode:쩔어
Artist:BTS
ArtistUnicode:방탄소년단
Creator:DeRandom Otaku
Version:Normal
Source:
Tags:kpop trap 화양연화 The Most Beautiful Moment In Life Pt. 1 jimin suga jungkook rapmonster jin v jhope bighit entertainment 랩몬스터 슈가 진 제이홉 지민 뷔 정국 Cerulean Veyron
BeatmapID:1063265
BeatmapSetID:497583

[Difficulty]
HPDrainRate:4
CircleSize:3
OverallDifficulty:4
ApproachRate:4.5
SliderMultiplier:1
SliderTickRate:1

[Events]
//Background and Video events
0,0,"bg.jpg",0,0
//Break Periods
2,196929,207357
//Storyboard Layer 0 (Background)
//Storyboard Layer 1 (Fail)
//Storyboard Layer 2 (Pass)
//Storyboard Layer 3 (Foreground)
//Storyboard Sound Samples

[TimingPoints]
9137,389.61038961039,4,2,1,50,1,0
21604,-100,4,2,1,60,0,0
34072,-100,4,2,2,80,0,1
43422,-100,4,2,2,80,0,0
46539,-100,4,2,1,70,0,0
55890,-100,4,2,1,50,0,0
59007,-100,4,2,1,60,0,0
68357,-100,4,2,1,50,0,0
71474,-100,4,2,1,50,0,0
90175,-100,4,2,1,60,0,0
96409,-100,4,2,2,80,0,1
105760,-100,4,2,2,80,0,0
108877,-100,4,2,2,80,0,1
118227,-100,4,2,2,75,0,0
121344,-100,4,2,1,50,0,0
146279,-100,4,2,1,55,0,0
158747,-100,4,2,1,55,0,0
164981,-100,4,2,1,60,0,0
171214,-100,4,2,2,80,0,1
180565,-100,4,2,2,80,0,0
183682,-100,4,2,2,80,0,1
193033,-100,4,2,2,80,0,0
208617,-100,4,2,1,60,0,0
221085,-100,4,2,2,80,0,1
227318,-100,4,2,2,80,0,0
232773,-100,4,2,1,60,0,0
233552,-100,4,2,1,20,0,0

[Colours]
Combo1 : 255,26,26
Combo2 : 255,111,111
Combo3 : 9,255,255
Combo4 : 30,113,251

[HitObjects]
144,127,9137,6,0,P|203:127|244:153,1,100,6|0,0:0|0:0,0:0:0:0:
296,227,9916,2,0,L|354:228,1,50
387,199,10305,2,0,L|445:200,1,50
472,162,10695,1,2,0:0:0:0:
472,162,10890,2,0,P|439:96|316:66,1,200
273,66,11864,2,0,P|243:71|209:68,1,50
122,69,12448,6,0,L|117:14,2,50,0|0|0,0:0|0:0|0:0,0:0:0:0:
122,119,13033,2,0,L|127:169,1,50,0|0,0:0|0:0,0:0:0:0:
126,218,13422,2,0,L|121:268,1,50
121,318,13812,1,2,0:0:0:0:
121,318,14007,2,0,L|334:310,1,200
370,308,14981,2,0,P|366:277|371:246,1,50
390,161,15565,6,0,L|441:161,2,50,0|0|0,0:0|0:0|0:0,0:0:0:0:
339,161,16149,1,0,0:0:0:0:
288,161,16344,2,0,L|285:225,2,50,0|0|0,0:0|0:0|0:0,0:0:0:0:
289,110,16929,1,2,0:0:0:0:
289,110,17124,2,0,B|196:140|189:78|89:122,1,200
45,133,18098,2,0,L|40:196,1,50
39,232,18487,5,2,0:0:0:0:
138,224,18877,2,0,P|178:224|237:250,1,100,0|0,0:0|0:0,0:0:0:0:
276,271,19461,2,0,L|377:271,1,100
417,243,20046,2,0,P|409:189|416:123,1,100,2|0,0:0|0:0,0:0:0:0:
425,44,20825,1,0,0:0:0:0:
325,41,21214,2,0,L|256:52,1,50
226,59,21604,6,0,B|233:112|233:112|225:176,1,100,4|8,0:0|0:0,0:0:0:0:
217,257,22383,2,0,L|280:260,1,50,8|0,0:0|0:0,0:0:0:0:
316,259,22773,2,0,L|422:254,1,100,8|0,0:0|0:0,0:0:0:0:
465,248,23357,2,0,P|465:160|412:51,1,200,8|0,0:0|0:0,0:0:0:0:
386,21,24331,2,0,P|356:21|322:28,1,50,8|0,0:0|0:0,0:0:0:0:
287,37,24721,5,4,0:0:0:0:
190,65,25111,2,0,L|178:12,2,50,8|0|8,0:0|0:0|0:0,0:0:0:0:
199,114,25695,2,0,B|198:167|198:167|184:219,1,100,0|8,0:0|0:0,0:0:0:0:
173,260,26279,1,8,0:0:0:0:
162,309,26474,2,0,L|382:326,1,200,8|0,0:0|0:0,0:0:0:0:
410,331,27448,1,8,0:0:0:0:
474,254,27838,6,0,P|474:197|449:150,2,100,12|8|8,3:2|3:2|3:2,0:0:0:0:
378,223,29007,1,8,3:2:0:0:
283,254,29396,2,0,P|283:197|308:149,2,100,8|8|8,3:2|3:2|3:2,0:0:0:0:
378,223,30565,1,8,3:2:0:0:
378,122,30955,6,0,L|378:67,1,50,8|8,3:2|3:2,0:0:0:0:
369,22,31344,2,0,L|303:22,1,50,8|8,3:2|3:2,0:0:0:0:
268,22,31734,2,0,L|268:77,1,50,8|8,3:2|3:2,0:0:0:0:
268,122,32124,2,0,L|218:122,1,50,8|8,3:2|3:2,0:0:0:0:
167,122,32513,5,0,0:0:0:0:
167,122,34072,6,0,L|50:113,2,100,4|0|8,3:2|0:0|0:0,0:0:0:0:
263,149,35240,2,0,L|259:204,1,50,0|0,3:2|0:0,0:0:0:0:
259,249,35630,2,0,L|263:304,1,50
290,340,36020,1,0,3:0:0:0:
340,341,36214,2,0,P|390:327|440:328,1,100,0|0,0:0|3:0,0:0:0:0:
488,328,36799,1,0,0:0:0:0:
488,228,37188,6,0,P|488:173|465:127,2,100,4|0|8,3:2|0:0|0:0,0:0:0:0:
391,200,38357,1,0,3:0:0:0:
340,200,38552,2,0,P|295:200|234:178,1,100,0|0,0:0|0:0,0:0:0:0:
196,162,39137,2,0,P|151:162|90:184,1,100,0|8,3:0|0:0,0:0:0:0:
23,244,39916,1,0,0:0:0:0:
52,339,40305,5,4,3:2:0:0:
142,301,40695,2,0,P|190:301|243:311,1,100,0|8,0:0|0:0,0:0:0:0:
339,326,41474,2,0,L|341:269,1,50,0|0,3:0|0:0,0:0:0:0:
340,225,41864,2,0,L|338:168,1,50,0|0,0:0|0:0,0:0:0:0:
338,124,42253,1,0,3:0:0:0:
338,73,42448,2,0,B|284:81|284:81|237:81,1,100,0|0,0:0|3:0,0:0:0:0:
189,81,43033,1,0,0:0:0:0:
94,114,43422,6,0,L|103:214,1,100,4|0,3:2|0:0,0:0:0:0:
109,313,44201,2,0,L|209:304,1,100,0|0,0:0|3:0,0:0:0:0:
258,301,44786,1,0,0:0:0:0:
308,301,44981,2,0,L|312:355,2,50,0|0|0,0:0|3:0|0:0,0:0:0:0:
301,201,45760,1,8,0:0:0:0:
391,242,46149,1,8,0:0:0:0:
381,142,46539,6,0,L|481:134,2,100,4|0|0,0:0|0:0|0:0,0:0:0:0:
301,201,47708,1,0,0:0:0:0:
301,201,47903,2,0,P|251:214|200:208,1,100,0|0,0:0|0:0,0:0:0:0:
153,208,48487,2,0,L|148:94,1,100,0|0,0:0|0:0,0:0:0:0:
226,45,49266,1,0,0:0:0:0:
297,116,49656,6,0,P|352:120|402:112,2,100,0|0|0,0:0|0:0|0:0,0:0:0:0:
228,47,50825,2,0,L|167:53,1,50,0|0,0:0|0:0,0:0:0:0:
128,59,51214,2,0,L|132:108,1,50,0|0,0:0|0:0,0:0:0:0:
137,158,51604,2,0,P|145:207|136:264,1,100,0|0,0:0|0:0,0:0:0:0:
104,350,52383,1,0,0:0:0:0:
202,324,52773,6,0,L|300:303,1,100,0|0,0:0|0:0,0:0:0:0:
299,252,53357,2,0,L|201:231,1,100,0|0,0:0|0:0,0:0:0:0:
201,180,53942,2,0,L|299:159,1,100,0|0,0:0|0:0,0:0:0:0:
298,108,54526,2,0,L|200:87,1,100,0|0,0:0|0:0,0:0:0:0:
150,76,55111,1,0,0:0:0:0:
73,142,55500,2,0,L|76:199,1,50,0|0,0:0|0:0,0:0:0:0:
78,242,55890,6,0,P|79:296|13:368,2,150,8|8|8,0:0|0:0|0:0,0:0:0:0:
66,92,57643,2,0,L|60:35,2,50,8|8|8,0:0|0:0|0:0,0:0:0:0:
73,142,58227,1,8,0:0:0:0:
163,98,58617,2,0,L|224:97,1,50,8|8,0:0|0:0,0:0:0:0:
263,95,59007,6,0,P|258:150|269:198,1,100,4|0,3:2|0:0,0:0:0:0:
317,280,59786,2,0,L|380:273,2,50,8|0|0,0:0|0:0|3:0,0:0:0:0:
217,290,60565,2,0,P|165:292|110:289,1,100
43,221,61344,1,0,0:0:0:0:
43,221,61539,2,0,P|33:173|48:115,1,100,0|0,0:0|0:0,0:0:0:0:
62,77,62124,6,0,P|127:91|212:80,1,150,0|0,3:0|0:0,0:0:0:0:
257,69,62903,2,0,L|294:170,1,100,8|0,0:0|3:0,0:0:0:0:
312,260,63682,2,0,L|257:258,1,50
213,243,64072,1,0,0:0:0:0:
130,196,64461,1,0,0:0:0:0:
130,196,64656,2,0,B|130:245|130:245|139:306,1,100,0|0,0:0|0:0,0:0:0:0:
148,343,65240,5,0,3:0:0:0:
245,315,65630,2,0,P|294:307|351:320,2,100,0|8|0,0:0|0:0|3:0,0:0:0:0:
149,344,66799,2,0,P|98:344|52:317,1,100,0|0,0:0|3:0,0:0:0:0:
51,220,67578,2,0,L|211:236,1,150,8|0,0:0|3:0,0:0:0:0:
250,240,68357,6,0,B|258:191|258:191|249:72,2,150,8|8|8,0:0|0:0|0:0,0:0:0:0:
374,324,70111,1,8,0:0:0:0:
374,324,70305,2,0,B|374:275|374:275|362:215,1,100,8|0,0:0|0:0,0:0:0:0:
362,174,70890,2,0,B|362:125|362:125|374:65,1,100,0|0,0:0|0:0,0:0:0:0:
393,29,71474,5,4,0:0:0:0:
480,77,71864,2,0,L|474:134,1,50,8|0,0:0|0:0,0:0:0:0:
460,174,72253,2,0,P|410:166|350:177,1,100,8|8,0:0|0:0,0:0:0:0:
273,221,73033,2,0,L|285:280,2,50,8|8|8,0:0|0:0|0:0,0:0:0:0:
226,83,74007,1,0,0:0:0:0:
226,83,74201,2,0,P|195:126|182:176,2,100,8|8|8,0:0|0:0|0:0,0:0:0:0:
276,83,75175,5,0,0:0:0:0:
326,83,75370,2,0,P|357:126|370:176,1,100,8|8,0:0|0:0,0:0:0:0:
280,217,76149,2,0,P|288:269|314:313,1,100,8|8,0:0|0:0,0:0:0:0:
429,217,77124,1,0,0:0:0:0:
429,217,77318,2,0,L|429:166,1,50,8|0,0:0|0:0,0:0:0:0:
432,116,77708,6,0,L|321:124,1,100,4|8,0:0|0:0,0:0:0:0:
233,140,78487,2,0,L|288:240,1,100,8|8,0:0|0:0,0:0:0:0:
378,251,79266,2,0,P|360:300|327:347,1,100,8|8,0:0|0:0,0:0:0:0:
234,359,80046,2,0,L|174:359,1,50,8|0,0:0|0:0,0:0:0:0:
133,359,80435,2,0,L|143:301,1,50,8|0,0:0|0:0,0:0:0:0:
153,260,80825,5,8,0:0:0:0:
110,169,81214,1,8,0:0:0:0:
176,94,81604,2,0,L|237:94,1,50,8|0,0:0|0:0,0:0:0:0:
276,94,81994,2,0,L|315:144,1,50,8|0,0:0|0:0,0:0:0:0:
335,174,82383,2,0,L|327:230,2,50,8|0|8,0:0|0:0|0:0,0:0:0:0:
433,154,83162,2,0,P|441:197|433:266,1,100,8|8,0:0|0:0,0:0:0:0:
427,351,83942,6,0,L|321:343,1,100,12|8,0:0|0:0,0:0:0:0:
227,343,84721,2,0,L|121:351,1,100,8|8,0:0|0:0,0:0:0:0:
32,317,85500,2,0,L|30:211,1,100,8|8,0:0|0:0,0:0:0:0:
99,143,86279,2,0,L|161:147,1,50,8|0,0:0|0:0,0:0:0:0:
199,146,86669,2,0,L|261:142,1,50,8|0,0:0|0:0,0:0:0:0:
299,142,87059,5,8,0:0:0:0:
242,62,87448,2,0,P|190:49|134:49,2,100,8|8|8,0:0|0:0|0:0,0:0:0:0:
299,142,88617,2,0,L|294:245,1,100,8|0,0:0|0:0,0:0:0:0:
283,341,89396,2,0,L|222:341,1,50,8|0,0:0|0:0,0:0:0:0:
182,341,89786,2,0,L|121:341,1,50,8|0,0:0|0:0,0:0:0:0:
81,341,90175,6,0,L|73:228,1,100,12|8,3:2|3:2,0:0:0:0:
68,141,90955,1,8,3:2:0:0:
132,65,91344,1,8,3:2:0:0:
209,128,91734,2,0,L|217:241,1,100,8|8,3:2|3:2,0:0:0:0:
226,327,92513,1,8,3:2:0:0:
309,271,92903,1,8,3:2:0:0:
395,220,93292,6,0,L|387:160,1,50,8|8,3:2|3:2,0:0:0:0:
385,120,93682,2,0,L|335:126,1,50,8|8,3:2|3:2,0:0:0:0:
285,125,94072,2,0,L|235:118,1,50,8|8,3:2|3:2,0:0:0:0:
185,113,94461,2,0,L|178:162,1,50,8|8,3:2|3:2,0:0:0:0:
172,212,94851,5,0,0:0:0:0:
172,212,96409,6,0,L|65:217,2,100,4|0|8,3:2|0:0|0:0,0:0:0:0:
272,212,97578,2,0,P|300:209|322:212,1,50,0|0,3:0|0:0,0:0:0:0:
369,227,97968,2,0,P|371:251|368:276,1,50
357,325,98357,1,0,3:0:0:0:
323,361,98552,2,0,P|274:366|219:362,1,100,0|0,0:0|3:0,0:0:0:0:
174,352,99137,1,0,0:0:0:0:
115,269,99526,6,0,P|67:269|17:293,2,100,4|0|8,3:2|0:0|0:0,0:0:0:0:
215,269,100695,1,0,3:0:0:0:
215,269,100890,2,0,P|215:219|197:168,1,100,0|0,0:0|0:0,0:0:0:0:
188,123,101474,2,0,P|238:123|289:105,1,100,0|8,3:0|0:0,0:0:0:0:
372,58,102253,1,0,0:0:0:0:
442,129,102643,6,0,B|450:179|450:179|445:233,1,100,4|0,3:2|0:0,0:0:0:0:
427,326,103422,2,0,B|377:334|377:334|323:329,1,100,8|0,0:0|3:0,0:0:0:0:
277,326,104007,1,0,0:0:0:0:
227,323,104201,2,0,L|224:272,1,50,0|0,0:0|0:0,0:0:0:0:
223,222,104591,1,0,3:0:0:0:
223,222,104786,2,0,P|163:205|123:200,1,100,0|0,0:0|3:0,0:0:0:0:
76,190,105370,1,0,0:0:0:0:
108,96,105760,6,0,P|159:84|207:84,1,100,4|0,3:2|0:0,0:0:0:0:
306,83,106539,2,0,P|355:83|404:95,1,100,0|0,0:0|3:0,0:0:0:0:
452,108,107124,1,0,0:0:0:0:
500,120,107318,2,0,L|500:176,1,50,0|0,0:0|3:0,0:0:0:0:
482,216,107708,1,0,0:0:0:0:
399,273,108098,2,0,P|350:282|289:265,1,100,8|8,0:0|0:0,0:0:0:0:
206,241,108877,6,0,P|157:230|107:230,1,100,4|0,3:2|0:0,0:0:0:0:
97,329,109656,2,0,P|147:329|202:342,1,100,8|0,0:0|3:0,0:0:0:0:
245,347,110240,1,0,0:0:0:0:
293,357,110435,2,0,L|298:308,1,50,0|0,0:0|0:0,0:0:0:0:
303,257,110825,1,0,3:0:0:0:
303,257,111020,2,0,P|352:253|407:265,1,100,0|0,0:0|3:0,0:0:0:0:
450,271,111604,1,0,0:0:0:0:
458,171,111994,6,0,P|461:128|478:75,2,100,4|0|8,3:2|0:0|0:0,0:0:0:0:
450,271,113162,1,0,3:0:0:0:
450,271,113357,2,0,B|398:265|398:265|348:269,1,100,0|0,0:0|0:0,0:0:0:0:
301,281,113942,2,0,B|249:287|249:287|199:283,1,100,0|8,3:0|0:0,0:0:0:0:
101,276,114721,1,0,0:0:0:0:
111,176,115111,6,0,P|64:158|29:119,2,100,4|0|8,3:2|0:0|0:0,0:0:0:0:
206,145,116279,2,0,L|211:86,1,50,0|0,3:0|0:0,0:0:0:0:
219,45,116669,2,0,L|272:51,1,50,0|0,0:0|0:0,0:0:0:0:
318,58,117059,1,0,3:0:0:0:
318,58,117253,2,0,B|312:110|312:110|318:159,1,100,0|0,0:0|3:0,0:0:0:0:
320,207,117838,1,0,0:0:0:0:
328,306,118227,6,0,L|220:312,1,100,4|0,0:0|0:0,0:0:0:0:
128,318,119007,2,0,L|131:371,2,50,0|0|0,0:0|0:0|0:0,0:0:0:0:
126,217,119786,1,0,0:0:0:0:
176,212,119981,2,0,L|225:206,1,50,0|0,3:0|0:0,0:0:0:0:
325,200,120565,2,0,P|324:148|363:99,1,100,8|8,0:0|0:0,0:0:0:0:
397,94,121149,1,0,0:0:0:0:
443,112,121344,6,0,L|438:173,1,50,4|2,3:0|0:0,0:0:0:0:
438,212,121734,2,0,L|440:275,1,50,2|2,0:0|0:0,0:0:0:0:
439,312,122124,2,0,L|331:316,1,100,2|2,0:0|0:0,0:0:0:0:
326,217,122903,2,0,L|218:221,2,100,2|0|0,0:0|0:0|0:0,0:0:0:0:
366,187,123877,2,0,L|399:145,1,50
446,60,124461,6,0,L|496:57,2,50,4|2|2,3:0|0:0|0:0,0:0:0:0:
395,61,125046,1,2,0:0:0:0:
346,70,125240,2,0,P|289:76|234:59,1,100,2|2,0:0|0:0,0:0:0:0:
153,38,126020,2,0,P|96:32|48:59,1,100,4|0,3:0|0:0,0:0:0:0:
116,130,126799,2,0,L|122:184,1,50
138,281,127383,1,0,0:0:0:0:
138,281,127578,6,0,P|181:274|241:278,1,100,4|0,3:0|0:0,0:0:0:0:
337,281,128357,2,0,P|330:238|340:180,1,100,4|2,3:0|0:0,0:0:0:0:
379,90,129137,1,4,3:0:0:0:
290,41,129526,2,0,L|188:41,1,100,0|4,0:0|3:0,0:0:0:0:
139,41,130111,1,0,0:0:0:0:
89,41,130305,2,0,L|96:97,1,50,2|0,0:0|0:0,0:0:0:0:
103,140,130695,6,0,B|114:198|114:198|106:310,1,150,4|2,3:0|0:0,0:0:0:0:
102,338,131474,2,0,B|160:327|160:327|272:335,1,150,4|0,3:0|0:0,0:0:0:0:
300,333,132253,1,4,3:0:0:0:
254,243,132643,1,4,3:0:0:0:
313,163,133033,2,0,P|363:152|418:168,1,100,0|0,3:0|3:0,0:0:0:0:
360,250,133812,6,0,P|288:265|209:244,1,150,4|0,0:0|3:0,0:0:0:0:
165,242,134591,2,0,P|159:196|168:143,1,100,8|0,0:0|0:0,0:0:0:0:
192,47,135370,2,0,B|258:60|297:96|297:96|320:44|364:22|412:19|468:60,1,300
391,129,136929,6,0,P|383:198|401:295,1,150,0|0,3:0|3:0,0:0:0:0:
404,326,137708,2,0,L|290:326,1,100,8|0,0:0|3:0,0:0:0:0:
202,326,138487,2,0,B|131:327|102:252|127:199|177:180|177:180|157:136|178:79,1,300
265,133,140046,6,0,P|326:133|391:65,1,150,0|0,3:0|0:0,0:0:0:0:
397,25,140825,2,0,P|344:20|290:24,1,100,8|0,0:0|3:0,0:0:0:0:
197,26,141604,2,0,B|141:36|99:15|99:15|116:55|100:120,1,200,0|8,0:0|0:0,0:0:0:0:
109,162,142578,2,0,L|105:272,1,100,0|0,3:0|0:0,0:0:0:0:
110,311,143162,6,0,B|163:305|163:305|281:313,2,150,8|8|8,0:0|0:0|0:0,0:0:0:0:
17,272,144721,2,0,P|14:242|18:210,1,50,0|8,0:0|0:0,0:0:0:0:
27,173,145111,2,0,P|30:143|26:111,1,50,8|8,0:0|0:0,0:0:0:0:
27,73,145500,1,8,0:0:0:0:
121,39,145890,2,0,L|171:42,1,50,0|8,0:0|0:0,0:0:0:0:
220,47,146279,5,4,0:0:0:0:
279,127,146669,2,0,L|340:123,2,50,8|0|8,0:0|0:0|0:0,0:0:0:0:
179,136,147448,2,0,L|188:203,1,50,8|8,0:0|0:0,0:0:0:0:
195,235,147838,2,0,L|132:240,2,50,8|8|8,0:0|0:0|0:0,0:0:0:0:
345,233,148812,1,0,0:0:0:0:
345,233,149007,2,0,L|348:180,1,50,8|0,0:0|0:0,0:0:0:0:
355,133,149396,6,0,P|300:133|255:138,1,100,8|8,0:0|0:0,0:0:0:0:
162,174,150175,2,0,P|110:182|54:173,1,100,8|8,0:0|0:0,0:0:0:0:
45,77,150955,2,0,L|37:23,2,50,8|8|8,0:0|0:0|0:0,0:0:0:0:
74,227,151929,1,0,0:0:0:0:
74,227,152124,2,0,L|143:230,1,50,8|0,0:0|0:0,0:0:0:0:
173,237,152513,6,0,P|220:249|283:286,1,100,4|8,0:0|0:0,0:0:0:0:
356,314,153292,2,0,P|355:268|367:214,1,100,8|8,0:0|0:0,0:0:0:0:
381,116,154072,2,0,P|382:70|370:16,1,100,8|8,0:0|0:0,0:0:0:0:
277,54,154851,2,0,L|269:2,2,50,8|0|8,0:0|0:0|0:0,0:0:0:0:
284,103,155435,1,0,0:0:0:0:
294,152,155630,6,0,L|191:157,1,100,8|8,0:0|0:0,0:0:0:0:
94,148,156409,2,0,L|104:259,1,100,8|0,0:0|0:0,0:0:0:0:
120,295,156994,1,8,0:0:0:0:
143,338,157188,2,0,L|86:364,2,50,8|8|8,0:0|0:0|0:0,0:0:0:0:
203,256,157968,2,0,L|193:145,1,100,8|0,0:0|0:0,0:0:0:0:
143,70,158747,6,0,L|248:80,1,100,12|8,0:0|0:0,0:0:0:0:
297,162,159526,2,0,L|402:172,1,100,8|8,0:0|0:0,0:0:0:0:
478,228,160305,2,0,L|460:333,1,100,8|0,0:0|0:0,0:0:0:0:
362,331,161085,2,0,P|337:333|307:331,1,50,8|0,0:0|0:0,0:0:0:0:
262,331,161474,2,0,P|237:329|207:331,1,50,8|0,0:0|0:0,0:0:0:0:
161,330,161864,6,0,P|144:281|175:225,1,100,8|8,0:0|0:0,0:0:0:0:
221,158,162643,2,0,P|238:109|207:53,1,100,8|8,0:0|0:0,0:0:0:0:
126,32,163422,2,0,P|85:22|21:43,1,100,8|8,0:0|0:0,0:0:0:0:
82,124,164201,2,0,L|87:232,1,100,8|8,0:0|0:0,0:0:0:0:
104,325,164981,6,0,P|155:313|202:326,1,100,12|8,3:2|3:2,0:0:0:0:
295,356,165760,2,0,P|343:367|392:356,1,100,8|8,3:2|3:2,0:0:0:0:
441,268,166539,1,8,3:2:0:0:
342,284,166929,1,8,3:2:0:0:
243,268,167318,1,8,3:2:0:0:
144,284,167708,1,8,3:2:0:0:
45,265,168098,6,0,P|45:237|52:209,1,50,8|8,3:2|3:2,0:0:0:0:
58,166,168487,2,0,P|86:166|114:173,1,50,8|8,3:2|3:2,0:0:0:0:
157,175,168877,2,0,P|185:175|213:168,1,50,8|8,3:2|3:2,0:0:0:0:
256,164,169266,2,0,P|256:136|249:108,1,50,8|8,3:2|3:2,0:0:0:0:
239,65,169656,5,0,0:0:0:0:
239,65,171214,6,0,L|132:57,2,100,4|0|8,3:2|0:0|0:0,0:0:0:0:
338,75,172383,2,0,L|333:137,1,50,0|0,3:0|0:0,0:0:0:0:
333,175,172773,2,0,L|338:237,1,50,0|0,0:0|0:0,0:0:0:0:
344,274,173162,1,0,3:0:0:0:
344,274,173357,2,0,P|393:265|445:274,1,100,0|0,0:0|3:0,0:0:0:0:
491,281,173942,1,0,0:0:0:0:
471,183,174331,6,0,P|467:133|474:83,2,100,4|0|8,3:2|0:0|0:0,0:0:0:0:
491,281,175500,1,0,3:0:0:0:
442,273,175695,2,0,P|392:266|344:275,1,100,0|0,0:0|0:0,0:0:0:0:
294,285,176279,2,0,P|245:294|191:286,1,100,0|8,3:0|0:0,0:0:0:0:
97,262,177059,1,0,0:0:0:0:
105,162,177448,6,0,P|70:134|48:80,2,100,4|0|8,3:2|0:0|0:0,0:0:0:0:
149,72,178617,2,0,L|206:72,1,50,0|0,3:0|0:0,0:0:0:0:
249,72,179007,2,0,L|306:72,1,50,0|0,0:0|0:0,0:0:0:0:
349,72,179396,1,0,3:0:0:0:
349,72,179591,2,0,P|399:81|462:65,1,100,0|0,0:0|3:0,0:0:0:0:
496,64,180175,1,0,0:0:0:0:
456,156,180565,6,0,P|414:166|349:156,1,100,4|0,3:2|0:0,0:0:0:0:
258,149,181344,2,0,P|208:148|159:159,1,100,0|0,0:0|3:0,0:0:0:0:
114,180,181929,1,0,0:0:0:0:
71,206,182124,2,0,L|77:265,2,50,0|0|0,0:0|3:0|0:0,0:0:0:0:
76,106,182903,2,0,P|108:67|168:42,1,100,8|8,0:0|0:0,0:0:0:0:
253,50,183682,6,0,P|242:103|259:156,2,100,4|0|8,3:2|0:0|0:0,0:0:0:0:
341,97,184851,2,0,L|393:101,1,50,0|0,3:0|0:0,0:0:0:0:
440,107,185240,2,0,L|436:159,1,50,0|0,0:0|0:0,0:0:0:0:
432,207,185630,1,0,3:0:0:0:
432,207,185825,2,0,B|439:259|439:259|431:325,1,100,0|0,0:0|3:0,0:0:0:0:
431,356,186409,1,0,0:0:0:0:
345,304,186799,6,0,P|292:297|242:305,1,100,4|0,3:2|0:0,0:0:0:0:
147,317,187578,1,8,0:0:0:0:
93,232,187968,1,0,3:0:0:0:
93,232,188162,2,0,P|93:186|110:129,1,100
116,84,188747,2,0,P|168:97|223:97,1,100,0|8,3:0|0:0,0:0:0:0:
312,118,189526,1,0,0:0:0:0:
264,203,189916,6,0,P|250:249|265:305,1,100,4|0,3:2|0:0,0:0:0:0:
350,254,190695,2,0,P|364:208|349:152,1,100,8|0,0:0|3:0,0:0:0:0:
348,108,191279,1,0,0:0:0:0:
343,58,191474,2,0,P|321:61|294:59,1,50,0|0,0:0|0:0,0:0:0:0:
243,63,191864,1,0,3:0:0:0:
243,63,192059,2,0,L|248:177,1,100,0|0,0:0|3:0,0:0:0:0:
251,213,192643,1,0,0:0:0:0:
196,297,193033,6,0,P|143:306|85:281,1,100,4|0,3:2|0:0,0:0:0:0:
152,210,193812,2,0,P|202:203|251:213,1,100,0|0,0:0|3:0,0:0:0:0:
299,223,194396,1,0,0:0:0:0:
348,230,194591,2,0,L|402:229,1,50,0|0,0:0|3:0,0:0:0:0:
448,229,194981,2,0,L|448:125,1,100,0|8,0:0|0:0,0:0:0:0:
377,58,195760,1,8,0:0:0:0:
306,128,196149,5,4,3:2:0:0:
142,262,208617,6,0,L|252:263,1,100,4|8,0:0|0:0,0:0:0:0:
312,192,209396,2,0,L|422:193,1,100,8|8,0:0|0:0,0:0:0:0:
482,121,210175,2,0,L|479:61,2,50,8|8|8,0:0|0:0|0:0,0:0:0:0:
412,192,210955,2,0,P|412:239|380:300,1,100,8|8,0:0|0:0,0:0:0:0:
309,343,211734,5,8,0:0:0:0:
215,311,212124,2,0,P|168:303|116:303,1,100,8|8,0:0|0:0,0:0:0:0:
66,295,212708,1,0,0:0:0:0:
30,259,212903,2,0,P|27:229|33:200,1,50,8|8,0:0|0:0,0:0:0:0:
34,159,213292,2,0,P|88:154|142:165,1,100,8|0,0:0|0:0,0:0:0:0:
230,187,214072,2,0,L|276:85,1,100,8|0,0:0|0:0,0:0:0:0:
367,67,214851,6,0,P|417:56|469:71,2,100,12|8|8,3:2|3:2|3:2,0:0:0:0:
413,155,216020,1,8,3:2:0:0:
367,243,216409,2,0,P|417:254|469:239,2,100,8|8|8,3:2|3:2|3:2,0:0:0:0:
413,155,217578,1,8,3:2:0:0:
367,67,217968,6,0,L|314:67,1,50,8|8,3:2|3:2,0:0:0:0:
281,102,218357,2,0,L|228:102,1,50,8|8,3:2|3:2,0:0:0:0:
195,137,218747,2,0,L|142:137,1,50,8|8,3:2|3:2,0:0:0:0:
109,172,219137,2,0,L|56:172,1,50,8|8,3:2|3:2,0:0:0:0:
23,207,219526,5,0,0:0:0:0:
23,207,221085,6,0,P|12:260|25:320,1,100,4|0,3:2|0:0,0:0:0:0:
108,260,221864,1,8,0:0:0:0:
202,226,222253,2,0,P|233:224|257:226,1,50,0|0,3:0|0:0,0:0:0:0:
301,229,222643,2,0,P|332:231|356:229,1,50,0|0,0:0|0:0,0:0:0:0:
401,227,223033,1,0,3:0:0:0:
401,227,223227,2,0,B|395:177|395:177|401:118,1,100,0|0,0:0|3:0,0:0:0:0:
413,79,223812,1,0,0:0:0:0:
314,61,224201,5,4,3:2:0:0:
228,112,224591,2,0,L|234:220,1,100,0|8,0:0|0:0,0:0:0:0:
237,311,225370,1,0,3:0:0:0:
237,311,225565,2,0,P|184:321|132:311,1,100,0|0,0:0|0:0,0:0:0:0:
89,312,226149,2,0,B|83:266|83:266|90:210,1,100,0|8,3:0|0:0,0:0:0:0:
103,113,226929,1,0,0:0:0:0:
197,144,227318,6,0,P|253:144|301:123,1,100,4|0,3:2|0:0,0:0:0:0:
387,92,228098,2,0,L|377:200,1,100,8|0,0:0|3:0,0:0:0:0:
373,241,228682,1,0,0:0:0:0:
367,290,228877,2,0,L|423:288,2,50,0|0|0,0:0|0:0|3:0,0:0:0:0:
265,293,229656,2,0,P|214:286|157:297,1,100,8|0,0:0|0:0,0:0:0:0:
67,308,230435,5,4,3:2:0:0:
79,212,230825,2,0,P|69:160|90:98,1,100,0|0,0:0|0:0,0:0:0:0:
168,163,231604,2,0,L|233:169,1,50,0|0,3:0|0:0,0:0:0:0:
267,174,231994,2,0,L|332:180,1,50,0|0,0:0|3:0,0:0:0:0:
366,181,232383,1,0,0:0:0:0:
455,136,232773,2,0,P|464:183|446:243,1,100
256,192,233552,12,0,236279,0:0:0:0:
