osu file format v14

[General]
AudioFilename: 02.+-+-+--.mp3
AudioLeadIn: 0
PreviewTime: 25033
Countdown: 0
SampleSet: Soft
StackLeniency: 0.5
Mode: 0
LetterboxInBreaks: 0
WidescreenStoryboard: 0

[Editor]
DistanceSpacing: 1
BeatDivisor: 8
GridSize: 4
TimelineZoom: 2.850001

[Metadata]
Title:Blood Sweat & Tears
TitleUnicode:피 땀 눈물
Artist:BTS
ArtistUnicode:방탄소년단
Creator:DeRandom Otaku
Version:Normal
Source:
Tags:bighit entertainment wings rap monster jungkook suga jimin j-hope v jin hot yoongi 랩몬스터 진 슈가 제이홉 지민 뷔 정국 k-pop kpop
BeatmapID:1158667
BeatmapSetID:526328

[Difficulty]
HPDrainRate:3.5
CircleSize:3
OverallDifficulty:4
ApproachRate:4.5
SliderMultiplier:1.7
SliderTickRate:1

[Events]
//Background and Video events
0,0,"BG.jpg",0,0
//Break Periods
2,170752,178808
//Storyboard Layer 0 (Background)
//Storyboard Layer 1 (Fail)
//Storyboard Layer 2 (Pass)
//Storyboard Layer 3 (Foreground)
//Storyboard Sound Samples

[TimingPoints]
5391,645.161290322581,4,2,0,40,1,0
5391,-100,4,2,0,40,0,0
15713,-100,4,2,2,50,0,0
23455,-100,4,2,1,50,0,0
25874,-100,4,2,3,50,0,0
26036,-100,4,2,1,70,0,1
35874,-100,4,2,3,70,0,1
36358,-100,4,2,2,50,0,0
47165,-100,4,2,1,50,0,0
47326,-100,4,2,2,50,0,0
47649,-100,4,2,1,50,0,0
47810,-100,4,2,2,50,0,0
48455,-100,4,2,1,50,0,0
48616,-100,4,2,2,50,0,0
48939,-100,4,2,1,50,0,0
49100,-100,4,2,2,50,0,0
49745,-100,4,2,1,50,0,0
49907,-100,4,2,2,50,0,0
50229,-100,4,2,1,50,0,0
50391,-100,4,2,2,50,0,0
51520,-100,4,2,1,50,0,0
51681,-100,4,2,2,50,0,0
52326,-100,4,2,1,50,0,0
52487,-100,4,2,2,50,0,0
52810,-100,4,2,1,50,0,0
52971,-100,4,2,2,50,0,0
53616,-100,4,2,1,50,0,0
53778,-100,4,2,2,50,0,0
54100,-100,4,2,1,50,0,0
54261,-100,4,2,2,50,0,0
54907,-100,4,2,1,50,0,0
55068,-100,4,2,2,50,0,0
55391,-100,4,2,1,50,0,0
55552,-100,4,2,2,50,0,0
56197,-100,4,2,1,50,0,0
56358,-100,4,2,2,50,0,0
56681,-100,4,2,1,50,0,0
57003,-100,4,2,2,50,0,0
57487,-100,4,2,1,50,0,0
57649,-100,4,2,2,50,0,0
57971,-100,4,2,1,50,0,0
58778,-100,4,2,1,50,0,0
58939,-100,4,2,2,50,0,0
59261,-100,4,2,1,50,0,0
59423,-100,4,2,2,50,0,0
60068,-100,4,2,1,50,0,0
60229,-100,4,2,2,50,0,0
60552,-100,4,2,1,50,0,0
60713,-100,4,2,2,50,0,0
61358,-100,4,2,1,50,0,0
61520,-100,4,2,2,50,0,0
61842,-100,4,2,1,50,0,0
62003,-100,4,2,2,50,0,0
62649,-100,4,2,1,50,0,0
62810,-100,4,2,2,50,0,0
63132,-100,4,2,1,50,0,0
63294,-100,4,2,2,50,0,0
63939,-100,4,2,1,50,0,0
64745,-100,4,2,2,50,0,0
65713,-100,4,2,1,50,0,0
67326,-100,4,2,1,50,0,0
77649,-100,4,2,2,50,0,0
85391,-100,4,2,1,50,0,0
87810,-100,4,2,3,50,0,0
87971,-100,4,2,1,70,0,1
95713,-100,4,2,1,50,0,0
97649,-100,4,2,3,50,0,0
97971,-100,4,2,3,50,0,0
98294,-100,4,2,1,70,0,1
106036,-100,4,2,1,50,0,1
108132,-100,4,2,3,70,0,1
108616,-100,4,2,2,50,0,0
118616,-100,4,2,3,50,0,0
118939,-100,4,2,2,50,0,0
119423,-100,4,2,1,50,0,0
119584,-100,4,2,2,50,0,0
119907,-100,4,2,1,50,0,0
120068,-100,4,2,2,50,0,0
120713,-100,4,2,1,50,0,0
121520,-100,4,2,2,50,0,0
122003,-100,4,2,1,50,0,0
122165,-100,4,2,2,50,0,0
122326,-100,4,2,1,50,0,0
124745,-100,4,2,2,50,0,0
125068,-100,4,2,1,50,0,0
126036,-100,4,2,2,50,0,0
126197,-100,4,2,1,50,0,0
126681,-100,4,2,1,50,0,0
127326,-100,4,2,2,50,0,0
127971,-100,4,2,1,50,0,0
128616,-100,4,2,1,50,0,0
129261,-100,4,2,1,50,0,0
139584,-100,4,2,2,50,0,0
147326,-100,4,2,2,50,0,0
149745,-100,4,2,3,50,0,0
149907,-100,4,2,1,70,0,1
157649,-100,4,2,1,50,0,0
159745,-100,4,2,3,50,0,0
159907,-100,4,2,3,50,0,0
160229,-100,4,2,1,70,0,1
167971,-100,4,2,1,70,0,1
170552,-100,4,2,1,50,0,0
180068,-100,4,2,2,50,0,0
180874,-100,4,2,2,50,0,0
182810,-100,4,2,2,50,0,0
183455,-100,4,2,2,50,0,0
185391,-100,4,2,2,50,0,0
190552,-100,4,2,1,50,0,0
191036,-100,4,2,3,50,0,0
191197,-100,4,2,1,70,0,1
198939,-100,4,2,1,50,0,0
200229,-100,4,2,1,50,0,0
201520,-100,4,2,1,70,0,1
210552,-100,4,2,1,70,0,1
211842,-100,4,2,1,50,0,0
212487,-100,4,2,1,30,0,0
213132,-100,4,2,1,15,0,0
213778,-100,4,2,1,5,0,0

[Colours]
Combo1 : 166,83,83
Combo2 : 255,130,130
Combo3 : 193,132,255
Combo4 : 154,154,154

[HitObjects]
139,329,5391,6,0,P|178:329|233:323,1,85,2|2,0:0|0:0,0:0:0:0:
308,317,6036,2,0,P|350:312|392:312,1,85,0|0,0:0|0:0,0:0:0:0:
477,315,6681,1,0,0:0:0:0:
442,237,7003,2,0,P|449:184|475:110,1,127.5,0|0,0:0|0:0,0:0:0:0:
490,74,7649,1,0,0:0:0:0:
407,52,7971,6,0,P|363:49|309:51,1,85,2|2,0:0|0:0,0:0:0:0:
151,54,8939,2,0,P|154:99|148:149,1,85,2|2,0:0|0:0,0:0:0:0:
138,308,9907,1,2,0:0:0:0:
197,248,10229,1,0,0:0:0:0:
257,308,10552,6,0,L|224:357,2,42.5,2|0|0,0:0|0:0|0:0,0:0:0:0:
297,294,11036,1,2,0:0:0:0:
378,316,11358,2,0,L|375:358,2,42.5,0|2|0,0:0|0:0|0:0,0:0:0:0:
379,273,11842,2,0,P|376:216|381:162,1,85,2|0,0:0|0:0,0:0:0:0:
387,103,12487,2,0,P|330:106|276:101,1,85,0|0,0:0|0:0,0:0:0:0:
218,117,13132,6,0,L|208:62,2,42.5,2|0|0,0:0|0:0|0:0,0:0:0:0:
227,158,13616,1,2,0:0:0:0:
259,236,13939,2,0,P|280:234|301:230,2,42.5,0|2|0,0:0|0:0|0:0,0:0:0:0:
218,247,14423,2,0,B|172:250|131:236|131:236|101:259|40:263,1,170,2|0,0:0|0:0,0:0:0:0:
6,191,15391,1,0,0:0:0:0:
81,153,15713,6,0,L|77:64,1,85,4|0,0:0|0:0,0:0:0:0:
159,45,16358,2,0,B|203:41|203:41|254:47,1,85,8|2,0:0|0:0,0:0:0:0:
280,122,17003,2,0,L|275:208,1,85,2|8,0:0|0:0,0:0:0:0:
301,241,17487,2,0,P|349:238|398:247,1,85,2|0,0:0|0:0,0:0:0:0:
425,256,17971,1,2,0:0:0:0:
387,334,18294,6,0,P|344:340|302:338,1,85,2|0,0:0|0:0,0:0:0:0:
232,290,18939,1,8,0:0:0:0:
163,339,19261,2,0,P|117:343|76:336,2,85,2|2|0,0:0|0:0|0:0,0:0:0:0:
232,290,20229,2,0,L|232:189,1,85,2|2,0:0|0:0,0:0:0:0:
183,133,20874,6,0,P|247:163|371:163,1,170,2|2,3:2|3:2,0:0:0:0:
345,337,22165,2,0,P|281:307|159:306,1,170,2|2,3:2|3:2,0:0:0:0:
111,146,23455,6,8,B|177:113|254:148|254:148|283:118|283:118|342:154|432:138,1,340,8|0,3:2|0:0,0:0:0:0:
428,138,26036,6,0,L|424:248,1,85,4|2,3:2|0:0,0:0:0:0:
364,283,26681,2,0,B|323:271|323:271|262:280,1,85,0|10,3:0|0:0,0:0:0:0:
196,277,27326,2,0,B|172:218|222:212|189:129,2,127.5,0|8|8,3:0|0:0|0:0,0:0:0:0:
208,361,28616,5,0,3:0:0:0:
129,329,28939,2,0,L|69:332,2,42.5,0|8|0,0:0|0:0|3:0,0:0:0:0:
196,277,29584,1,8,0:0:0:0:
127,227,29907,2,0,B|127:162|127:162|139:89,2,127.5,0|8|8,3:0|0:0|0:0,0:0:0:0:
196,277,31197,6,0,L|300:271,1,85,4|0,3:2|0:0,0:0:0:0:
365,265,31842,2,0,L|360:180,1,85,0|8,3:0|0:0,0:0:0:0:
297,123,32487,2,0,P|339:100|414:116,2,127.5,0|8|8,3:0|0:0|0:0,0:0:0:0:
260,200,33778,6,0,L|113:190,1,127.5,0|8,3:0|0:0,0:0:0:0:
90,187,34423,2,0,P|93:229|87:290,1,85,0|8,3:0|0:0,0:0:0:0:
84,356,35068,1,8,3:0:0:0:
84,356,35229,2,0,L|188:353,1,85,8|8,0:3|0:0,0:0:0:0:
211,353,35713,2,0,B|207:309|207:309|211:262,1,85,0|0,3:0|0:0,0:0:0:0:
215,183,36358,6,0,B|245:104|182:104|224:6,1,170,6|8,3:2|0:0,0:0:0:0:
382,65,37649,2,0,L|378:172,1,85,2|0,0:0|0:0,0:0:0:0:
378,192,38132,2,0,P|377:229|377:257,1,42.5,2|8,0:0|0:0,0:0:0:0:
377,319,38616,1,2,0:0:0:0:
300,281,38939,6,0,B|216:281|216:281|137:320,1,170,2|8,3:2|0:0,0:0:0:0:
48,175,40229,2,0,P|48:120|65:80,1,85,2|0,0:0|0:0,0:0:0:0:
76,54,40713,2,0,L|126:62,1,42.5,2|8,0:0|0:0,0:0:0:0:
201,78,41197,1,2,0:0:0:0:
285,91,41520,6,0,B|282:134|282:134|291:178,1,85,2|0,3:2|0:0,0:0:0:0:
373,193,42165,2,0,B|376:236|376:236|367:280,1,85,8|2,0:0|0:0,0:0:0:0:
345,359,42810,2,0,P|288:348|206:359,1,127.5,2|2,0:0|0:0,0:0:0:0:
91,354,43778,2,0,L|97:302,1,42.5,2|0,0:0|0:0,0:0:0:0:
103,270,44100,6,0,P|114:216|106:140,1,127.5,2|0,3:2|0:0,0:0:0:0:
99,102,44745,2,0,L|186:106,1,85,8|0,0:0|0:0,0:0:0:0:
268,113,45391,1,2,0:0:0:0:
268,282,46036,2,0,B|332:272|332:272|413:285,1,127.5,0|0,3:0|3:0,0:0:0:0:
435,291,46681,6,0,B|436:238|436:238|451:162,1,127.5,4|8,3:2|0:0,0:0:0:0:
457,122,47326,2,0,P|416:130|367:127,1,85,8|10,0:0|0:0,0:0:0:0:
321,60,47971,2,0,L|311:210,1,127.5,2|10,3:2|0:0,0:0:0:0:
313,229,48616,2,0,B|272:223|272:223|226:226,1,85,8|10,0:0|0:0,0:0:0:0:
160,277,49261,6,0,P|177:226|162:138,1,127.5,2|8,3:2|0:0,0:0:0:0:
150,114,49907,1,8,0:0:0:0:
223,72,50229,1,10,0:0:0:0:
303,43,50552,2,0,P|363:38|437:47,1,127.5,2|0,3:2|0:0,0:0:0:0:
472,49,51197,2,0,P|469:98|466:139,1,85,8|10,0:0|0:0,0:0:0:0:
462,218,51842,6,0,B|374:218|374:218|325:205,1,127.5,2|8,3:2|0:0,0:0:0:0:
293,199,52487,2,0,P|297:239|294:287,1,85,8|10,0:0|0:0,0:0:0:0:
237,346,53132,2,0,P|169:344|103:348,1,127.5,2|10,3:2|0:0,0:0:0:0:
66,352,53778,1,8,0:0:0:0:
58,267,54100,1,10,0:0:0:0:
52,182,54423,6,0,P|64:122|102:57,1,127.5,2|10,3:2|0:0,0:0:0:0:
122,30,55068,2,0,B|170:34|170:34|235:54,1,85,8|8,0:0|0:0,0:0:0:0:
285,73,55713,2,0,P|338:83|425:74,1,127.5,2|8,3:2|0:0,0:0:0:0:
452,68,56358,1,10,0:0:0:0:
447,152,56681,2,0,L|451:208,1,42.5,8|8,0:0|0:0,0:0:0:0:
453,236,57003,6,0,P|392:224|324:228,1,127.5,4|8,3:2|0:0,0:0:0:0:
285,238,57649,1,8,0:0:0:0:
202,257,57971,1,10,0:0:0:0:
118,273,58294,2,0,P|122:223|182:175,1,127.5,6|8,3:2|0:0,0:0:0:0:
219,163,58939,2,0,P|211:121|219:79,1,85,8|10,0:0|0:0,0:0:0:0:
297,44,59584,6,0,P|338:35|380:43,1,85,6|0,3:2|0:0,0:0:0:0:
457,80,60229,2,0,P|465:121|457:163,1,85,8|8,0:0|0:0,0:0:0:0:
440,246,60874,1,2,3:2:0:0:
270,235,61520,2,0,P|230:231|158:242,1,85,8|8,0:0|0:0,0:0:0:0:
123,293,62165,6,0,B|143:232|143:232|133:154,1,127.5,6|8,3:2|0:0,0:0:0:0:
124,127,62810,2,0,P|166:114|220:115,1,85,0|10,0:0|0:0,0:0:0:0:
291,119,63455,2,0,P|360:123|435:112,1,127.5,6|10,3:2|0:0,0:0:0:0:
460,110,64100,2,0,B|457:155|457:155|462:202,1,85,0|10,0:0|0:0,0:0:0:0:
470,279,64745,6,0,L|384:288,1,85,4|2,3:2|0:0,0:0:0:0:
300,296,65391,2,0,P|297:259|297:246,1,42.5,8|0,3:2|0:0,0:0:0:0:
294,211,65713,2,0,P|303:164|333:128,1,85,10|2,0:0|0:1,0:0:0:0:
434,68,66520,1,0,0:0:0:0:
434,68,66681,2,0,P|458:102|464:144,1,85,0|0,0:0|0:0,0:0:0:0:
462,229,67326,6,0,L|345:224,1,85,4|0,3:2|0:0,0:0:0:0:
36,219,68939,1,0,0:0:0:0:
36,219,69100,2,0,P|42:159|68:91,1,127.5,2|2,0:0|0:0,0:0:0:0:
116,28,69907,6,0,L|217:36,1,85,2|0,0:0|0:0,0:0:0:0:
369,50,70874,1,2,0:0:0:0:
424,114,71197,2,0,B|428:160|428:160|424:203,1,85,2|0,0:0|0:0,0:0:0:0:
418,283,71842,2,0,B|379:279|379:279|333:283,1,85,0|0,0:0|0:0,0:0:0:0:
250,301,72487,6,0,L|256:358,2,42.5,2|0|0,0:0|0:0|0:0,0:0:0:0:
243,258,72971,1,2,0:0:0:0:
225,174,73294,2,0,L|180:178,2,42.5,0|2|0,0:0|0:0|0:0,0:0:0:0:
267,171,73778,2,0,P|306:164|359:135,2,85,2|0|0,0:0|0:0|0:0,0:0:0:0:
98,192,75068,6,0,L|93:145,2,42.5,2|0|0,0:0|0:0|0:0,0:0:0:0:
104,234,75552,1,2,0:0:0:0:
111,318,75874,2,0,L|64:323,2,42.5,0|2|0,0:0|0:0|0:0,0:0:0:0:
153,315,76358,2,0,P|200:313|293:313,1,127.5,2|0,0:0|0:0,0:0:0:0:
323,313,77003,2,0,P|329:271|325:223,1,85,0|0,0:0|0:0,0:0:0:0:
318,143,77649,6,0,B|350:138|350:138|402:138,1,85,4|0,0:0|0:0,0:0:0:0:
411,224,78294,2,0,B|378:228|378:228|326:228,1,85,8|2,0:0|0:0,0:0:0:0:
243,208,78939,2,0,B|191:208|191:208|158:212,1,85,2|0,0:0|0:0,0:0:0:0:
117,225,79423,2,0,P|112:181|118:136,1,85,2|0,0:0|0:0,0:0:0:0:
127,99,79907,1,2,0:0:0:0:
177,30,80229,6,0,P|218:35|273:35,2,85,2|0|8,0:0|0:0|0:0,0:0:0:0:
92,20,81197,1,2,0:0:0:0:
52,95,81520,2,0,B|46:139|46:139|51:183,1,85,2|0,0:0|0:0,0:0:0:0:
110,239,82165,2,0,B|116:283|116:283|111:327,1,85,8|0,0:0|0:0,0:0:0:0:
33,358,82810,6,0,L|208:358,1,170,2|8,0:0|0:0,0:0:0:0:
314,229,84100,2,0,L|139:229,1,170,2|8,0:0|0:0,0:0:0:0:
47,89,85391,6,0,B|117:93|156:37|156:37|172:91|205:120|205:120|252:87|317:103,1,340,8|0,0:0|0:0,0:0:0:0:
485,103,87326,2,0,B|483:130|483:130|490:156|490:156|488:192,1,85,0|8,0:0|0:3,0:0:0:0:
485,229,87810,1,8,0:3:0:0:
481,271,87971,6,0,B|436:266|436:266|365:274,1,85,4|0,3:2|0:0,0:0:0:0:
312,286,88616,1,0,3:0:0:0:
229,306,88939,1,8,0:0:0:0:
145,323,89261,2,0,P|96:313|36:259,2,127.5,0|8|8,3:0|0:0|0:0,0:0:0:0:
229,306,90552,6,0,B|271:294|271:294|324:299,1,85,0|0,3:0|0:0,0:0:0:0:
397,295,91197,2,0,B|400:253|400:253|388:211,1,85,0|8,3:0|0:0,0:0:0:0:
317,166,91842,2,0,P|351:135|436:142,2,127.5,0|8|8,3:0|0:0|0:0,0:0:0:0:
286,245,93132,6,0,L|193:236,1,85,4|0,3:2|0:0,0:0:0:0:
116,224,93778,2,0,P|100:261|109:315,1,85,0|8,3:0|0:0,0:0:0:0:
165,363,94423,2,0,P|107:357|36:360,2,127.5,0|8|8,3:0|0:0|0:0,0:0:0:0:
249,374,95713,5,2,3:2:0:0:
249,374,95874,2,0,B|256:316|256:316|251:240,1,127.5,2|2,0:2|3:2,0:0:0:0:
251,204,96520,2,0,B|317:197|317:197|377:206,1,127.5,2|8,0:0|0:3,0:0:0:0:
420,205,97165,2,0,B|415:141|415:141|422:78,1,127.5,8|0,0:3|0:0,0:0:0:0:
362,17,97971,1,8,0:0:0:0:
287,58,98294,6,0,P|240:64|173:60,1,85,4|0,3:2|0:0,0:0:0:0:
117,62,98939,2,0,P|116:104|122:146,1,85,0|8,3:0|0:0,0:0:0:0:
141,229,99584,2,0,P|81:240|29:282,2,127.5,0|8|8,3:0|0:0|0:0,0:0:0:0:
225,235,100874,6,0,P|272:226|314:201,1,85,0|0,3:0|0:0,0:0:0:0:
351,137,101520,2,0,P|398:146|440:171,1,85,0|8,3:0|0:0,0:0:0:0:
480,232,102165,2,0,L|492:99,2,127.5,0|8|8,3:0|0:0|0:0,0:0:0:0:
466,316,103455,6,0,P|411:319|355:332,1,85,4|0,3:2|0:0,0:0:0:0:
298,342,104100,2,0,P|255:340|213:333,1,85,0|8,3:0|0:0,0:0:0:0:
132,306,104745,2,0,P|69:300|4:325,2,127.5,0|8|8,3:0|0:0|0:0,0:0:0:0:
214,333,106036,5,2,3:2:0:0:
214,333,106197,2,0,L|248:187,1,127.5,2|2,0:2|3:2,0:0:0:0:
285,208,106842,2,0,L|313:332,1,127.5,2|8,0:2|0:3,0:0:0:0:
356,332,107487,2,0,L|384:207,1,127.5,8|0,0:3|3:0,0:0:0:0:
405,124,108294,1,8,0:0:0:0:
420,40,108616,6,0,P|338:40|246:48,1,170,6|8,3:2|3:2,0:0:0:0:
166,63,109584,1,2,0:0:0:0:
82,80,109907,2,0,B|92:122|92:122|85:181,1,85,2|0,3:2|0:0,0:0:0:0:
68,246,110552,2,0,B|58:288|58:288|65:347,1,85,8|2,3:2|0:0,0:0:0:0:
147,338,111197,6,0,B|231:309|229:357|322:326,1,170,2|8,3:2|3:2,0:0:0:0:
396,307,112165,1,2,0:0:0:0:
336,246,112487,2,0,B|333:170|333:170|339:150|339:150|336:74,1,170,0|0,3:0|0:0,0:0:0:0:
421,222,113778,6,0,P|415:286|316:333,1,170,2|8,3:2|3:2,0:0:0:0:
336,246,114745,1,2,0:0:0:0:
342,157,115068,2,0,P|267:189|251:270,1,170,2|8,3:2|3:2,0:0:0:0:
139,332,116197,1,0,0:0:0:0:
139,332,116358,6,0,P|90:332|46:297,1,85,2|0,3:2|0:0,0:0:0:0:
117,251,117003,2,0,P|120:199|115:152,1,85,8|2,3:2|0:0,0:0:0:0:
105,81,117649,1,2,3:2:0:0:
224,125,118132,1,0,0:0:0:0:
224,125,118294,2,0,P|268:132|321:122,1,85,10|0,3:2|0:0,0:0:0:0:
373,71,118939,6,0,B|358:132|358:132|378:207,1,127.5,4|8,3:2|0:0,0:0:0:0:
383,236,119584,2,0,L|278:247,1,85,8|10,3:2|0:0,0:0:0:0:
213,246,120229,2,0,B|165:239|134:257|82:248,1,127.5,6|10,3:2|0:0,0:0:0:0:
43,245,120874,2,0,P|34:286|40:330,1,85,0|10,0:0|0:0,0:0:0:0:
117,363,121520,6,0,P|168:355|232:353,1,85,6|0,3:2|0:0,0:0:0:0:
286,350,122165,2,0,P|328:346|370:339,1,85,8|8,0:0|0:0,0:0:0:0:
453,323,122810,2,0,B|444:240|444:240|450:191,1,127.5,2|10,3:2|0:0,0:0:0:0:
457,154,123455,1,0,0:0:0:0:
476,71,123778,1,8,0:0:0:0:
402,28,124100,6,0,L|268:41,1,127.5,6|8,3:2|0:0,0:0:0:0:
232,46,124745,2,0,B|241:88|241:88|236:131,1,85,8|8,0:0|0:0,0:0:0:0:
165,177,125391,2,0,L|299:190,1,127.5,6|10,3:2|0:0,0:0:0:0:
335,195,126036,2,0,B|326:237|326:237|331:280,1,85,8|10,0:0|0:0,0:0:0:0:
349,361,126681,6,0,L|239:364,1,85,8|8,3:2|3:2,0:0:0:0:
179,357,127326,2,0,L|176:247,1,85,8|8,3:2|3:2,0:0:0:0:
173,186,127971,1,2,0:1:0:0:
174,58,128455,1,0,0:0:0:0:
174,58,128616,2,0,P|215:63|250:87,1,85,0|0,0:0|0:0,0:0:0:0:
330,119,129261,6,0,L|335:16,1,85,4|0,3:2|0:0,0:0:0:0:
475,343,130874,1,0,0:0:0:0:
475,343,131036,2,0,P|415:337|347:311,1,127.5,2|0,0:0|0:0,0:0:0:0:
280,267,131842,6,0,P|237:258|182:257,1,85,2|0,0:0|0:0,0:0:0:0:
131,96,132809,1,2,0:0:0:0:
178,24,133132,2,0,B|224:20|224:20|267:24,1,85,2|0,0:0|0:0,0:0:0:0:
347,30,133777,2,0,B|343:69|343:69|347:115,1,85,0|0,0:0|0:0,0:0:0:0:
365,198,134422,6,0,L|422:192,2,42.5,2|0|0,3:2|0:0|0:0,0:0:0:0:
322,205,134906,1,2,0:0:0:0:
238,223,135229,2,0,L|242:268,2,42.5,0|2|0,0:0|0:0|0:0,0:0:0:0:
235,181,135713,2,0,P|228:142|199:89,2,85,2|0|0,0:0|0:0|0:0,0:0:0:0:
256,350,137003,6,0,L|209:355,2,42.5,2|0|0,0:0|0:0|0:0,0:0:0:0:
298,344,137487,1,2,0:0:0:0:
382,337,137809,2,0,L|387:384,2,42.5,0|2|0,0:0|0:0|0:0,0:0:0:0:
379,295,138294,2,0,P|377:248|377:155,1,127.5,2|0,0:0|0:0,0:0:0:0:
377,125,138938,2,0,P|335:119|287:123,1,85,0|0,0:0|0:0,0:0:0:0:
207,130,139584,6,0,B|202:98|202:98|202:46,1,85,4|0,0:0|0:0,0:0:0:0:
289,37,140229,2,0,B|293:70|293:70|293:122,1,85,8|0,0:0|0:0,0:0:0:0:
272,205,140874,2,0,B|272:257|272:257|276:290,1,85,10|0,0:0|0:0,0:0:0:0:
289,331,141358,2,0,P|245:336|200:330,1,85,2|0,0:0|0:0,0:0:0:0:
163,321,141842,1,2,0:0:0:0:
94,271,142164,6,0,P|99:230|99:175,2,85,10|0|8,0:0|0:0|0:0,0:0:0:0:
84,356,143132,1,0,0:0:0:0:
163,321,143455,2,0,B|203:316|203:316|247:322,1,85,10|0,0:0|0:0,0:0:0:0:
332,330,144100,2,0,B|376:336|376:336|420:331,1,85,10|2,0:0|0:0,0:0:0:0:
458,257,144745,6,0,L|458:82,1,170,10|0,0:0|0:0,0:0:0:0:
293,134,146035,2,0,L|293:309,1,170,10|8,0:0|0:0,0:0:0:0:
129,352,147326,6,0,B|133:282|77:243|77:243|131:227|160:194|160:194|127:147|143:82,1,340,8|0,3:2|0:0,3:3:0:0:
309,114,149261,2,0,B|345:113|345:113|358:117|358:117|413:116,1,85,0|8,0:0|0:3,0:0:0:0:
436,117,149745,1,8,0:3:0:0:
478,114,149906,6,0,B|484:175|484:175|481:208,1,85,4|0,3:2|0:0,0:0:0:0:
472,283,150551,1,0,3:0:0:0:
453,366,150874,1,8,0:0:0:0:
390,307,151197,2,0,P|331:316|263:337,2,127.5,0|8|8,3:0|0:0|0:0,0:0:0:0:
472,283,152487,6,0,B|475:241|475:241|463:199,1,85,0|0,3:0|0:0,0:0:0:0:
440,118,153132,2,0,B|398:115|398:115|356:127,1,85,0|8,3:0|0:0,0:0:0:0:
311,198,153777,2,0,P|280:164|288:81,2,127.5,0|8|8,3:0|0:0|0:0,0:0:0:0:
357,127,155068,6,0,P|399:121|440:136,1,85,4|0,3:2|0:0,0:0:0:0:
393,206,155713,2,0,P|351:212|310:197,1,85,0|8,3:0|0:0,0:0:0:0:
228,179,156358,2,0,P|222:237|225:308,2,127.5,0|8|8,3:0|0:0|0:0,0:0:0:0:
223,94,157648,5,2,3:2:0:0:
223,94,157810,2,0,B|165:87|165:87|89:92,1,127.5,2|2,0:0|3:2,0:0:0:0:
53,94,158455,2,0,B|44:154|44:154|51:220,1,127.5,2|8,0:0|3:3,0:0:0:0:
56,262,159100,2,0,B|119:269|119:269|183:264,1,127.5,8|0,0:3|0:0,0:0:0:0:
267,260,159906,1,8,0:0:0:0:
352,261,160229,6,0,P|346:214|350:147,1,85,4|0,3:2|0:0,0:0:0:0:
355,91,160874,2,0,P|313:90|271:96,1,85,0|8,3:0|0:0,0:0:0:0:
185,101,161519,2,0,P|145:150|133:212,2,127.5,0|8|8,3:0|0:0|0:0,0:0:0:0:
271,96,162809,6,0,P|290:133|297:175,1,85,0|0,3:0|0:0,0:0:0:0:
302,260,163455,2,0,P|343:255|390:268,1,85,0|8,3:0|0:0,0:0:0:0:
420,342,164100,2,0,P|432:278|460:220,2,127.5,0|8|8,3:0|0:0|0:0,0:0:0:0:
335,354,165390,6,0,P|298:351|242:338,1,85,4|0,3:2|0:0,0:0:0:0:
168,322,166035,2,0,P|170:279|177:237,1,85,0|8,3:0|0:0,0:0:0:0:
183,152,166681,2,0,P|246:146|311:171,2,127.5,0|8|8,3:0|0:0|0:0,0:0:0:0:
98,160,167971,5,2,3:2:0:0:
98,160,168132,2,0,L|132:306,1,127.5,2|2,0:0|3:2,0:0:0:0:
137,325,168777,2,0,L|261:297,1,127.5,2|8,0:0|3:0,0:0:0:0:
302,286,169423,2,0,L|274:161,1,127.5,8|0,0:3|3:0,0:0:0:0:
247,80,170229,1,8,0:0:0:0:
329,100,170552,5,2,0:0:0:0:
329,100,180068,5,0,0:0:0:0:
329,100,180229,2,0,P|282:101|226:117,1,85,8|0,0:0|0:0,0:0:0:0:
193,177,180874,6,0,B|193:96|193:96|158:4,1,170,8|8,3:2|3:2,0:0:0:0:
36,128,182165,2,0,B|36:209|36:209|71:301,1,170,8|8,3:2|3:2,0:0:0:0:
113,363,183132,1,8,0:0:0:0:
174,304,183455,6,0,B|254:304|254:250|338:250,1,170,8|8,3:2|3:2,0:0:0:0:
332,80,184745,2,0,B|252:80|252:26|168:26,1,170,8|8,3:2|3:2,0:0:0:0:
88,26,185713,1,8,0:0:0:0:
27,86,186036,6,0,B|24:131|24:131|29:172,1,85,8|8,3:2|3:2,0:0:0:0:
50,252,186681,2,0,B|95:249|95:249|136:254,1,85,8|8,3:2|3:2,0:0:0:0:
219,264,187326,2,0,B|230:223|230:223|230:177,1,85,8|8,3:2|3:2,0:0:0:0:
215,96,187971,2,0,B|256:83|256:83|298:83,1,85,8|8,3:2|3:2,0:0:0:0:
380,55,188616,6,0,B|421:96|437:128|453:144|469:192|469:192|453:240|437:256|421:288|373:336,1,340,8|8,3:0|0:0,3:3:0:0:
203,336,190552,2,0,B|201:279|201:279|208:259|208:259|205:204,1,127.5,2|0,0:0|0:0,0:0:0:0:
201,167,191197,6,0,L|301:157,1,85,4|0,3:2|0:0,0:0:0:0:
370,149,191842,2,0,B|380:190|380:190|373:251,1,85,0|8,3:0|0:0,0:0:0:0:
376,317,192487,2,0,B|304:342|319:292|243:326,2,127.5,0|8|8,3:0|0:0|0:0,0:0:0:0:
447,271,193777,5,0,3:0:0:0:
371,232,194100,2,0,L|368:172,2,42.5,0|8|0,0:0|0:0|3:0,0:0:0:0:
376,317,194745,1,8,0:0:0:0:
300,277,195068,2,0,B|235:277|235:277|162:289,2,127.5,0|8|10,3:0|0:0|0:0,0:0:0:0:
371,232,196358,6,0,L|365:128,1,85,6|0,3:2|0:0,0:0:0:0:
329,70,197003,2,0,L|225:76,1,85,0|8,3:0|0:0,0:0:0:0:
187,137,197648,2,0,P|164:95|180:20,2,127.5,0|8|8,3:0|0:0|0:0,0:0:0:0:
259,184,198939,6,0,L|249:331,1,127.5,0|8,3:0|0:0,0:0:0:0:
247,353,199584,2,0,P|289:350|350:356,1,85,0|8,3:0|0:0,0:0:0:0:
416,356,200229,1,8,3:0:0:0:
416,356,200390,2,0,L|413:252,1,85,8|8,0:3|0:0,0:0:0:0:
416,228,200874,2,0,B|372:232|372:232|325:228,1,85,0|8,3:0|3:2,0:0:0:0:
246,223,201520,6,0,P|192:217|134:227,1,85,4|0,3:2|0:0,0:0:0:0:
76,222,202165,2,0,P|73:179|78:137,1,85,0|8,3:0|0:0,0:0:0:0:
140,78,202810,2,0,P|84:55|14:82,2,127.5,0|8|8,3:0|0:0|0:0,0:0:0:0:
212,123,204100,5,0,3:0:0:0:
272,62,204423,2,0,L|272:16,2,42.5,0|8|0,0:0|0:0|3:0,0:0:0:0:
332,122,205068,1,8,0:0:0:0:
392,61,205391,2,0,P|416:108|397:179,2,127.5,0|8|10,3:0|0:0|0:0,0:0:0:0:
332,122,206681,5,6,3:2:0:0:
398,177,207003,1,0,0:0:0:0:
332,232,207326,2,0,P|279:227|245:219,1,85,0|8,3:0|0:0,0:0:0:0:
193,154,207971,2,0,P|200:215|190:289,2,127.5,0|8|8,3:0|0:0|0:0,0:0:0:0:
182,69,209261,6,0,B|269:69|269:69|307:92,1,127.5,0|8,3:0|0:0,0:0:0:0:
333,120,209907,2,0,P|375:120|419:140,1,85,0|8,3:0|0:0,0:0:0:0:
491,171,210552,1,8,3:0:0:0:
491,171,210713,2,0,P|484:214|482:255,1,85,8|8,0:3|0:0,0:0:0:0:
480,298,211197,2,0,L|386:301,1,85,0|8,3:0|3:2,0:0:0:0:
352,303,211681,5,10,0:0:0:0:
256,192,211842,12,0,213778,0:0:0:0:
