osu file format v14

[General]
AudioFilename: Creamy Sky.mp3
AudioLeadIn: 0
PreviewTime: 87169
Countdown: 0
SampleSet: None
StackLeniency: 0.7
Mode: 3
LetterboxInBreaks: 0
SpecialStyle: 0
WidescreenStoryboard: 1

[Editor]
DistanceSpacing: 1
BeatDivisor: 4
GridSize: 4
TimelineZoom: 1

[Metadata]
Title:Creamy Sky
TitleUnicode:Creamy Sky
Artist:BTB
ArtistUnicode:BTB
Creator:TBLKitten
Version:4K Hyper
Source:BMS
Tags:BMS happy hardcore BOF2014 G2R2014 g2r
BeatmapID:554594
BeatmapSetID:234705

[Difficulty]
HPDrainRate:5.1
CircleSize:4
OverallDifficulty:5.4
ApproachRate:5
SliderMultiplier:1.4
SliderTickRate:1

[Events]
//Background and Video events
Video,-1167,"G2R2014 - Creamy Sky BGA.avi"
0,0,"Creamy Sky.jpg",0,0
//Break Periods
//Storyboard Layer 0 (Background)
//Storyboard Layer 1 (Fail)
//Storyboard Layer 2 (Pass)
//Storyboard Layer 3 (Foreground)
//Storyboard Sound Samples

[TimingPoints]
0,315.789473684211,4,3,0,5,1,0
11368,-100,4,3,0,100,0,1
21473,-100,4,3,0,100,0,0
44210,-100,4,3,0,100,0,1
64421,-100,4,3,0,100,0,0
87157,-100,4,3,0,100,0,1
107368,-100,4,3,0,100,0,0

[HitObjects]
448,192,1263,5,0,0:0:0:0:
192,192,1578,1,0,0:0:0:0:
64,192,1578,1,0,0:0:0:0:
448,192,1894,1,0,0:0:0:0:
192,192,2210,1,0,0:0:0:0:
64,192,2210,1,0,0:0:0:0:
64,192,2526,1,0,0:0:0:0:
448,192,2842,1,0,0:0:0:0:
320,192,2842,1,0,0:0:0:0:
64,192,3157,1,0,0:0:0:0:
448,192,3473,1,0,0:0:0:0:
320,192,3473,1,0,0:0:0:0:
320,192,3789,1,0,0:0:0:0:
64,192,4105,1,0,0:0:0:0:
448,192,4105,1,0,0:0:0:0:
64,192,4421,1,0,0:0:0:0:
64,192,4736,1,0,0:0:0:0:
448,192,4736,1,0,0:0:0:0:
320,192,5052,1,0,0:0:0:0:
64,192,5368,1,0,0:0:0:0:
448,192,5368,1,0,0:0:0:0:
64,192,5684,1,0,0:0:0:0:
64,192,6000,1,0,0:0:0:0:
448,192,6000,1,0,0:0:0:0:
192,192,6315,1,0,0:0:0:0:
320,192,6315,1,0,0:0:0:0:
192,192,6631,1,0,0:0:0:0:
320,192,6631,1,0,0:0:0:0:
192,192,6947,1,0,0:0:0:0:
320,192,6947,1,0,0:0:0:0:
192,192,7263,1,0,0:0:0:0:
320,192,7263,1,0,0:0:0:0:
64,192,7578,1,0,0:0:0:0:
448,192,7578,1,0,0:0:0:0:
64,192,7894,1,0,0:0:0:0:
448,192,7894,1,0,0:0:0:0:
64,192,8210,1,0,0:0:0:0:
448,192,8210,1,0,0:0:0:0:
64,192,8526,1,0,0:0:0:0:
448,192,8526,1,0,0:0:0:0:
192,192,8842,1,0,0:0:0:0:
64,192,9000,1,0,0:0:0:0:
320,192,9157,1,0,0:0:0:0:
192,192,9315,1,0,0:0:0:0:
448,192,9473,1,0,0:0:0:0:
320,192,9631,1,0,0:0:0:0:
192,192,9789,1,0,0:0:0:0:
64,192,9947,1,0,0:0:0:0:
448,192,10105,1,0,0:0:0:0:
320,192,10184,1,0,0:0:0:0:
192,192,10263,1,0,0:0:0:0:
320,192,10342,1,0,0:0:0:0:
64,192,10421,1,0,0:0:0:0:
192,192,10500,1,0,0:0:0:0:
320,192,10578,1,0,0:0:0:0:
448,192,10657,1,0,0:0:0:0:
320,192,10736,1,0,0:0:0:0:
192,192,10815,1,0,0:0:0:0:
64,192,10894,1,0,0:0:0:0:
192,192,10973,1,0,0:0:0:0:
320,192,11052,128,0,11368:0:0:0:0:
448,192,11368,1,0,0:0:0:0:
192,192,11526,1,0,0:0:0:0:
64,192,11684,1,0,0:0:0:0:
320,192,11842,1,0,0:0:0:0:
192,192,12000,1,0,0:0:0:0:
448,192,12157,1,0,0:0:0:0:
320,192,12236,1,0,0:0:0:0:
192,192,12394,1,0,0:0:0:0:
320,192,12473,1,0,0:0:0:0:
192,192,12631,1,0,0:0:0:0:
320,192,12789,1,0,0:0:0:0:
64,192,12947,1,0,0:0:0:0:
448,192,13105,1,0,0:0:0:0:
192,192,13263,1,0,0:0:0:0:
64,192,13421,1,0,0:0:0:0:
320,192,13500,1,0,0:0:0:0:
320,192,13657,1,0,0:0:0:0:
64,192,13736,1,0,0:0:0:0:
192,192,13894,1,0,0:0:0:0:
448,192,14052,1,0,0:0:0:0:
320,192,14210,1,0,0:0:0:0:
192,192,14368,1,0,0:0:0:0:
64,192,14526,1,0,0:0:0:0:
448,192,14684,1,0,0:0:0:0:
192,192,14763,1,0,0:0:0:0:
320,192,14842,1,0,0:0:0:0:
64,192,14921,1,0,0:0:0:0:
192,192,15000,1,0,0:0:0:0:
448,192,15157,1,0,0:0:0:0:
320,192,15315,1,0,0:0:0:0:
192,192,15473,1,0,0:0:0:0:
64,192,15631,1,0,0:0:0:0:
320,192,15710,1,0,0:0:0:0:
192,192,15789,1,0,0:0:0:0:
320,192,15947,1,0,0:0:0:0:
192,192,16105,1,0,0:0:0:0:
320,192,16263,1,0,0:0:0:0:
448,192,16421,1,0,0:0:0:0:
64,192,16578,1,0,0:0:0:0:
192,192,16736,1,0,0:0:0:0:
320,192,16894,1,0,0:0:0:0:
448,192,17052,1,0,0:0:0:0:
192,192,17210,1,0,0:0:0:0:
64,192,17289,1,0,0:0:0:0:
192,192,17368,1,0,0:0:0:0:
320,192,17447,1,0,0:0:0:0:
192,192,17526,1,0,0:0:0:0:
448,192,17684,1,0,0:0:0:0:
320,192,17842,1,0,0:0:0:0:
64,192,18000,1,0,0:0:0:0:
192,192,18157,1,0,0:0:0:0:
448,192,18315,1,0,0:0:0:0:
320,192,18473,1,0,0:0:0:0:
192,192,18552,1,0,0:0:0:0:
320,192,18631,1,0,0:0:0:0:
192,192,18710,1,0,0:0:0:0:
320,192,18789,1,0,0:0:0:0:
448,192,18947,1,0,0:0:0:0:
192,192,19105,1,0,0:0:0:0:
64,192,19263,1,0,0:0:0:0:
192,192,19421,1,0,0:0:0:0:
448,192,19578,1,0,0:0:0:0:
320,192,19736,1,0,0:0:0:0:
192,192,19894,1,0,0:0:0:0:
64,192,20052,1,0,0:0:0:0:
448,192,20210,1,0,0:0:0:0:
320,192,20289,1,0,0:0:0:0:
192,192,20368,1,0,0:0:0:0:
64,192,20447,1,0,0:0:0:0:
192,192,20526,1,0,0:0:0:0:
320,192,20605,1,0,0:0:0:0:
448,192,20684,1,0,0:0:0:0:
320,192,20763,1,0,0:0:0:0:
192,192,20842,1,0,0:0:0:0:
64,192,20921,1,0,0:0:0:0:
192,192,21000,1,0,0:0:0:0:
320,192,21078,1,0,0:0:0:0:
448,192,21157,1,0,0:0:0:0:
320,192,21236,1,0,0:0:0:0:
192,192,21315,1,0,0:0:0:0:
64,192,21394,1,0,0:0:0:0:
192,192,21473,1,0,0:0:0:0:
320,192,21473,128,0,22105:0:0:0:0:
64,192,22105,1,0,0:0:0:0:
448,192,22736,128,0,23052:0:0:0:0:
320,192,23052,128,0,23368:0:0:0:0:
192,192,23368,128,0,23684:0:0:0:0:
64,192,23684,128,0,24000:0:0:0:0:
192,192,24000,128,0,24631:0:0:0:0:
320,192,24631,1,0,0:0:0:0:
320,192,25263,128,0,25578:0:0:0:0:
448,192,25578,128,0,25894:0:0:0:0:
192,192,25894,128,0,26210:0:0:0:0:
64,192,26210,128,0,26526:0:0:0:0:
320,192,26526,128,0,27157:0:0:0:0:
192,192,27157,1,0,0:0:0:0:
448,192,27789,128,0,28105:0:0:0:0:
320,192,28105,128,0,28421:0:0:0:0:
64,192,28421,128,0,28736:0:0:0:0:
192,192,28736,128,0,29052:0:0:0:0:
448,192,29052,128,0,29368:0:0:0:0:
320,192,29368,128,0,29684:0:0:0:0:
192,192,29684,128,0,30000:0:0:0:0:
64,192,30000,128,0,30315:0:0:0:0:
320,192,30315,128,0,30631:0:0:0:0:
192,192,30631,128,0,30947:0:0:0:0:
448,192,30947,128,0,31263:0:0:0:0:
320,192,31263,128,0,31578:0:0:0:0:
64,192,31578,1,0,0:0:0:0:
448,192,31736,1,0,0:0:0:0:
192,192,31894,1,0,0:0:0:0:
320,192,31894,1,0,0:0:0:0:
64,192,32052,1,0,0:0:0:0:
448,192,32210,1,0,0:0:0:0:
320,192,32368,1,0,0:0:0:0:
64,192,32526,1,0,0:0:0:0:
192,192,32526,1,0,0:0:0:0:
448,192,32684,1,0,0:0:0:0:
64,192,32842,1,0,0:0:0:0:
320,192,33000,1,0,0:0:0:0:
448,192,33157,1,0,0:0:0:0:
192,192,33157,1,0,0:0:0:0:
64,192,33315,1,0,0:0:0:0:
448,192,33473,1,0,0:0:0:0:
320,192,33631,1,0,0:0:0:0:
64,192,33789,1,0,0:0:0:0:
448,192,33789,1,0,0:0:0:0:
192,192,33947,1,0,0:0:0:0:
64,192,34105,1,0,0:0:0:0:
320,192,34263,1,0,0:0:0:0:
192,192,34421,1,0,0:0:0:0:
64,192,34421,1,0,0:0:0:0:
448,192,34578,1,0,0:0:0:0:
320,192,34736,1,0,0:0:0:0:
192,192,34894,1,0,0:0:0:0:
320,192,35052,1,0,0:0:0:0:
448,192,35052,1,0,0:0:0:0:
64,192,35210,1,0,0:0:0:0:
192,192,35368,1,0,0:0:0:0:
320,192,35526,1,0,0:0:0:0:
192,192,35684,1,0,0:0:0:0:
64,192,35684,1,0,0:0:0:0:
448,192,35842,1,0,0:0:0:0:
320,192,36000,1,0,0:0:0:0:
192,192,36157,1,0,0:0:0:0:
64,192,36315,1,0,0:0:0:0:
448,192,36315,1,0,0:0:0:0:
192,192,36473,1,0,0:0:0:0:
320,192,36473,1,0,0:0:0:0:
448,192,36631,1,0,0:0:0:0:
448,192,36789,1,0,0:0:0:0:
320,192,36947,1,0,0:0:0:0:
320,192,37105,1,0,0:0:0:0:
192,192,37263,1,0,0:0:0:0:
192,192,37421,1,0,0:0:0:0:
64,192,37578,1,0,0:0:0:0:
64,192,37736,1,0,0:0:0:0:
320,192,37894,1,0,0:0:0:0:
320,192,38052,1,0,0:0:0:0:
192,192,38210,1,0,0:0:0:0:
192,192,38368,1,0,0:0:0:0:
448,192,38526,1,0,0:0:0:0:
448,192,38684,1,0,0:0:0:0:
64,192,38842,1,0,0:0:0:0:
64,192,39000,1,0,0:0:0:0:
448,192,39157,1,0,0:0:0:0:
320,192,39394,1,0,0:0:0:0:
192,192,39631,1,0,0:0:0:0:
64,192,39789,1,0,0:0:0:0:
192,192,40026,1,0,0:0:0:0:
320,192,40263,1,0,0:0:0:0:
448,192,40421,1,0,0:0:0:0:
320,192,40657,1,0,0:0:0:0:
192,192,40894,1,0,0:0:0:0:
64,192,41052,1,0,0:0:0:0:
320,192,41289,1,0,0:0:0:0:
448,192,41526,128,0,44210:0:0:0:0:
64,192,41526,128,0,44210:0:0:0:0:
320,192,44210,1,0,0:0:0:0:
192,192,44368,1,0,0:0:0:0:
64,192,44526,1,0,0:0:0:0:
320,192,44526,1,0,0:0:0:0:
192,192,44684,1,0,0:0:0:0:
448,192,44842,1,0,0:0:0:0:
320,192,45000,1,0,0:0:0:0:
64,192,45157,1,0,0:0:0:0:
448,192,45157,1,0,0:0:0:0:
192,192,45315,1,0,0:0:0:0:
64,192,45473,1,0,0:0:0:0:
320,192,45631,1,0,0:0:0:0:
448,192,45789,1,0,0:0:0:0:
192,192,45789,1,0,0:0:0:0:
64,192,45947,1,0,0:0:0:0:
448,192,46105,128,0,46263:0:0:0:0:
320,192,46263,128,0,46421:0:0:0:0:
192,192,46421,128,0,46578:0:0:0:0:
64,192,46578,128,0,46736:0:0:0:0:
448,192,46736,1,0,0:0:0:0:
320,192,46894,1,0,0:0:0:0:
64,192,47052,1,0,0:0:0:0:
448,192,47052,1,0,0:0:0:0:
192,192,47210,1,0,0:0:0:0:
64,192,47368,1,0,0:0:0:0:
320,192,47526,1,0,0:0:0:0:
192,192,47684,1,0,0:0:0:0:
64,192,47684,1,0,0:0:0:0:
448,192,47842,1,0,0:0:0:0:
320,192,48000,1,0,0:0:0:0:
192,192,48157,1,0,0:0:0:0:
448,192,48315,1,0,0:0:0:0:
64,192,48315,1,0,0:0:0:0:
192,192,48473,1,0,0:0:0:0:
448,192,48631,1,0,0:0:0:0:
320,192,48631,1,0,0:0:0:0:
320,192,48789,1,0,0:0:0:0:
448,192,48789,1,0,0:0:0:0:
192,192,48947,1,0,0:0:0:0:
64,192,48947,1,0,0:0:0:0:
64,192,49105,1,0,0:0:0:0:
192,192,49105,1,0,0:0:0:0:
320,192,49263,1,0,0:0:0:0:
64,192,49421,1,0,0:0:0:0:
448,192,49578,1,0,0:0:0:0:
192,192,49578,1,0,0:0:0:0:
320,192,49736,1,0,0:0:0:0:
64,192,49894,1,0,0:0:0:0:
448,192,50052,1,0,0:0:0:0:
192,192,50210,1,0,0:0:0:0:
64,192,50210,1,0,0:0:0:0:
320,192,50368,1,0,0:0:0:0:
448,192,50526,1,0,0:0:0:0:
64,192,50684,1,0,0:0:0:0:
320,192,50842,1,0,0:0:0:0:
192,192,50842,1,0,0:0:0:0:
448,192,51000,1,0,0:0:0:0:
64,192,51157,128,0,51315:0:0:0:0:
192,192,51315,128,0,51473:0:0:0:0:
320,192,51473,128,0,51631:0:0:0:0:
448,192,51631,128,0,51789:0:0:0:0:
64,192,51789,1,0,0:0:0:0:
192,192,51868,1,0,0:0:0:0:
320,192,51947,1,0,0:0:0:0:
448,192,52105,1,0,0:0:0:0:
320,192,52184,1,0,0:0:0:0:
192,192,52263,1,0,0:0:0:0:
64,192,52421,1,0,0:0:0:0:
192,192,52500,1,0,0:0:0:0:
320,192,52578,1,0,0:0:0:0:
448,192,52657,1,0,0:0:0:0:
320,192,52736,1,0,0:0:0:0:
192,192,52815,1,0,0:0:0:0:
64,192,52894,1,0,0:0:0:0:
448,192,53052,1,0,0:0:0:0:
320,192,53131,1,0,0:0:0:0:
192,192,53210,1,0,0:0:0:0:
64,192,53368,1,0,0:0:0:0:
192,192,53447,1,0,0:0:0:0:
320,192,53526,1,0,0:0:0:0:
448,192,53684,1,0,0:0:0:0:
320,192,53763,1,0,0:0:0:0:
192,192,53842,1,0,0:0:0:0:
64,192,53921,1,0,0:0:0:0:
192,192,54000,1,0,0:0:0:0:
320,192,54078,1,0,0:0:0:0:
448,192,54157,1,0,0:0:0:0:
64,192,54315,1,0,0:0:0:0:
320,192,54315,1,0,0:0:0:0:
192,192,54473,1,0,0:0:0:0:
448,192,54631,1,0,0:0:0:0:
320,192,54631,1,0,0:0:0:0:
64,192,54789,1,0,0:0:0:0:
448,192,54947,1,0,0:0:0:0:
320,192,55105,1,0,0:0:0:0:
64,192,55263,1,0,0:0:0:0:
448,192,55263,1,0,0:0:0:0:
192,192,55421,1,0,0:0:0:0:
64,192,55578,1,0,0:0:0:0:
320,192,55736,1,0,0:0:0:0:
192,192,55894,1,0,0:0:0:0:
64,192,55894,1,0,0:0:0:0:
448,192,56052,1,0,0:0:0:0:
320,192,56210,128,0,56368:0:0:0:0:
192,192,56368,128,0,56526:0:0:0:0:
448,192,56526,128,0,56684:0:0:0:0:
64,192,56684,128,0,56842:0:0:0:0:
320,192,56842,1,0,0:0:0:0:
448,192,57000,1,0,0:0:0:0:
192,192,57157,1,0,0:0:0:0:
320,192,57157,1,0,0:0:0:0:
64,192,57315,1,0,0:0:0:0:
448,192,57473,1,0,0:0:0:0:
192,192,57631,1,0,0:0:0:0:
64,192,57789,1,0,0:0:0:0:
320,192,57789,1,0,0:0:0:0:
448,192,57947,1,0,0:0:0:0:
192,192,58105,1,0,0:0:0:0:
448,192,58263,1,0,0:0:0:0:
64,192,58421,1,0,0:0:0:0:
192,192,58421,1,0,0:0:0:0:
320,192,58578,1,0,0:0:0:0:
64,192,58736,1,0,0:0:0:0:
448,192,58736,1,0,0:0:0:0:
64,192,58894,1,0,0:0:0:0:
448,192,58894,1,0,0:0:0:0:
192,192,59052,1,0,0:0:0:0:
320,192,59052,1,0,0:0:0:0:
192,192,59210,1,0,0:0:0:0:
320,192,59210,1,0,0:0:0:0:
448,192,59368,1,0,0:0:0:0:
64,192,59368,1,0,0:0:0:0:
192,192,59526,1,0,0:0:0:0:
448,192,59684,1,0,0:0:0:0:
320,192,59684,1,0,0:0:0:0:
64,192,59842,1,0,0:0:0:0:
448,192,60000,1,0,0:0:0:0:
320,192,60157,1,0,0:0:0:0:
64,192,60315,1,0,0:0:0:0:
192,192,60315,1,0,0:0:0:0:
448,192,60473,1,0,0:0:0:0:
64,192,60631,1,0,0:0:0:0:
320,192,60789,1,0,0:0:0:0:
448,192,60947,1,0,0:0:0:0:
192,192,60947,1,0,0:0:0:0:
64,192,61105,1,0,0:0:0:0:
448,192,61263,128,0,61421:0:0:0:0:
192,192,61421,128,0,61578:0:0:0:0:
320,192,61578,128,0,61736:0:0:0:0:
64,192,61736,128,0,61894:0:0:0:0:
448,192,61894,1,0,0:0:0:0:
320,192,61973,1,0,0:0:0:0:
192,192,62052,1,0,0:0:0:0:
64,192,62210,1,0,0:0:0:0:
192,192,62289,1,0,0:0:0:0:
320,192,62368,1,0,0:0:0:0:
448,192,62526,1,0,0:0:0:0:
320,192,62605,1,0,0:0:0:0:
192,192,62684,1,0,0:0:0:0:
64,192,62763,1,0,0:0:0:0:
192,192,62842,1,0,0:0:0:0:
320,192,62921,1,0,0:0:0:0:
448,192,63000,1,0,0:0:0:0:
64,192,63157,1,0,0:0:0:0:
192,192,63236,1,0,0:0:0:0:
320,192,63315,1,0,0:0:0:0:
448,192,63394,1,0,0:0:0:0:
192,192,63473,1,0,0:0:0:0:
320,192,63552,1,0,0:0:0:0:
64,192,63631,1,0,0:0:0:0:
192,192,63710,1,0,0:0:0:0:
320,192,63789,1,0,0:0:0:0:
448,192,63868,1,0,0:0:0:0:
320,192,63947,1,0,0:0:0:0:
192,192,64026,1,0,0:0:0:0:
64,192,64105,128,0,64421:0:0:0:0:
448,192,64421,128,0,64736:0:0:0:0:
192,192,64736,128,0,65052:0:0:0:0:
320,192,65052,128,0,65368:0:0:0:0:
448,192,65368,128,0,65684:0:0:0:0:
192,192,65684,128,0,66000:0:0:0:0:
320,192,66000,128,0,66315:0:0:0:0:
64,192,66315,128,0,66631:0:0:0:0:
192,192,66631,128,0,66947:0:0:0:0:
448,192,66947,128,0,67263:0:0:0:0:
320,192,67263,128,0,67578:0:0:0:0:
192,192,67578,128,0,67894:0:0:0:0:
64,192,67894,128,0,68210:0:0:0:0:
448,192,68210,128,0,68526:0:0:0:0:
320,192,68526,128,0,68842:0:0:0:0:
192,192,68842,128,0,69157:0:0:0:0:
64,192,69157,128,0,69473:0:0:0:0:
320,192,69473,128,0,69789:0:0:0:0:
192,192,69789,128,0,70105:0:0:0:0:
448,192,70105,128,0,70421:0:0:0:0:
64,192,70421,128,0,70736:0:0:0:0:
320,192,70736,128,0,71052:0:0:0:0:
192,192,71052,128,0,71368:0:0:0:0:
448,192,71368,128,0,71684:0:0:0:0:
64,192,71684,128,0,72000:0:0:0:0:
448,192,72000,128,0,72315:0:0:0:0:
192,192,72315,128,0,72631:0:0:0:0:
64,192,72631,128,0,72947:0:0:0:0:
192,192,72947,128,0,73263:0:0:0:0:
448,192,73263,128,0,73578:0:0:0:0:
320,192,73578,128,0,73894:0:0:0:0:
64,192,73894,128,0,74210:0:0:0:0:
320,192,74210,128,0,74526:0:0:0:0:
448,192,74526,5,0,0:0:0:0:
64,192,74526,1,0,0:0:0:0:
192,192,74842,1,0,0:0:0:0:
64,192,75157,1,0,0:0:0:0:
192,192,75157,1,0,0:0:0:0:
448,192,75473,1,0,0:0:0:0:
192,192,75710,1,0,0:0:0:0:
64,192,75789,1,0,0:0:0:0:
320,192,76105,1,0,0:0:0:0:
448,192,76421,1,0,0:0:0:0:
64,192,76421,1,0,0:0:0:0:
192,192,76736,1,0,0:0:0:0:
448,192,77052,1,0,0:0:0:0:
192,192,77052,1,0,0:0:0:0:
64,192,77368,1,0,0:0:0:0:
192,192,77684,1,0,0:0:0:0:
320,192,78000,1,0,0:0:0:0:
448,192,78000,1,0,0:0:0:0:
320,192,78236,1,0,0:0:0:0:
192,192,78315,1,0,0:0:0:0:
64,192,78631,1,0,0:0:0:0:
448,192,78947,1,0,0:0:0:0:
320,192,79263,1,0,0:0:0:0:
64,192,79578,1,0,0:0:0:0:
192,192,79894,1,0,0:0:0:0:
320,192,80210,1,0,0:0:0:0:
448,192,80526,1,0,0:0:0:0:
192,192,80763,1,0,0:0:0:0:
64,192,80842,1,0,0:0:0:0:
192,192,81157,1,0,0:0:0:0:
448,192,81473,1,0,0:0:0:0:
320,192,81789,1,0,0:0:0:0:
192,192,82026,1,0,0:0:0:0:
64,192,82105,128,0,82421:0:0:0:0:
192,192,82421,128,0,82736:0:0:0:0:
448,192,82736,128,0,83052:0:0:0:0:
320,192,83052,128,0,83368:0:0:0:0:
64,192,83368,128,0,83684:0:0:0:0:
192,192,83684,128,0,84000:0:0:0:0:
320,192,84000,128,0,84315:0:0:0:0:
448,192,84315,128,0,85894:0:0:0:0:
448,192,87157,1,0,0:0:0:0:
192,192,87157,1,0,0:0:0:0:
320,192,87315,1,0,0:0:0:0:
64,192,87473,1,0,0:0:0:0:
192,192,87473,1,0,0:0:0:0:
448,192,87631,1,0,0:0:0:0:
64,192,87789,1,0,0:0:0:0:
320,192,87947,1,0,0:0:0:0:
64,192,88105,1,0,0:0:0:0:
448,192,88105,1,0,0:0:0:0:
192,192,88263,1,0,0:0:0:0:
64,192,88421,1,0,0:0:0:0:
320,192,88578,1,0,0:0:0:0:
448,192,88736,1,0,0:0:0:0:
192,192,88736,1,0,0:0:0:0:
64,192,88894,1,0,0:0:0:0:
448,192,89052,128,0,89210:0:0:0:0:
192,192,89210,128,0,89368:0:0:0:0:
320,192,89368,128,0,89526:0:0:0:0:
64,192,89526,128,0,89684:0:0:0:0:
448,192,89684,1,0,0:0:0:0:
192,192,89842,1,0,0:0:0:0:
64,192,90000,1,0,0:0:0:0:
448,192,90000,1,0,0:0:0:0:
192,192,90157,1,0,0:0:0:0:
64,192,90315,1,0,0:0:0:0:
320,192,90473,1,0,0:0:0:0:
192,192,90631,1,0,0:0:0:0:
448,192,90631,1,0,0:0:0:0:
320,192,90789,1,0,0:0:0:0:
64,192,90947,1,0,0:0:0:0:
448,192,91105,1,0,0:0:0:0:
192,192,91263,1,0,0:0:0:0:
64,192,91263,1,0,0:0:0:0:
320,192,91421,1,0,0:0:0:0:
192,192,91578,1,0,0:0:0:0:
448,192,91578,1,0,0:0:0:0:
192,192,91736,1,0,0:0:0:0:
448,192,91736,1,0,0:0:0:0:
64,192,91894,1,0,0:0:0:0:
320,192,91894,1,0,0:0:0:0:
64,192,92052,1,0,0:0:0:0:
320,192,92052,1,0,0:0:0:0:
192,192,92210,1,0,0:0:0:0:
448,192,92210,1,0,0:0:0:0:
64,192,92368,1,0,0:0:0:0:
320,192,92526,1,0,0:0:0:0:
192,192,92526,1,0,0:0:0:0:
448,192,92684,1,0,0:0:0:0:
64,192,92842,1,0,0:0:0:0:
320,192,93000,1,0,0:0:0:0:
192,192,93157,1,0,0:0:0:0:
64,192,93157,1,0,0:0:0:0:
448,192,93315,1,0,0:0:0:0:
64,192,93473,1,0,0:0:0:0:
320,192,93631,1,0,0:0:0:0:
448,192,93789,1,0,0:0:0:0:
192,192,93789,1,0,0:0:0:0:
64,192,93947,1,0,0:0:0:0:
448,192,94105,128,0,94263:0:0:0:0:
320,192,94263,128,0,94421:0:0:0:0:
192,192,94421,128,0,94578:0:0:0:0:
64,192,94578,128,0,94736:0:0:0:0:
448,192,94736,1,0,0:0:0:0:
320,192,94815,1,0,0:0:0:0:
192,192,94894,1,0,0:0:0:0:
64,192,94973,1,0,0:0:0:0:
192,192,95052,1,0,0:0:0:0:
320,192,95131,1,0,0:0:0:0:
448,192,95210,1,0,0:0:0:0:
320,192,95289,1,0,0:0:0:0:
64,192,95368,1,0,0:0:0:0:
192,192,95447,1,0,0:0:0:0:
320,192,95526,1,0,0:0:0:0:
448,192,95605,1,0,0:0:0:0:
320,192,95684,1,0,0:0:0:0:
192,192,95763,1,0,0:0:0:0:
64,192,95842,1,0,0:0:0:0:
448,192,96000,1,0,0:0:0:0:
320,192,96078,1,0,0:0:0:0:
192,192,96157,1,0,0:0:0:0:
64,192,96236,1,0,0:0:0:0:
320,192,96315,1,0,0:0:0:0:
192,192,96394,1,0,0:0:0:0:
448,192,96473,1,0,0:0:0:0:
320,192,96552,1,0,0:0:0:0:
192,192,96631,1,0,0:0:0:0:
64,192,96710,1,0,0:0:0:0:
192,192,96789,1,0,0:0:0:0:
448,192,96868,1,0,0:0:0:0:
320,192,96947,1,0,0:0:0:0:
192,192,97026,1,0,0:0:0:0:
64,192,97105,1,0,0:0:0:0:
192,192,97184,1,0,0:0:0:0:
320,192,97263,1,0,0:0:0:0:
192,192,97421,1,0,0:0:0:0:
64,192,97578,1,0,0:0:0:0:
320,192,97578,1,0,0:0:0:0:
448,192,97578,1,0,0:0:0:0:
192,192,97736,1,0,0:0:0:0:
64,192,97894,1,0,0:0:0:0:
448,192,98052,1,0,0:0:0:0:
192,192,98210,1,0,0:0:0:0:
320,192,98210,1,0,0:0:0:0:
64,192,98210,1,0,0:0:0:0:
448,192,98368,1,0,0:0:0:0:
64,192,98526,1,0,0:0:0:0:
320,192,98684,1,0,0:0:0:0:
448,192,98842,1,0,0:0:0:0:
192,192,98842,1,0,0:0:0:0:
64,192,98842,1,0,0:0:0:0:
320,192,99000,1,0,0:0:0:0:
192,192,99157,128,0,99315:0:0:0:0:
64,192,99315,128,0,99473:0:0:0:0:
320,192,99473,128,0,99631:0:0:0:0:
448,192,99631,128,0,99789:0:0:0:0:
64,192,99789,1,0,0:0:0:0:
320,192,99789,1,0,0:0:0:0:
192,192,99947,1,0,0:0:0:0:
448,192,100105,1,0,0:0:0:0:
320,192,100105,1,0,0:0:0:0:
64,192,100105,1,0,0:0:0:0:
192,192,100263,1,0,0:0:0:0:
448,192,100421,1,0,0:0:0:0:
320,192,100578,1,0,0:0:0:0:
64,192,100736,1,0,0:0:0:0:
192,192,100736,1,0,0:0:0:0:
448,192,100736,1,0,0:0:0:0:
320,192,100894,1,0,0:0:0:0:
64,192,101052,1,0,0:0:0:0:
448,192,101210,1,0,0:0:0:0:
320,192,101368,1,0,0:0:0:0:
192,192,101368,1,0,0:0:0:0:
64,192,101368,1,0,0:0:0:0:
448,192,101526,1,0,0:0:0:0:
64,192,101684,1,0,0:0:0:0:
192,192,101684,1,0,0:0:0:0:
192,192,101842,1,0,0:0:0:0:
320,192,101842,1,0,0:0:0:0:
192,192,102000,1,0,0:0:0:0:
320,192,102000,1,0,0:0:0:0:
320,192,102157,1,0,0:0:0:0:
448,192,102157,1,0,0:0:0:0:
64,192,102315,1,0,0:0:0:0:
192,192,102315,1,0,0:0:0:0:
448,192,102473,1,0,0:0:0:0:
320,192,102631,1,0,0:0:0:0:
192,192,102631,1,0,0:0:0:0:
64,192,102631,1,0,0:0:0:0:
448,192,102789,1,0,0:0:0:0:
64,192,102947,1,0,0:0:0:0:
320,192,103105,1,0,0:0:0:0:
64,192,103263,1,0,0:0:0:0:
192,192,103263,1,0,0:0:0:0:
448,192,103263,1,0,0:0:0:0:
320,192,103421,1,0,0:0:0:0:
64,192,103578,1,0,0:0:0:0:
448,192,103736,1,0,0:0:0:0:
320,192,103894,1,0,0:0:0:0:
192,192,103894,1,0,0:0:0:0:
64,192,103894,1,0,0:0:0:0:
448,192,104052,1,0,0:0:0:0:
192,192,104210,128,0,104368:0:0:0:0:
64,192,104368,128,0,104526:0:0:0:0:
320,192,104526,128,0,104684:0:0:0:0:
448,192,104684,128,0,104842:0:0:0:0:
192,192,104842,1,0,0:0:0:0:
64,192,104921,1,0,0:0:0:0:
320,192,105000,1,0,0:0:0:0:
192,192,105078,1,0,0:0:0:0:
448,192,105157,1,0,0:0:0:0:
320,192,105236,1,0,0:0:0:0:
64,192,105315,1,0,0:0:0:0:
192,192,105394,1,0,0:0:0:0:
448,192,105473,1,0,0:0:0:0:
320,192,105552,1,0,0:0:0:0:
64,192,105631,1,0,0:0:0:0:
192,192,105710,1,0,0:0:0:0:
320,192,105789,1,0,0:0:0:0:
448,192,105868,1,0,0:0:0:0:
320,192,105947,1,0,0:0:0:0:
192,192,106026,1,0,0:0:0:0:
64,192,106105,1,0,0:0:0:0:
448,192,106184,1,0,0:0:0:0:
320,192,106263,1,0,0:0:0:0:
192,192,106342,1,0,0:0:0:0:
320,192,106421,1,0,0:0:0:0:
448,192,106500,1,0,0:0:0:0:
64,192,106578,1,0,0:0:0:0:
192,192,106657,1,0,0:0:0:0:
320,192,106736,1,0,0:0:0:0:
448,192,106815,1,0,0:0:0:0:
320,192,106894,1,0,0:0:0:0:
192,192,106973,1,0,0:0:0:0:
64,192,107052,1,0,0:0:0:0:
64,192,107368,128,0,109894:0:0:0:0:
192,192,107368,128,0,109894:0:0:0:0:
320,192,107368,128,0,109894:0:0:0:0:
448,192,107368,128,0,109894:0:0:0:0:
