osu file format v9

[General]
AudioFilename: Game Brain.mp3
AudioLeadIn: 1
PreviewTime: 31639
Countdown: 0
SampleSet: Normal
StackLeniency: 0.7
Mode: 0
LetterboxInBreaks: 1

[Editor]
Bookmarks: 41113,45217,51849,71349,81534,102376,112481,122823,146586,156692
DistanceSpacing: 1
BeatDivisor: 4
GridSize: 4

[Metadata]
Title:Game Brain
Artist:BRZion
Creator:Zapy
Version:Normal
Source:
Tags:8bit

[Difficulty]
HPDrainRate:4
CircleSize:3
OverallDifficulty:3
ApproachRate:5
SliderMultiplier:1.1
SliderTickRate:1

[Events]
//Background and Video events
0,0,"BG2.jpg"
//Break Periods
2,41931,50636
2,102562,111267
2,156877,160531
2,166983,168425
//Storyboard Layer 0 (Background)
//Storyboard Layer 1 (Fail)
//Storyboard Layer 2 (Pass)
//Storyboard Layer 3 (Foreground)
//Storyboard Sound Samples
//Background Colour Transformations
3,100,163,162,255

[TimingPoints]
1310,315.789473684211,4,1,0,40,1,0
3521,-100,4,2,0,60,0,0
3836,-100,4,1,0,40,0,0
6047,-100,4,2,0,60,0,0
6363,-100,4,1,0,40,0,0
8573,-100,4,2,0,60,0,0
8889,-100,4,1,0,40,0,0
11100,-100,4,2,0,60,0,0
11415,-100,4,1,0,40,0,0
21521,-100,4,1,0,55,0,1
31626,-100,4,2,0,70,0,1
41731,-100,4,2,0,40,0,0
51836,-100,4,1,0,50,0,0
60679,-100,4,2,0,50,0,0
61942,-100,4,1,0,50,0,0
70783,-100,4,2,0,40,0,0
72047,-100,4,1,0,50,0,0
77415,-100,4,2,0,50,0,0
77572,-100,4,1,0,50,0,0
78679,-100,4,2,0,50,0,0
78836,-100,4,1,0,50,0,0
79942,-100,4,2,0,50,0,0
80099,-100,4,1,0,50,0,0
81205,-100,4,2,0,50,0,0
81362,-100,4,1,0,50,0,0
123836,-100,4,1,0,40,0,0
126363,-100,4,2,0,70,0,0
146573,-100,4,2,0,70,0,1
156679,-100,4,2,0,70,0,0
161731,-100,4,1,0,70,0,0
168047,-100,4,2,0,30,0,0
169625,-100,4,1,0,40,0,0

[Colours]
Combo1 : 196,211,255
Combo2 : 255,255,255
Combo3 : 176,234,255

[HitObjects]
256,248,1309,2,0,B|408:136,2,165
256,136,2573,2,0,B|104:248,2,165,0|0|2
256,248,3836,6,0,B|104:136,2,165
256,136,5099,2,0,B|408:248,2,165,0|0|2
256,136,6362,6,0,B|176:72|88:136,2,165
256,248,7625,2,0,B|336:312|424:248,2,165,0|0|2
352,192,8888,6,0,B|128:192,1,220
324,80,10152,2,0,B|468:88|468:296|324:304,1,330,0|6
332,192,11415,6,0,B|260:192,2,55
340,300,12046,2,0,B|232:328|232:328|128:296,1,220
108,192,12994,1,0
128,87,13310,2,0,B|232:56|232:56|340:84,2,220
108,192,14888,5,0
156,292,15204,2,0,B|256:332|256:332|360:292,2,220
108,192,16783,5,0
220,192,17099,2,0,B|330:192,1,110
380,96,17731,2,0,B|420:200|420:200|360:304,1,220
256,316,18678,1,0
146,294,18994,6,0,B|92:200|92:200|132:96,1,220
332,192,20257,2,0,B|387:192,3,55
220,192,21204,1,4
136,120,21520,6,0,B|88:152|88:152|76:212,1,110,0|0
144,292,22152,2,0,B|176:340|176:340|236:352,1,110
312,280,22783,2,0,B|360:248|360:248|372:188,1,110
292,116,23415,2,0,B|260:68|260:68|200:56,1,110
108,20,24046,5,0
68,124,24362,2,0,B|32:164|32:164|52:216,2,110
156,192,25310,2,0,B|196:228|196:228|249:208,1,110
332,284,25941,2,0,B|384:301|384:301|434:278,1,110
376,184,26573,5,0
288,116,26888,1,0
392,76,27204,2,0,B|360:24|360:24|288:20,1,110
204,44,27836,2,0,B|152:76|152:76|132:172|132:172|164:236,1,220
220,316,28783,1,0
296,236,29099,6,0,B|312:180|312:180|364:164,2,110
404,256,30046,1,0
508,288,30362,2,0,B|492:344|492:344|440:360,1,110
334,339,30994,1,0
224,332,31310,2,0,B|192:284|192:284|148:268|148:268|148:148,1,220,0|4
220,68,32257,6,0,B|344:68,1,110,0|4
404,148,32888,2,0,B|280:148,1,110,0|4
224,232,33520,2,0,B|348:232,1,110,0|6
404,316,34152,5,0
468,228,34467,2,0,B|496:176|496:176|488:112,1,110,4|0
396,68,35099,1,4
292,32,35415,2,0,B|168:32,1,110,0|4
104,112,36046,2,0,B|214:112,1,110,0|6
296,192,36678,6,0,B|186:192,2,110,0|4|0
408,192,37625,1,4
512,192,37941,2,0,B|492:131|492:131|444:88,1,110,0|4
512,192,38573,2,0,B|500:248|500:248|451:302,1,110,0|4
408,192,39204,1,0
311,245,39520,2,0,B|291:193|291:193|315:137,2,110,4|0|4
256,192,40467,12,0,41731
44,136,51836,6,0,B|44:248,1,110,0|8
140,300,52467,2,0,B|140:68,1,220
256,80,53415,1,8
372,80,53731,2,0,B|372:300,1,220
469,246,54678,5,8
468,246,54994,2,0,B|468:24,1,220
372,80,55941,1,8
316,176,56257,1,0
256,84,56573,1,8
84,220,57204,5,4
256,356,57836,1,8
428,220,58467,1,4
256,356,59099,1,8
256,356,59731,2,0,B|256:136,1,220,4|8
256,136,60678,1,4
140,260,61941,6,0,B|124:220|124:220|144:156,1,110
220,76,62573,2,0,B|260:60|260:60|324:80,1,110,8|0
392,168,63204,2,0,B|372:268|372:268|252:308,1,220,0|8
256,192,64152,1,0
324,76,64467,6,0,B|284:60|284:60|220:80,1,110
140,156,65099,2,0,B|124:196|124:196|144:260,1,110,8|0
231,328,65731,2,0,B|332:308|332:308|372:188,1,220,0|8
272,140,66678,1,8
244,244,66994,5,0
168,316,67310,2,0,B|144:264|144:264|180:84,1,220,8|0
256,28,68257,1,0
337,104,68573,2,0,B|368:264|368:264|344:316,1,220,8|0
256,252,69520,1,0
156,208,69836,2,0,B|256:164|256:164|368:216,1,220,8|0
356,210,70783,5,2
176,108,72046,6,0,B|256:32|256:32|336:108,1,220,0|8
256,312,73310,1,0
256,312,73625,1,0
176,240,73941,2,0,B|256:164|256:164|336:240,1,220,0|8
200,68,75204,5,0
312,68,75520,1,0
256,164,75836,2,0,B|256:280,1,110
364,296,76467,2,0,B|440:216|440:216|364:136,1,220,0|8
256,328,77731,5,0
147,136,78362,2,0,B|72:216|72:216|148:296,1,220,8|8
256,104,79625,1,0
256,104,80257,2,0,B|336:180|336:180|416:104,1,220,8|8
256,280,81520,2,0,B|176:204|176:204|96:280,1,220,8|8
28,192,82467,6,0,B|120:104,1,110,0|8
200,56,83099,2,0,B|312:56,1,110,0|8
404,116,83731,2,8,B|483:192,1,110
288,88,84678,6,0,B|252:80|252:80|212:96|212:96|160:88,2,110,8|8|8
232,300,85941,2,8,B|268:308|268:308|308:292|308:292|360:300,2,110,8|8|8
120,110,87204,5,0
204,40,87520,2,0,B|256:56|256:56|320:36,1,110,8|0
408,80,88152,1,8
372,184,88467,2,0,B|380:248|380:248|364:300,1,110,0|8
256,280,89099,2,0,B|256:46,1,220,4|0
160,116,90046,5,8
144,224,90362,2,0,B|378:225,1,220,4|0
352,116,91310,1,8
256,60,91625,2,0,B|256:280,1,220,4|4
156,324,92573,5,8
80,240,92888,2,0,B|52:192|52:192|80:144,1,110,0|8
144,56,93520,1,4
256,244,94152,1,4
368,56,94783,5,0
432,145,95099,2,0,B|460:192|460:192|432:240,1,110,8|0
368,328,95731,1,8
344,220,96046,1,4
144,128,96678,2,0,B|108:164|108:164|104:224,1,110,4|8
152,324,97310,6,0,B|256:292|256:292|368:324,1,220
432,240,98257,1,8
368,148,98573,1,4
148,148,99204,1,4
324,280,99836,5,0
256,196,100152,1,8
188,280,100467,1,0
100,212,100783,2,0,B|108:152|108:152|160:108,1,110,8|4
368,120,101731,2,0,B|405:152|405:152|413:212,2,110,0|8|4
253,84,112467,6,0,B|237:136|273:160|256:192,1,110,0|8
363,188,113099,2,0,B|311:173|287:209|256:192,1,110,0|8
258,299,113731,2,0,B|274:247|238:223|255:192,1,110,0|8
148,194,114362,2,2,B|200:210|224:174|256:192,1,110,2|10
408,192,114994,6,0,B|388:148|340:160|328:104,1,110,0|8
256,40,115625,2,0,B|212:60|224:108|168:120,1,110,0|8
104,192,116257,2,0,B|124:236|172:224|184:280,1,110,0|8
256,344,116888,2,2,B|300:324|288:276|344:264,1,110,2|10
256,192,117520,6,0,B|256:76,1,110,0|8
256,192,118152,2,0,B|372:192,1,110,0|8
256,192,118783,2,0,B|256:308,1,110,0|8
256,192,119415,2,2,B|140:192,1,110,2|10
184,88,120046,6,0,B|224:120|264:76|312:120,1,110,0|8
360,192,120678,1,0
360,192,120994,1,8
328,296,121310,2,0,B|288:264|248:308|200:264,1,110,0|8
152,192,121941,1,2
152,192,122257,1,14
308,52,123836,6,0,B|256:12|198:52,2,110
284,160,124783,2,0,B|284:224,2,55
228,160,125257,2,0,B|228:224,2,55
204,112,125731,2,0,B|328:112,1,110
384,24,126362,6,0,B|506:80|471:204,1,220,2|4
280,304,127625,2,0,B|156:246|191:126,1,220,2|4
408,84,128888,2,0,B|408:304,1,220,2|4
188,304,130152,2,0,B|188:84,1,220,2|4
84,280,131415,5,4
88,60,132046,1,2
256,204,132678,1,4
424,60,133310,1,2
256,204,133941,2,0,B|288:280|288:280|356:280|356:280|356:364,1,220,4|2
168,236,135204,2,0,B|136:160|136:160|68:160|68:160|68:76,1,220,4|4
284,48,136467,6,0,B|284:118|284:118|216:118|216:118|248:200,1,220,4|2
32,204,137731,2,0,B|32:260|32:260|84:316,2,110,4|0|2
232,292,138994,2,0,B|232:164,2,110,4|0|2
432,196,140257,2,0,B|416:92|416:92|304:28,2,220,4|2|4
224,128,142152,6,0,B|188:28|24:48,1,220,2|4
136,244,143415,2,0,B|172:344|336:324,1,220,2|4
400,120,144678,1,2
184,80,145309,2,0,B|72:100|44:248,2,220,4|2|4
368,196,147204,6,0,B|304:288,1,110,0|2
256,188,147836,2,0,B|256:76,2,110,0|2|2
144,196,148783,1,2
32,192,149099,6,0,B|56:284|56:284|192:324,1,220
256,244,150046,1,2
336,319,150362,2,0,B|456:284|456:284|480:192,1,220
416,104,151309,2,0,B|384:220,1,110,2|4
312,132,151941,6,0,B|312:12,1,110,2|0
200,24,152573,2,0,B|200:134,1,110,2|0
256,228,153204,1,2
256,340,153520,6,0,B|112:340|108:204,1,220,2|6
216,184,154467,1,2
127,118,154783,2,0,B|199:-6|319:57,1,220,2|0
282,161,155731,1,4
384,118,156046,2,0,B|456:242|340:314,1,220,2|4
256,44,161731,6,0,B|256:172|412:172,1,220,0|8
316,240,162678,1,0
256,336,162994,2,0,B|256:216|100:216,1,220,0|8
196,144,163941,1,0
308,144,164257,6,0,B|424:144,1,110
356,236,164888,2,0,B|356:352,1,110,8|0
264,288,165520,2,0,B|148:288,1,110
208,192,166152,2,0,B|208:76,2,110,8|0|4
308,332,169625,6,4,B|256:372|198:332,2,110,4|4|4
284,224,170573,2,0,B|284:160,2,55,4|0|4
228,224,171046,2,0,B|228:160,2,55,0|4|4
256,272,171520,1,4
