osu file format v9

[General]
AudioFilename: Game Brain.mp3
AudioLeadIn: 1
PreviewTime: 31639
Countdown: 0
SampleSet: Soft
StackLeniency: 0.7
Mode: 0
LetterboxInBreaks: 1

[Editor]
Bookmarks: 41113,51849,71349,81534,102376,112481,122823,146586,156692
DistanceSpacing: 1
BeatDivisor: 4
GridSize: 4

[Metadata]
Title:Game Brain
Artist:BRZion
Creator:Zapy
Version:Insane
Source:
Tags:8bit

[Difficulty]
HPDrainRate:5
CircleSize:4
OverallDifficulty:6
ApproachRate:8
SliderMultiplier:1.6
SliderTickRate:1

[Events]
//Background and Video events
0,0,"BG2.jpg"
//Break Periods
2,41944,51086
2,102576,111717
2,156892,160981
//Storyboard Layer 0 (Background)
//Storyboard Layer 1 (Fail)
//Storyboard Layer 2 (Pass)
//Storyboard Layer 3 (Foreground)
//Storyboard Sound Samples
//Background Colour Transformations
3,100,163,162,255

[TimingPoints]
1310,315.789473684211,4,1,0,40,1,0
3521,-100,4,2,0,60,0,0
3836,-100,4,1,0,40,0,0
6047,-100,4,2,0,60,0,0
6363,-100,4,1,0,40,0,0
8573,-100,4,2,0,60,0,0
8889,-100,4,1,0,40,0,0
11100,-100,4,2,0,60,0,0
11415,-100,4,1,0,40,0,0
13625,-100,4,2,0,60,0,0
13940,-100,4,1,0,40,0,0
16152,-100,4,2,0,60,0,0
16230,-100,4,1,0,40,0,0
18678,-100,4,2,0,60,0,0
18835,-100,4,1,0,40,0,0
21205,-100,4,2,0,60,0,0
21521,-100,4,1,0,55,0,1
31626,-100,4,2,0,70,0,1
41731,-100,4,2,0,50,0,0
51836,-100,4,1,0,40,0,0
60679,-100,4,2,0,50,0,0
61942,-100,4,1,0,40,0,0
70784,-100,4,2,0,50,0,0
72047,-100,4,1,0,40,0,0
77415,-100,4,2,0,50,0,0
77572,-100,4,1,0,40,0,0
78679,-100,4,2,0,50,0,0
78836,-100,4,1,0,40,0,0
79942,-100,4,2,0,50,0,0
80099,-100,4,1,0,40,0,0
81205,-100,4,2,0,50,0,0
81362,-100,4,1,0,40,0,0
81836,-100,4,2,0,50,0,0
82152,-100,4,2,0,70,0,0
122257,-100,4,2,0,5,0,0
123836,-100,4,1,0,40,0,0
126521,-100,4,2,0,70,0,0
146573,-100,4,2,0,70,0,1
156679,-100,4,2,0,70,0,0
161731,-100,4,1,0,40,0,0
166783,-100,4,2,0,30,0,0
169626,-100,4,1,0,40,0,0

[Colours]
Combo1 : 196,211,255
Combo2 : 255,255,255
Combo3 : 176,234,255

[HitObjects]
104,232,1309,2,0,B|192:208,1,80
256,192,1625,1,0
256,192,2257,2,0,B|312:192,2,40
256,112,2573,2,0,B|296:108|296:108|360:112,1,80
256,272,2888,2,0,B|216:276|216:276|152:272,1,80
400,192,3520,5,2
256,272,3836,6,0,B|360:272,1,80
416,272,4152,1,0
120,192,4783,2,0,B|184:192,2,40
144,112,5099,2,0,B|176:88|176:88|216:72,1,80
298,73,5415,2,0,B|336:88|336:88|368:112,1,80
256,312,6046,5,2
400,240,6362,5,0
320,240,6520,1,0
256,192,6678,1,0
256,48,7310,2,0,B|256:104,2,40
112,240,7625,5,0
192,240,7783,1,0
256,192,7941,1,0
192,240,8099,1,0
256,48,8573,5,2
400,192,8888,6,0,B|376:232|376:232|320:232,1,80
256,148,9204,1,0
400,192,9836,1,0
400,192,9915,1,0
400,192,9994,1,0
112,192,10152,6,0,B|136:232|136:232|192:232,1,80
256,64,10467,2,0,B|256:152,1,80
256,64,11099,5,6
104,80,11415,6,0,B|128:120|128:120|192:120,1,80
192,48,11731,1,0
256,96,11888,2,0,B|320:96,4,40
160,128,12362,2,0,B|120:128,3,40
160,128,12678,1,0
208,192,12836,1,0
288,192,12994,1,0
320,264,13152,2,0,B|416:264|416:264|456:200|456:200|456:112,1,240,0|2
416,344,13941,6,0,B|312:344,1,80
256,344,14257,1,0
176,344,14415,2,0,B|120:344,4,40
256,344,14888,1,0
256,344,14967,1,0
256,344,15046,1,0
256,344,15125,1,0
256,344,15204,1,0
256,269,15362,1,0
257,188,15520,1,0
288,113,15678,2,0,B|224:113|224:113|184:145|184:145|184:272,1,240,0|2
368,136,16467,6,0,B|400:160|400:160|432:200,1,80
368,136,16783,1,0
312,192,16941,1,0
256,248,17099,2,0,B|256:304,2,40
168,224,17415,2,0,B|120:224,3,40
168,224,17731,1,0
232,168,17888,1,0
256,88,18046,1,0
256,88,18204,2,0,B|200:88|200:88|168:112|168:112|8:112,1,240,0|2
304,152,18994,6,0,B|309:192|309:192|304:248,1,80
376,272,19310,2,0,B|384:192|384:192|376:96,2,160
376,272,20020,1,0
376,272,20099,1,0
376,272,20178,1,0
376,272,20257,1,0
296,288,20415,1,0
216,288,20573,1,0
136,272,20731,1,0
256,64,21204,1,6
400,128,21520,6,0,B|384:176|384:176|320:176,1,80,8|0
192,176,21836,2,0,B|272:176,1,80
256,256,22152,2,0,B|152:256,1,80
112,208,22467,2,0,B|48:208,2,40
120,128,22783,2,0,B|144:88|144:88|192:88,1,80,8|0
256,64,23099,2,0,B|256:8,2,40
334,88,23415,2,0,B|368:88|368:88|392:128,1,80
456,88,23731,1,0
320,168,23888,1,0
376,224,24046,6,0,B|352:240|352:240|352:304,1,80,8|0
280,320,24362,2,0,B|280:240,1,80
208,200,24678,2,0,B|208:288,1,80
136,248,24994,2,0,B|136:224|136:224|120:200,2,40
208,280,25310,2,0,B|208:360,1,80,8|0
280,240,25625,2,0,B|320:240,2,40
304,160,25941,2,0,B|336:128|336:128|336:88,1,80
416,104,26257,1,0
248,104,26415,1,0
168,104,26573,6,0,B|64:104,1,80,8|0
112,184,26888,2,0,B|208:184,1,80
168,264,27204,1,0
88,264,27362,1,0
128,336,27520,1,0
128,336,27599,1,0
128,336,27678,1,0
208,336,27836,2,0,B|296:336,1,80,8|0
256,264,28152,2,0,B|320:264,2,40
256,184,28467,2,0,B|344:184,1,80
336,104,28783,1,0
336,264,28941,1,0
416,264,29099,6,0,B|416:312|416:312|368:344,1,80,8|0
416,176,29415,2,0,B|416:96,1,80
336,104,29731,2,0,B|256:184,1,80
344,216,30046,2,0,B|312:248,2,40
296,320,30362,2,0,B|256:312|256:312|208:320,1,80,8|0
168,216,30678,2,0,B|200:248,2,40
192,144,30994,2,0,B|136:88,1,80
80,40,31310,1,0
256,192,31467,1,0
320,144,31625,6,0,B|376:88,1,80,2|0
448,128,31941,1,6
392,192,32099,1,0
368,320,32257,2,0,B|425:264,1,80,2|0
256,280,32573,2,0,B|256:336,2,40,6|0|0
144,320,32888,2,0,B|80:256,1,80,2|0
256,280,33204,1,4
256,280,33283,1,0
256,280,33362,1,0
192,224,33520,2,2,B|160:196|160:196|156:156,1,80
320,160,33836,2,2,B|352:188|352:188|356:228,1,80,6|2
256,200,34152,5,2
320,80,34310,1,0
232,48,34467,2,0,B|208:88|208:88|240:136,1,80,6|0
256,200,34783,2,0,B|288:232|288:232|336:232,1,80,2|0
320,160,35099,1,6
320,160,35178,1,0
320,160,35257,1,0
256,112,35415,2,0,B|215:124|215:124|176:168,1,80,2|0
256,200,35731,1,6
256,200,35810,1,0
256,200,35888,1,0
256,280,36046,2,2,B|256:360,2,80,0|2|6
256,200,36520,1,2
328,232,36678,6,0,B|400:288,1,80,2|0
336,192,36994,2,0,B|416:192,1,80,6|0
328,152,37310,2,0,B|391:102,1,80,2|0
296,112,37625,1,6
256,104,37704,1,0
216,112,37783,1,0
184,232,37941,2,0,B|112:288,1,80,2|0
176,192,38257,1,6
136,192,38336,1,0
96,192,38415,1,0
184,152,38573,2,2,B|120:102,1,80,2|2
152,24,38888,1,6
120,102,39046,1,2
200,112,39204,6,0,B|256:40,1,80,2|0
312,112,39520,1,6
256,184,39678,1,0
200,256,39836,2,0,B|120:256,1,80,2|0
312,256,40152,1,6
352,256,40231,1,0
392,256,40310,1,0
256,192,40388,12,0,41731
256,288,51836,6,0,B|360:288,1,80
392,232,52152,2,0,B|392:136,1,80,0|0
336,96,52467,2,0,B|240:96,1,80
256,192,52783,1,8
256,192,52941,1,8
256,96,53099,6,0,B|152:96,1,80
120,152,53415,2,0,B|120:248,1,80
168,296,53731,2,0,B|264:296,1,80
256,192,54046,1,8
256,192,54204,1,8
168,296,54362,6,0,B|120:232,1,80
120,152,54678,2,0,B|176:96,1,80
335,95,54994,2,0,B|392:152,1,80
392,232,55310,2,0,B|344:296,2,80,8|8|0
392,232,55783,5,0
472,232,55941,2,0,B|472:192|472:192|424:144,1,80
360,160,56257,2,0,B|320:168|320:168|296:208,1,80
256,136,56573,1,8
256,136,56652,1,8
256,136,56731,1,8
152,160,56888,6,0,B|192:168|192:168|216:208,1,80
144,240,57204,2,0,B|144:328,2,80,8|0|0
80,192,57678,2,0,B|64:152,2,40,0|0|8
152,160,57994,1,0
192,88,58152,6,0,B|216:48|216:48|256:40,1,80
152,160,58467,2,0,B|200:168|200:168|216:216,1,80,8|0
256,264,58783,2,0,B|256:312,2,40
336,248,59099,2,0,B|368:208|368:208|368:168,1,80,8|0
368,96,59415,6,0,B|320:96|320:96|288:72,1,80
256,144,59731,2,0,B|192:88,1,80,8|0
120,104,60046,1,0
120,104,60125,1,0
120,104,60204,1,0
120,184,60362,2,8,B|120:272,1,80
176,320,60678,6,0,B|224:280,3,40
240,272,60994,1,0
272,248,61073,1,0
304,224,61152,1,0
336,200,61231,1,0
368,176,61310,1,0
296,32,61625,1,2
296,32,61783,1,2
256,96,61941,6,0,B|160:96,1,80
208,176,62257,2,0,B|152:176,1,40
168,256,62494,1,0
256,256,62652,2,0,B|312:256,1,40
304,176,62888,2,0,B|392:176,1,80,8|0
464,176,63204,2,0,B|456:232|456:232|416:248,1,80
336,248,63520,2,0,B|368:296,1,40
288,336,63757,2,0,B|200:336,1,80
168,336,63994,1,0
104,288,64152,2,0,B|104:240|104:240|64:208,1,80,8|0
0,206,64467,6,0,B|0:256|0:256|24:280,1,80
80,220,64783,1,0
80,220,64862,1,0
48,144,65020,1,0
48,64,65178,1,0
48,64,65257,1,0
120,104,65415,1,8
200,104,65573,1,0
216,24,65731,2,0,B|128:24,1,80
120,104,66046,2,0,B|120:160,1,40
184,192,66283,2,0,B|224:192|224:192|256:160,1,80
252,163,66520,1,0
328,192,66678,1,8
328,192,66757,1,0
328,192,66836,1,8
408,192,66994,6,0,B|408:160|408:160|368:120,2,80,0|0|8
408,232,67388,1,0
480,192,67546,2,0,B|480:96,1,80
448,88,67783,1,0
376,48,67941,1,8
296,48,68099,1,0
256,120,68257,2,0,B|216:88|216:88|216:40,2,80,0|0|8
256,160,68652,1,0
176,152,68810,2,0,B|136:120|136:120|136:80,1,80
136,48,69046,1,0
64,80,69204,2,0,B|64:160,1,80,8|0
64,240,69520,5,0
64,320,69678,1,0
136,288,69836,1,8
136,288,69915,1,0
216,288,70073,1,0
296,288,70231,1,0
296,288,70310,1,0
376,288,70467,1,8
448,240,70625,1,8
376,192,70783,5,0
344,168,70862,1,0
312,144,70941,1,0
280,120,71020,1,0
248,96,71099,2,0,B|200:56,4,40
248,96,71731,1,2
248,96,71888,1,2
168,96,72046,6,0,B|96:96|96:96|72:120|72:120|72:184,1,160
152,176,72520,2,0,B|192:176|192:176|192:304,1,160
120,256,72994,2,8,B|32:256,1,80
152,176,73310,2,0,B|320:176,1,160
320,256,73783,2,0,B|368:256|368:256|392:224|392:224|392:144,1,160
472,136,74257,2,8,B|472:240,1,80
448,296,74573,2,0,B|408:344|408:344|368:344|368:344|296:344,1,160
256,288,75046,2,0,B|256:200|256:200|272:184|272:184|256:168|256:168|256:128,1,160
184,176,75520,2,8,B|96:176,1,80
136,104,75836,2,0,B|136:48|136:48|160:32|160:32|248:32,1,160
256,112,76310,2,0,B|320:112|320:112|352:144|352:144|352:208,1,160
272,192,76783,1,8
264,192,76862,1,0
256,192,76941,1,8
176,192,77099,6,0,B|176:248|176:248|208:280,1,80,0|0
256,320,77415,2,0,B|296:320|296:320|320:296|320:296|336:344|336:344|344:320|344:320|392:320,2,160,4|0|8
256,320,78204,1,8
256,240,78362,2,0,B|328:192,1,80
400,192,78678,2,0,B|400:136|400:136|352:104|352:104|288:104,2,160,4|0|8
400,192,79467,1,8
480,192,79625,2,0,B|472:248|472:248|416:272,1,80
400,192,79941,2,0,B|352:224|352:224|304:224|304:224|248:184,2,160,4|0|8
400,192,80731,1,8
328,152,80888,6,0,B|304:112|304:112|256:88,1,80
184,152,81204,2,0,B|208:112|208:112|256:88,1,80,4|4
256,176,81520,2,4,B|256:264,1,80,0|0
256,336,81836,2,10,B|256:384,2,40,14|10|10
184,296,82152,6,0,B|96:296,1,80,2|0
152,224,82467,2,0,B|72:224,1,80,6|0
104,152,82783,2,2,B|40:152,2,40,6|2|2
72,80,83099,2,2,B|8:80,2,40,6|2|2
152,80,83415,1,6
152,80,83494,1,2
152,80,83573,1,2
232,80,83731,2,0,B|336:80,1,80,2|0
392,80,84046,1,2
472,80,84204,1,0
392,80,84362,2,0,B|392:128|392:128|360:152,1,80,6|0
304,192,84678,6,0,B|304:232|304:232|344:280,1,80,2|0
200,192,84994,2,0,B|200:240|200:240|168:264,1,80,6|0
256,288,85310,2,0,B|256:248,3,40,6|0|2|0
256,232,85625,2,2,B|256:192,3,40,6|0|2|0
256,176,85941,2,0,B|252:125|252:125|209:107,1,80,6|0
144,112,86257,1,4
64,112,86415,1,0
144,112,86573,2,0,B|240:112,1,80,2|0
304,112,86888,1,6
384,112,87046,1,0
400,192,87204,6,0,B|400:296,1,80,2|0
328,232,87520,2,0,B|328:320,1,80,6|0
256,272,87836,2,2,B|256:336,2,40,6|0|0
184,304,88152,2,2,B|184:368,2,40,6|2|2
112,336,88467,1,6
112,336,88546,1,2
112,336,88625,1,2
112,256,88783,2,0,B|112:168,1,80,6|0
184,136,89099,2,0,B|184:232,2,80,2|0|6
112,104,89573,1,0
176,56,89731,6,0,B|216:56|216:56|248:88,2,80,2|0|6
112,104,90204,1,0
48,56,90362,2,0,B|8:56,3,40,6|0|2|0
48,104,90678,2,0,B|8:104,3,40,6|0|2|0
48,152,90994,2,0,B|56:192|56:192|96:208,1,80,4|0
152,168,91310,1,4
112,104,91467,1,2
192,104,91625,2,0,B|280:104,1,80,0|2
352,104,91941,1,6
272,104,92099,1,0
312,168,92257,6,0,B|368:240,1,80,2|0
288,256,92573,2,0,B|296:344,1,80,6|0
216,320,92888,1,6
216,320,92967,1,0
216,320,93046,1,2
152,272,93204,2,0,B|88:288,2,40,6|2|2
152,192,93520,1,6
152,192,93599,1,0
152,192,93678,1,2
181,118,93836,2,0,B|221:134|221:134|256:121,1,80,2|0
330,118,94152,2,0,B|290:134|290:134|256:121,1,80,2|0
220,55,94467,1,6
292,55,94625,1,0
376,56,94783,6,0,B|432:120,1,80,2|0
331,118,95099,2,0,B|363:198,1,80,6|0
368,272,95415,2,0,B|424:272,3,40,2|0|0|0
392,312,95731,1,6
360,336,95810,1,0
320,344,95888,1,0
280,344,95967,1,0
248,320,96046,6,0,B|232:272|232:272|256:224,1,80,2|0
184,192,96362,2,0,B|96:192,1,80,6|0
256,72,96678,2,0,B|272:120|272:120|248:168,1,80,2|0
408,192,96994,2,0,B|328:192,1,80,6|0
400,112,97310,6,0,B|312:72,1,80,2|0
256,120,97625,2,0,B|176:104,1,80,6|0
112,152,97941,1,6
80,176,98020,1,0
48,200,98099,1,2
112,248,98257,2,2,B|88:296,2,40,6|2|2
192,256,98573,1,6
192,256,98652,1,0
192,256,98731,1,2
256,200,98888,6,0,B|304:200|304:200|336:160,1,80,2|0
256,200,99204,2,0,B|256:240|256:240|288:280,1,80,2|0
256,200,99520,2,0,B|192:200|192:200|160:224,1,80,6|0
160,128,99836,6,0,B|144:80|144:80|144:48,1,80,2|0
224,72,100152,1,6
288,120,100310,1,0
368,120,100467,2,0,B|432:120,3,40,2|0|0|0
400,160,100783,1,6
384,200,100862,1,0
368,240,100941,1,0
352,280,101020,1,0
336,312,101099,6,0,B|296:336|296:336|248:320,1,80,2|0
264,248,101415,2,0,B|168:248,1,80,4|0
152,320,101731,2,0,B|112:280|112:280|112:240,1,80,2|0
64,192,102046,1,2
64,192,102125,1,0
64,192,102204,1,0
64,112,102362,1,4
120,136,112467,6,0,B|168:136|168:136|216:112,1,80,2|0
256,176,112783,2,2,B|256:240,2,40
256,136,113020,1,0
256,96,113099,1,0
344,56,113257,2,0,B|344:120|344:120|360:144|360:144|360:224,1,160
296,272,113731,2,0,B|256:288|256:288|248:344,1,80,2|0
176,272,114046,2,2,B|112:272,2,40
160,232,114283,1,2
144,200,114362,1,0
128,160,114441,1,2
80,48,114678,1,2
224,128,114994,6,0,B|224:216,1,80,2|0
304,232,115310,2,2,B|304:288,2,40
304,192,115546,1,0
304,152,115625,1,0
376,192,115783,1,2
376,192,116099,1,0
376,272,116257,2,0,B|376:320|376:320|328:352,1,80,2|0
272,336,116573,1,2
232,336,116652,1,2
200,304,116731,1,2
176,272,116810,1,2
152,240,116888,2,0,B|120:192,2,40
208,184,117204,1,2
336,88,117520,5,2
256,64,117678,1,0
176,88,117836,2,0,B|128:56,4,40,2|2|2|0|0
256,160,118310,1,2
256,320,118625,1,0
256,320,118783,2,0,B|344:320,1,80,2|0
296,248,119099,1,2
256,248,119178,1,2
216,248,119257,1,2
176,248,119336,1,2
136,248,119415,1,2
96,248,119494,1,0
120,128,119731,1,2
256,48,120046,6,0,B|256:136,1,80,2|0
336,112,120362,2,2,B|384:112,1,40
368,152,120520,2,0,B|424:152,1,40,2|0
392,192,120678,1,0
376,272,120836,1,2
256,160,121152,1,0
184,192,121310,2,0,B|96:192,1,80,2|0
128,272,121625,2,2,B|64:272,3,40,2|2|2|2
160,288,121941,1,2
192,304,122020,1,0
224,320,122099,1,0
256,336,122178,1,0
296,344,122257,6,0,B|368:344,3,40,2|0|0|0
256,136,123836,5,0
256,136,124152,1,0
256,248,124362,1,0
256,248,124467,1,0
160,88,124783,2,0,B|184:56|184:56|232:40,1,80
352,296,125099,2,0,B|328:328|328:328|280:344,1,80
216,192,125415,2,0,B|296:192,1,80
128,192,125731,5,0
384,192,126046,1,0
256,104,126362,5,0
256,104,126520,1,0
328,136,126678,2,0,B|328:192,1,40,4|0
256,304,126915,2,0,B|256:172,1,120
184,152,127310,2,0,B|184:104|184:104|152:80,1,80,4|4
112,152,127625,2,0,B|112:192|112:192|152:224,1,80
143,216,127862,1,0
80,272,128020,2,0,B|40:240,1,40
32,168,128257,2,0,B|32:112,1,40
88,72,128494,2,0,B|128:72,1,40,0|4
208,48,128731,1,4
256,112,128888,6,0,B|312:184,1,80
360,112,129204,1,4
305,176,129362,2,0,B|249:248,1,80,0|0
200,184,129678,1,0
256,239,129836,2,0,B|256:297,2,40,4|0|4
336,248,130152,2,0,B|376:264|376:264|376:304,1,80
176,248,130467,2,0,B|136:264|136:264|136:304,1,80,4|0
216,328,130783,1,0
304,288,130941,1,0
208,288,131099,1,4
296,328,131257,1,4
376,328,131415,6,0,B|424:320|424:320|448:288,1,80
384,240,131731,2,0,B|384:184,1,40,4|0
304,192,131967,2,0,B|328:136|328:136|400:112,1,120
384,240,132362,2,0,B|344:264|344:264|296:280,1,80,4|4
224,192,132678,2,0,B|120:224,1,80
112,208,132915,2,0,B|88:128,1,80
104,96,133152,2,0,B|192:64,1,80
188,80,133388,1,0
280,72,133546,1,0
288,80,133625,1,4
376,64,133783,1,4
360,144,133941,6,0,B|336:232,2,80,0|0|4
408,264,134415,2,0,B|432:352,2,80,0|0|4
339,221,134888,2,0,B|275:229,2,40,4|0|4
328,304,135204,2,0,B|248:312,1,80
192,256,135520,2,0,B|184:168,1,80,4|0
120,216,135836,1,0
104,136,135994,1,0
56,200,136152,1,4
40,120,136310,1,4
80,48,136467,6,0,B|176:56,1,80,4|0
192,128,136783,1,4
192,128,136862,2,0,B|296:144,1,80
288,176,137099,2,0,B|304:272,1,80
256,320,137415,2,0,B|224:240,1,80,4|4
152,268,137731,1,0
140,192,137888,2,0,B|92:208,1,40
40,156,138125,2,0,B|20:196,1,40
52,272,138362,2,0,B|44:320,1,40
120,344,138599,2,0,B|172:344,1,40,0|4
252,344,138836,1,4
256,256,138994,6,0,B|304:248|304:248|360:256,1,80
256,184,139309,1,4
256,256,139467,2,0,B|208:248|208:248|152:256,1,80
256,184,139783,1,0
256,112,139941,2,0,B|256:64,2,40,4|0|4
328,144,140257,1,0
336,224,140415,1,0
416,208,140573,1,4
408,128,140731,1,0
352,64,140888,2,0,B|280:32,1,80
328,144,141204,2,0,B|240:136,1,80,4|4
288,224,141520,5,0
232,280,141678,1,0
160,248,141836,1,4
160,248,141915,1,0
216,192,142073,2,0,B|176:160|176:160|96:168,1,120
96,88,142467,2,4,B|176:80,1,80
258,32,142783,6,0,B|256:112,1,80
296,104,143020,2,0,B|296:208,1,80
256,200,143257,1,0
184,160,143415,1,0
184,160,143494,1,0
176,80,143652,1,0
176,80,143731,1,4
80,80,143888,1,4
104,160,144046,6,0,B|88:248,1,80
16,184,144362,1,4
168,248,144520,2,0,B|176:336,1,80
256,288,144836,1,4
328,256,144994,1,4
328,256,145073,1,0
328,256,145152,1,4
376,192,145309,6,0,B|408:232|408:232|408:288,1,80
480,304,145625,2,0,B|480:216,1,80,4|0
464,144,145941,1,0
400,96,146099,1,0
328,120,146257,1,4
400,96,146415,1,0
256,72,146573,5,0
112,144,146888,2,0,B|64:176,4,40,2|0|2|0|2
176,192,147362,1,0
256,352,147520,2,0,B|256:192,1,160
328,320,147994,5,2
344,300,148073,1,0
360,280,148152,1,2
376,260,148231,1,0
392,240,148309,1,6
432,176,148467,2,0,B|464:136,1,40,0|2
392,96,148704,2,0,B|432:40,1,40,0|2
344,24,148941,1,6
256,104,149178,6,0,B|256:144,1,40,0|2
184,184,149415,1,4
120,136,149573,1,0
120,136,149652,1,0
120,136,149731,2,0,B|96:192|96:192|152:280,1,160,0|4
312,280,150362,6,0,B|200:280,2,80,0|2|4
448,192,150994,2,0,B|368:192,1,80,0|2
328,120,151309,2,0,B|416:120,1,80,4|2
432,48,151625,1,0
288,48,151941,5,2
256,72,152020,1,0
224,96,152099,1,2
192,120,152178,2,0,B|152:152,1,40,0|2
224,192,152415,1,0
152,328,152573,6,0,B|192:272|192:272|225:282|225:282|280:264,1,160
360,264,153046,6,0,B|376:312,1,40,2|0
400,272,153204,2,0,B|384:216,1,40,2|0
432,240,153362,1,6
440,160,153520,1,0
448,152,153599,1,2
360,152,153757,2,0,B|320:184,1,40,0|2
280,112,153994,1,6
256,40,154152,6,2,B|168:48,1,80
96,48,154467,1,4
144,112,154625,2,2,B|144:200,1,80
64,200,154941,1,4
136,272,155099,2,0,B|208:264|208:264|296:288,1,160
296,208,155573,1,6
292,287,155731,2,0,B|360:352|360:352|440:344,1,160,0|0
392,264,156204,1,2
440,192,156362,1,0
416,160,156441,1,0
392,128,156520,1,2
432,48,156678,1,4
252,64,161731,6,0,B|200:56|200:56|168:112,1,80
164,156,162046,2,0,B|144:204,1,40,8|0
212,240,162283,2,0,B|256:120,1,120
300,240,162678,2,8,B|264:152,1,80
360,168,162994,5,0
396,96,163152,1,0
416,60,163231,1,0
444,168,163388,1,0
484,168,163467,1,0
400,244,163625,1,0
420,280,163704,1,0
360,168,163862,1,0
360,168,163941,1,8
276,168,164099,1,8
192,168,164257,6,0,B|96:168,1,80,0|8
232,96,164573,1,0
316,96,164731,2,0,B|408:96,1,80,8|0
272,24,165046,1,8
232,96,165204,1,8
192,96,165283,1,0
152,96,165362,1,8
76,124,165520,6,0,B|48:156|48:156|48:200,1,80,0|8
92,256,165836,2,0,B|124:224|124:224|128:172,1,80,0|8
48,194,166152,2,0,B|20:226|20:226|20:270,1,80,0|8
57,323,166467,2,8,B|89:291|89:291|93:239,1,80
20,263,166783,1,4
256,156,168046,5,2
256,176,168125,1,2
256,196,168204,1,2
256,216,168283,1,2
256,112,169625,5,4
256,112,169941,2,0,B|256:232,1,106.666666666667
256,272,170257,1,0
352,88,170573,2,0,B|328:56|328:56|280:40,1,80,4|0
160,296,170888,2,0,B|184:328|184:328|232:344,1,80,4|0
296,192,171204,2,0,B|216:192,2,80,4|0|4
