osu file format v9

[General]
AudioFilename: Game Brain.mp3
AudioLeadIn: 1
PreviewTime: 31639
Countdown: 0
SampleSet: Normal
StackLeniency: 0.7
Mode: 0
LetterboxInBreaks: 1

[Editor]
Bookmarks: 41113,51849,71349,81534,102376,112481,122823,146586,156692
DistanceSpacing: 1
BeatDivisor: 4
GridSize: 4

[Metadata]
Title:Game Brain
Artist:BRZion
Creator:Zapy
Version:Hard
Source:
Tags:8bit

[Difficulty]
HPDrainRate:4
CircleSize:4
OverallDifficulty:4
ApproachRate:7
SliderMultiplier:1.4
SliderTickRate:1

[Events]
//Background and Video events
0,0,"BG2.jpg"
//Break Periods
2,41944,50936
2,102575,111567
2,156891,160831
//Storyboard Layer 0 (Background)
//Storyboard Layer 1 (Fail)
//Storyboard Layer 2 (Pass)
//Storyboard Layer 3 (Foreground)
//Storyboard Sound Samples
//Background Colour Transformations
3,100,163,162,255

[TimingPoints]
1310,315.789473684211,4,1,0,40,1,0
3521,-100,4,2,0,60,0,0
3836,-100,4,1,0,40,0,0
6047,-100,4,2,0,60,0,0
6363,-100,4,1,0,40,0,0
8573,-100,4,2,0,60,0,0
8889,-100,4,1,0,40,0,0
11100,-100,4,2,0,60,0,0
11415,-100,4,1,0,40,0,0
13625,-100,4,2,0,60,0,0
13703,-100,4,1,0,40,0,0
16152,-100,4,2,0,60,0,0
16230,-100,4,1,0,40,0,0
18678,-100,4,2,0,60,0,0
18756,-100,4,1,0,40,0,0
21204,-100,4,2,0,60,0,0
21282,-100,4,1,0,40,0,0
21521,-100,4,1,0,55,0,1
31626,-100,4,2,0,70,0,1
40389,-100,4,2,0,5,0,1
41731,-100,4,2,0,5,0,0
51836,-100,4,1,0,50,0,0
60678,-100,4,2,0,35,0,0
61941,-100,4,1,0,50,0,0
122415,-100,4,2,0,5,0,0
123836,-100,4,1,0,40,0,0
126363,-100,4,2,0,70,0,0
146573,-100,4,2,0,70,0,1
156679,-100,4,2,0,70,0,0
161731,-100,4,1,0,50,0,0
168047,-100,4,2,0,30,0,0
169626,-100,4,1,0,50,0,0

[Colours]
Combo1 : 196,211,255
Combo2 : 255,255,255
Combo3 : 176,234,255

[HitObjects]
176,64,1309,2,0,B|160:96|160:96|184:152,1,70
256,96,1625,1,0
256,288,2257,2,0,B|256:328,2,35
336,320,2573,6,0,B|352:288|352:288|328:232,1,70
256,288,2888,1,0
176,320,3046,1,0
256,192,3520,5,2
328,72,3836,6,0,B|368:64|368:64|416:80,1,70
368,152,4152,1,0
144,152,4783,2,0,B|200:152,2,35
208,240,5099,6,0,B|208:336,1,70
304,310,5415,2,0,B|304:240,1,70
256,160,6046,5,2
221,58,6362,6,0,B|256:48|256:48|299:59,2,70
256,264,7310,2,0,B|256:320,2,35
112,264,7625,6,0,B|182:264,1,70
328,264,7941,2,0,B|416:264,1,70
398,264,8573,5,2
256,224,8888,5,0
256,128,9046,1,0
256,40,9204,1,0
256,224,9836,2,0,B|256:280,2,35
352,288,10152,5,0
296,352,10310,1,0
216,352,10467,1,0
160,288,10625,1,0
256,128,11099,1,6
192,80,11415,6,0,B|128:48|128:48|64:80,1,140
128,136,11888,1,0
88,208,12046,2,0,B|88:288,1,70,0|0
160,208,12362,2,0,B|160:288,1,70,0|0
240,272,12678,6,0,B|304:240|304:240|384:280,1,140
304,328,13152,1,0
384,352,13310,2,0,B|464:352,1,70,0|0
432,280,13625,2,0,B|504:280,1,70,2|0
472,208,13941,6,0,B|502:146|502:146|470:82,2,140,0|0|0
416,144,14731,1,0
336,144,14888,2,0,B|248:144,1,70,0|0
188,144,15204,6,0,B|127:114|127:114|63:146,1,140
128,200,15678,1,0
96,272,15836,2,0,B|128:280|128:280|168:272,2,70,0|0|2
128,200,16310,1,0
128,200,16467,6,0,B|128:48,1,140
296,64,17099,2,0,B|296:204,1,140,0|0
264,272,17573,1,0
216,200,17731,6,0,B|216:60,1,140
296,64,18204,1,0
376,96,18362,2,0,B|376:192,2,70,0|0|2
456,136,18836,1,0
376,248,18994,6,0,B|437:217|437:217|501:249,1,140
440,304,19467,2,0,B|375:336|375:336|314:305,1,140,0|0
256,240,19941,2,0,B|256:152,1,70,0|0
256,192,20257,12,6,21204
104,192,21520,6,0,B|136:176|136:176|168:192,1,70,8|0
144,264,21836,2,0,B|205:294|205:294|272:264,1,140
272,184,22310,1,0
272,104,22467,2,0,B|272:32,1,70
344,72,22783,6,0,B|432:72,1,70,8|0
384,144,23099,2,0,B|414:205|414:205|382:269,1,140,0|0
328,328,23573,1,0
248,328,23731,1,0
168,328,23888,1,0
112,272,24046,6,0,B|112:232|112:232|64:192,1,70,8|0
144,160,24362,2,0,B|176:184|176:184|224:184,1,70
208,104,24678,2,0,B|146:73|146:73|82:105,1,140,0|0
144,160,25152,1,0
216,192,25310,2,0,B|304:192,1,70,8|0
360,192,25625,2,0,B|416:136|416:136|416:72,2,140
248,296,26573,6,0,B|186:265|186:265|122:297,1,140,8|0
80,232,27046,2,0,B|80:152,1,70
80,88,27362,1,0
80,88,27520,2,0,B|143:56|143:56|205:87,1,140,0|8
208,168,27994,1,0
208,248,28152,2,0,B|270:279|270:279|334:247,1,140,0|0
328,168,28625,1,0
328,88,28783,2,0,B|240:88,1,70
208,168,29099,6,0,B|120:168,1,70,8|0
88,224,29415,2,0,B|88:296,1,70
160,328,29731,2,0,B|222:359|222:359|286:327,1,140,0|0
352,288,30204,1,0
416,232,30362,6,0,B|354:201|354:201|290:232,1,140,8|0
288,88,30994,2,0,B|350:119|350:119|413:87,1,140,0|0
224,192,31625,6,0,B|162:161|162:161|98:193,1,140,2|4
160,256,32099,1,2
160,336,32257,2,0,B|248:336,1,70,2|0
304,336,32573,2,0,B|367:304|367:304|429:335,1,140,6|2
464,264,33046,1,0
464,184,33204,2,0,B|408:136|408:136|320:136,1,140,6|0
264,136,33678,1,2
264,56,33836,1,6
344,56,33994,1,2
344,136,34152,6,0,B|344:280,1,140,2|4
268,272,34625,2,0,B|188:272,2,70,2|0|2
232,344,35099,2,0,B|80:344,1,140,4|2
40,288,35573,2,0,B|40:208,1,70,0|6
40,144,35888,1,2
40,64,36046,2,0,B|103:32|103:32|165:63,1,140,2|4
232,104,36520,1,2
296,144,36678,6,0,B|352:176|352:176|352:272,1,140,2|4
304,312,37152,1,2
224,312,37310,2,0,B|161:281|161:281|98:312,2,140,2|6|2
304,312,38099,1,2
384,312,38257,2,2,B|408:288|408:288|408:240,1,70,6|2
408,176,38573,2,0,B|408:32,1,140,2|6
328,40,39046,1,2
328,40,39204,6,0,B|328:120,1,70,0|2
272,168,39520,2,0,B|210:137|210:137|146:169,1,140,4|2
148,248,39994,1,2
148,328,40152,2,0,B|211:359|211:359|273:328,1,140,4|0
256,192,40546,12,0,41731
320,176,51836,6,0,B|256:144|256:144|194:177,1,140,0|0
256,224,52310,2,0,B|320:256|320:256|382:223,1,140,0|0
440,176,52783,2,0,B|440:96,1,70,8|8
376,64,53099,6,0,B|312:32|312:32|250:65,1,140,0|0
312,112,53573,2,0,B|248:144|248:144|186:111,1,140,0|0
120,144,54046,2,8,B|120:216,1,70
176,272,54362,6,0,B|236:239|236:239|300:271,1,140,0|0
240,320,54836,2,0,B|179:352|179:352|115:320,1,140,0|0
48,280,55310,2,8,B|48:208,1,70
48,136,55625,6,0,B|108:103|108:103|172:135,1,140,0|0
112,184,56099,2,0,B|172:216|172:216|236:184,1,140,0|0
304,144,56573,1,8
368,104,56731,1,8
432,144,56888,2,0,B|432:232,1,70
368,256,57204,6,0,B|307:288|307:288|243:256,2,140,4|0|8
432,216,57994,1,8
432,144,58152,2,0,B|432:72,1,70
352,64,58467,6,0,B|288:32|288:32|227:64,2,140,4|0|8
288,124,59257,1,8
288,200,59415,2,0,B|288:280,1,70
216,304,59731,2,0,B|184:288|184:288|136:312,1,70,4|0
144,224,60046,2,0,B|83:256|83:256|19:224,1,140,0|8
83,172,60520,1,8
84,92,60678,1,4
256,104,61941,6,0,B|316:71|316:71|380:103,1,140,4|8
376,184,62415,2,0,B|376:328,1,140
296,328,62888,1,8
216,328,63046,1,8
176,264,63204,6,0,B|88:264,1,70,4|0
104,184,63520,2,0,B|192:184,1,70,8|0
176,104,63836,2,0,B|96:104,2,70,0|0|8
256,104,64310,1,8
336,104,64467,6,0,B|400:104|400:104|464:160,1,140,4|8
456,232,64941,1,0
456,312,65099,2,0,B|432:344|432:344|384:344,1,70
324,344,65415,1,8
248,344,65573,1,8
168,344,65731,2,0,B|88:344,1,70,4|0
136,264,66046,2,0,B|216:264,1,70,8|0
176,188,66362,2,0,B|115:156|115:156|51:188,1,140,0|8
28,112,66836,1,8
48,40,66994,6,0,B|200:40,1,140,4|8
256,80,67467,1,0
324,40,67625,2,0,B|464:40,1,140,0|8
464,120,68099,1,8
416,176,68257,2,0,B|352:240,1,70,4|0
312,280,68573,1,8
312,280,68731,1,0
232,280,68888,2,0,B|80:280,1,140,0|8
16,280,69362,1,8
56,216,69520,6,0,B|56:144,1,70,4|0
136,152,69836,2,0,B|232:152,1,70,8|0
280,152,70152,2,0,B|340:119|340:119|404:151,1,140,0|8
472,192,70625,1,8
352,284,72046,6,0,B|256:284,1,70
240,220,72362,1,8
240,220,72520,1,0
176,172,72678,2,0,B|240:140|240:140|300:171,1,140,0|8
240,220,73152,1,8
200,284,73310,6,0,B|112:284,1,70
80,228,73625,2,0,B|80:156,1,70,8|0
80,84,73941,2,0,B|80:12,2,70,0|0|8
80,84,74415,1,8
152,44,74573,6,0,B|200:44|200:44|232:76,1,70
240,128,74888,2,0,B|240:216,1,70,8|0
292,256,75204,2,0,B|356:288|356:288|416:256,1,140,0|8
356,208,75678,1,8
356,132,75836,2,0,B|356:44,1,70
428,100,76152,2,0,B|428:188,1,70,8|0
492,208,76467,1,0
492,288,76625,1,0
424,336,76783,2,0,B|368:336,2,35,8|0|8
340,336,77099,6,0,B|279:304|279:304|215:336,1,140,0|8
140,336,77573,1,0
76,280,77731,2,0,B|76:200,1,70
148,176,78046,2,8,B|148:256,1,70
220,208,78362,2,0,B|284:176|284:176|344:207,1,140,0|8
420,240,78836,1,0
420,312,78994,2,0,B|420:384,1,70
492,320,79310,2,8,B|492:248,1,70
420,240,79625,6,0,B|359:208|359:208|295:240,1,140,0|8
296,240,80099,1,0
204,184,80257,2,0,B|108:184,1,70
132,256,80573,2,8,B|228:256,1,70
132,328,80888,5,0
260,328,81204,1,0
388,328,81520,1,0
388,328,81678,1,0
388,328,81836,2,8,B|388:248,1,70
356,176,82152,6,0,B|295:144|295:144|231:176,1,140,0|0
164,216,82625,1,0
116,152,82783,2,0,B|116:112,2,35
68,216,83099,2,0,B|28:216,2,35
116,280,83415,2,0,B|116:320,2,35
164,216,83731,2,0,B|220:264,1,70
260,328,84046,1,0
260,328,84204,1,0
302,261,84362,2,0,B|356:216,1,70
428,184,84678,6,0,B|428:254,2,70
396,112,85152,1,0
320,99,85310,2,0,B|259:67|259:67|195:99,2,140
260,160,86099,1,0
260,160,86257,2,0,B|260:248,1,70
260,304,86573,2,0,B|356:304,2,70
186,304,87046,1,0
116,280,87204,6,0,B|83:215|83:215|115:155,1,140,0|0
164,216,87678,1,0
220,144,87836,2,0,B|220:104,2,35
276,216,88152,2,0,B|316:216,2,35
220,280,88467,2,0,B|220:320,2,35
164,216,88783,2,0,B|68:216,2,70
220,144,89257,1,0
276,216,89415,2,0,B|348:216,1,70
404,160,89731,5,0
468,216,89888,1,0
404,272,90046,1,0
332,312,90204,1,0
332,312,90362,2,0,B|267:344|267:344|207:313,2,140
268,256,91152,1,0
268,256,91310,2,0,B|268:186,1,70
196,216,91625,1,0
196,216,91783,1,0
196,216,91941,2,0,B|196:128,1,70
116,120,92257,6,0,B|164:72|164:72|260:72,1,140
308,72,92731,1,0
308,72,92888,2,0,B|388:72,1,70
436,120,93204,2,0,B|436:200,1,70
380,240,93520,2,0,B|310:240,1,70
260,296,93836,2,0,B|260:376,2,70
210,240,94310,1,0
212,168,94467,2,0,B|212:72,1,70
140,128,94783,6,0,B|140:198,1,70
68,170,95099,2,0,B|68:240,1,70
60,312,95415,2,0,B|124:344|124:344|184:312,1,140
260,328,95888,1,0
335,312,96046,2,0,B|395:344|395:344|460:312,1,140
396,248,96520,1,0
396,248,96678,2,0,B|326:248,1,70
286,176,96994,2,0,B|356:176,1,70
428,136,97310,6,0,B|428:56,1,70
356,96,97625,2,0,B|276:96,1,70
212,96,97941,2,0,B|132:96,1,70
92,152,98257,2,0,B|92:240,1,70
140,280,98573,2,0,B|210:280,1,70
276,248,98888,1,0
212,208,99046,1,0
276,168,99204,1,0
340,208,99362,1,0
420,208,99520,2,0,B|440:244|440:244|416:284,1,70
364,324,99836,6,0,B|294:324,1,70
220,324,100152,2,0,B|150:324,1,70
140,252,100467,2,0,B|79:283|79:283|14:251,1,140
80,198,100941,1,0
80,120,101099,2,0,B|80:40,1,70
156,52,101415,2,0,B|220:84|220:84|281:53,1,140
404,148,102046,2,0,B|343:116|343:116|279:148,1,140,0|4
256,192,112467,6,0,B|320:160|320:160|380:191,1,140
256,192,113099,2,0,B|288:256|288:256|257:316,1,140
256,192,113731,2,0,B|192:224|192:224|132:193,1,140
256,192,114362,2,0,B|224:128|224:128|255:67,1,140
336,128,114994,5,0
320,272,115310,1,0
176,256,115625,1,0
192,112,115941,1,0
384,208,116257,5,0
240,320,116573,1,0
128,176,116888,1,0
272,64,117204,1,0
352,192,117520,6,0,B|352:272,2,70
160,192,118152,2,0,B|160:272,2,70
416,192,118783,2,0,B|416:272,2,70,0|0|0
96,192,119415,2,0,B|96:262,2,70,0|0|0
136,88,120046,6,0,B|193:126|193:126|265:86,1,140
256,16,120520,1,0
256,91,120678,2,0,B|319:126|319:126|376:88,1,140
376,88,121152,1,0
432,144,121310,2,0,B|432:232,1,70
360,232,121625,2,0,B|360:152,1,70
288,200,121941,1,0
288,280,122099,1,0
224,240,122257,2,0,B|176:240,3,35
192,64,123836,6,0,B|256:32|256:32|316:63,1,140
256,120,124362,2,0,B|256:168,1,46.6666666666667
312,296,124783,5,0
256,240,124941,1,0
200,296,125099,1,0
256,352,125257,1,0
200,296,125415,2,0,B|128:296,2,70
384,296,126046,1,4
424,96,126362,6,0,B|456:156|456:156|423:220,1,140,0|4
368,156,126836,1,2
368,156,126994,2,0,B|272:156,1,70,0|2
224,156,127310,2,0,B|164:132|164:132|96:160,1,140,4|0
164,212,127783,1,2
164,212,127941,2,0,B|164:308,1,70,4|2
237,253,128257,2,0,B|237:325,1,70,0|2
306,339,128573,2,0,B|386:339,1,70,4|2
448,316,128888,6,0,B|480:255|480:255|448:191,1,140,0|4
368,188,129362,1,2
368,108,129520,2,0,B|368:36,1,70,0|2
296,68,129836,2,0,B|232:100|232:100|172:68,1,140,4|0
96,68,130310,1,2
40,124,130467,1,4
96,180,130625,1,2
40,236,130783,2,0,B|40:328,2,70,0|2|4
96,180,131257,1,2
152,124,131415,6,0,B|240:124,1,70,0|2
288,84,131731,2,0,B|349:116|349:116|413:84,1,140,4|0
464,140,132204,1,2
416,196,132362,2,0,B|352:228|352:228|292:196,1,140,4|0
240,252,132836,1,2
204,328,132994,2,0,B|124:328,1,70,4|2
280,328,133310,2,0,B|368:328,1,70,0|2
240,252,133625,1,4
240,172,133783,1,2
240,92,133941,6,0,B|240:20,1,70,0|2
168,92,134257,2,0,B|80:92,1,70,4|2
240,92,134573,2,0,B|301:124|301:124|365:92,1,140,0|6
432,52,135046,1,2
432,132,135204,2,0,B|432:204,1,70,0|2
360,260,135520,2,0,B|360:164,1,70,4|2
288,132,135836,2,0,B|288:212,1,70,0|2
216,260,136152,2,0,B|216:180,1,70,4|2
144,220,136467,6,0,B|72:220|72:220|72:316,1,140,0|4
0,284,136941,1,2
0,204,137099,2,0,B|0:124,1,70,0|2
56,84,137415,2,0,B|117:116|117:116|181:84,1,140,4|0
248,36,137888,1,2
248,36,138046,2,0,B|328:36,1,70,4|2
288,108,138362,1,0
288,108,138520,1,2
288,108,138678,2,0,B|384:108,1,70,4|2
416,172,138994,6,0,B|440:204|440:204|416:236,1,70,0|2
344,204,139309,1,4
344,204,139467,2,0,B|256:204,1,70,2|0
200,204,139783,1,2
120,204,139941,2,0,B|40:204,1,70,6|2
80,276,140257,1,0
136,332,140415,1,2
216,332,140573,2,2,B|296:332,1,70,6|2
360,332,140888,1,0
416,276,141046,1,2
416,196,141204,2,2,B|416:116,1,70,6|2
416,52,141520,6,0,B|353:83|353:83|292:51,1,140,0|4
232,108,141994,1,2
232,108,142152,2,0,B|232:188,1,70,0|2
168,228,142467,2,0,B|232:196|232:196|292:228,1,140,4|0
232,276,142941,1,2
232,276,143099,2,4,B|232:364,1,70,4|2
152,324,143415,1,0
72,324,143573,2,0,B|72:244,1,70,2|4
72,180,143888,1,2
72,100,144046,6,0,B|144:100,1,70,0|2
216,30,144362,2,0,B|216:100,1,70,4|2
272,156,144678,2,0,B|333:188|333:188|397:156,1,140,0|6
456,108,145152,1,2
456,188,145309,2,0,B|456:260,1,70,0|2
384,236,145625,2,2,B|384:308,1,70,6|2
312,276,145941,2,0,B|249:307|249:307|188:275,2,140,0|2|4
252,140,146888,6,2,B|252:76,4,35,2|0|2|0|2
252,220,147362,1,2
188,172,147520,2,0,B|250:139|250:139|313:170,1,140,6|2
388,172,147994,2,0,B|460:172,1,70,2|2
428,244,148309,1,2
460,316,148467,2,2,B|364:316,1,70
316,316,148783,2,2,B|220:316,1,70
188,260,149099,6,2,B|188:172,2,70
116,228,149573,2,0,B|116:140,2,70,0|0|2
44,196,150046,2,0,B|44:44,1,140,4|0
116,84,150520,1,2
188,108,150678,2,0,B|251:139|251:139|313:106,1,140,4|0
380,68,151152,1,2
444,116,151309,1,0
444,196,151467,1,2
444,196,151625,6,0,B|284:196,1,140,4|2
252,252,152099,1,0
308,308,152257,2,0,B|388:308,1,70,0|2
252,252,152573,6,0,B|189:221|189:221|128:253,1,140,0|2
76,196,153046,6,0,B|76:108,1,70,2|0
148,92,153362,1,2
148,92,153520,2,2,B|148:180,1,70
220,132,153836,2,2,B|220:44,1,70
292,92,154152,6,0,B|372:92,2,70,2|0|2
324,164,154625,1,0
404,164,154783,2,2,B|484:164,1,70
444,236,155099,6,0,B|381:205|381:205|320:237,1,140,4|2
252,276,155573,1,0
185,237,155731,2,0,B|124:268|124:268|60:236,1,140,4|2
124,188,156204,1,0
124,188,156362,2,2,B|124:108,1,70
124,44,156678,1,0
256,136,161731,6,0,B|256:64,1,70
192,104,162046,2,0,B|256:136|256:136|316:103,1,140,4|2
384,72,162520,1,0
384,152,162678,2,0,B|384:320,1,140,4|2
304,296,163152,1,0
224,296,163309,1,4
224,296,163467,2,0,B|152:296,1,70,0|2
80,296,163783,1,0
80,220,163941,2,0,B|80:132,2,70,0|0|2
156,188,164415,5,0
232,188,164573,2,0,B|328:188,1,70,4|0
296,108,164888,1,2
376,108,165046,2,0,B|472:108,1,70,0|4
412,180,165362,1,0
336,180,165520,6,0,B|305:243|305:243|337:304,1,140,6|0
256,328,165994,1,0
174,304,166152,2,0,B|207:243|207:243|176:180,2,140,6|0|4
256,208,168046,6,2,B|256:168,3,35
192,320,169625,6,0,B|256:352|256:352|316:321,1,140,4|4
256,264,170152,2,0,B|256:216,1,46.6666666666667,0|4
312,88,170573,5,4
256,144,170731,1,0
200,88,170888,1,4
256,32,171046,1,0
312,88,171204,2,4,B|384:88,2,70
